<?xml version="1.0" standalone="no"?>
<!DOCTYPE svg PUBLIC "-//W3C//DTD SVG 1.1//EN" "http://www.w3.org/Graphics/SVG/1.1/DTD/svg11.dtd" >
<svg xmlns="http://www.w3.org/2000/svg">
<metadata></metadata>
<defs>
<font id="dhromanoblique" horiz-adv-x="1138" >
<font-face units-per-em="2048" ascent="1638" descent="-410" />
<missing-glyph horiz-adv-x="569" />
<glyph horiz-adv-x="0" />
<glyph unicode="&#xd;" horiz-adv-x="0" />
<glyph unicode=" "  horiz-adv-x="569" />
<glyph unicode="&#x09;" horiz-adv-x="569" />
<glyph unicode="&#xa0;" horiz-adv-x="569" />
<glyph unicode="!" horiz-adv-x="569" d="M176 111q8 51 49 86.5t92 35.5t82 -35.5t23 -86.5t-50 -87t-89 -36t-81 35.5t-26 87.5zM254 406l147 1044h172l-147 -1044h-172z" />
<glyph unicode="&#x22;" horiz-adv-x="1062" d="M440 958l70 492h147l-69 -492h-148zM741 958l70 492h147l-69 -492h-148z" />
<glyph unicode="#" d="M121 436l20 135h221l84 312h-200l18 135h221l123 432h137l-122 -432h258l123 432h137l-123 -432h201l-19 -135h-219l-86 -312h201l-21 -135h-221l-121 -436h-137l121 436h-258l-121 -436h-137l121 436h-201zM500 571h258l86 312h-258z" />
<glyph unicode="$" d="M109 166l159 125q35 -70 111 -111t164 -45l71 520q-78 20 -146.5 54t-117.5 83.5t-71.5 118t-10.5 160.5q12 86 55.5 157.5t107 124t141 84t159.5 38.5l19 135h98l-19 -135q111 0 212.5 -41t160.5 -125l-151 -123q-39 61 -101.5 95t-142.5 34l-72 -510q80 -27 153 -57.5 t126 -76.5t79.5 -114t12.5 -168q-12 -92 -57 -165.5t-112 -127t-148.5 -84t-170.5 -37.5l-20 -145h-98l20 145q-127 0 -238.5 44t-172.5 147zM453 1069q-8 -53 4 -90t38.5 -63.5t64.5 -46t81 -38.5l68 484q-104 -18 -173 -83t-83 -163zM641 135q106 12 186 80t95 166 q8 55 -7.5 96t-46 69.5t-71.5 48t-86 34.5z" />
<glyph unicode="%" horiz-adv-x="1705" d="M233 1116q10 76 47 141.5t92.5 113.5t125 76t145.5 28t137.5 -28t102.5 -76t59.5 -113.5t7.5 -141.5q-10 -76 -47 -141.5t-92 -113.5t-124 -75.5t-144 -27.5q-76 0 -137.5 27.5t-103.5 75.5t-60.5 113.5t-8.5 141.5zM348 0l1122 1516l103 -66l-1122 -1516zM381 1116 q-6 -43 6 -81t37 -67.5t60.5 -46t78.5 -16.5t83 16.5t73 46t55.5 67.5t28.5 81t-5.5 81t-36 67.5t-60 46t-78.5 16.5t-83 -16.5t-74 -46t-56.5 -67.5t-28.5 -81zM956 334q10 76 47 141.5t92.5 113.5t125 75.5t145.5 27.5t137.5 -27.5t102.5 -75.5t59 -113.5t8 -141.5 t-47 -141.5t-92 -113.5t-124 -76t-144 -28q-76 0 -137.5 28t-102.5 76t-60.5 113.5t-9.5 141.5zM1104 334q-6 -43 6 -81t36.5 -67.5t60.5 -46t79 -16.5t83 16.5t74 46t55.5 67.5t27.5 81t-5.5 81t-36 67.5t-60 46t-78.5 16.5t-83 -16.5t-74 -46t-56.5 -67.5t-28.5 -81z" />
<glyph unicode="&#x26;" horiz-adv-x="1478" d="M176 389q10 76 45 140.5t87 116.5t115.5 92t133.5 71q-59 72 -100 151.5t-27 184.5q12 80 51 142.5t96.5 104.5t128 63.5t146.5 21.5q74 0 136.5 -20.5t106.5 -60.5t64.5 -100.5t9.5 -140.5q-10 -68 -44.5 -124t-86 -100t-111 -80t-118.5 -65l262 -325l240 325h194 l-340 -446l285 -340h-236l-167 209q-104 -111 -213 -172.5t-254 -61.5q-92 0 -172 28t-136.5 81t-83 130t-12.5 175zM350 395q-8 -59 7.5 -108t49 -86t82 -57.5t105.5 -20.5q55 0 104.5 16.5t93.5 44t85 63.5t81 77l-309 381q-49 -25 -99 -54.5t-92 -66.5t-71 -84t-37 -105z M600 1135q-8 -59 17.5 -105.5t56.5 -85.5l45 -53q43 23 89 47.5t86 55t67.5 71.5t35.5 94q10 80 -37 125t-122 45q-86 0 -155 -52t-83 -142z" />
<glyph unicode="'" horiz-adv-x="569" d="M344 958l70 492h147l-69 -492h-148z" />
<glyph unicode="(" horiz-adv-x="569" d="M195 590q35 254 146.5 485.5t279.5 423.5l100 -82q-158 -180 -253 -391t-126 -436q-18 -123 -16 -229.5t20.5 -206t54 -195.5t86.5 -201l-120 -77q-119 203 -163 438t-9 471z" />
<glyph unicode=")" horiz-adv-x="569" d="M12 -238q158 180 252 391.5t127 436.5q18 123 16.5 229.5t-20 205.5t-54.5 195.5t-87 200.5l121 78q119 -203 161.5 -438.5t10.5 -470.5q-35 -254 -146.5 -485.5t-279.5 -423.5z" />
<glyph unicode="*" horiz-adv-x="909" d="M221 1124l55 119l277 -98l43 305h123l-43 -305l305 98l23 -119l-304 -98l148 -244l-111 -77l-149 251l-213 -251l-92 77l213 244z" />
<glyph unicode="+" horiz-adv-x="1363" d="M223 553l21 135h467l65 467h135l-65 -467h467l-21 -135h-467l-65 -467h-135l65 467h-467z" />
<glyph unicode="," horiz-adv-x="569" d="M66 -283l208 492h187l-238 -492h-157z" />
<glyph unicode="-" horiz-adv-x="681" d="M147 418l21 147h502l-21 -147h-502z" />
<glyph unicode="." horiz-adv-x="569" d="M176 111q8 51 49 86.5t92 35.5t82 -35.5t23 -86.5t-50 -87t-89 -36t-81 35.5t-26 87.5z" />
<glyph unicode="/" horiz-adv-x="757" d="M0 -37l838 1573l123 -49l-840 -1575z" />
<glyph unicode="0" d="M163 555q3 88 15 170q18 123 57 256t110 242.5t176.5 180.5t254.5 71q150 0 236 -71t125 -180.5t41 -242.5t-17 -256q-16 -123 -55 -256t-109.5 -242.5t-176 -180.5t-255.5 -71q-100 0 -170.5 33t-117 88.5t-72 130t-35.5 157.5t-7 171zM335 474.5q3 -66.5 15 -130 t41 -113t76 -79t119 -29.5t127 29.5t98 79t73.5 113t51 130t33 132t20.5 118.5t13.5 118.5t3.5 132t-14.5 130t-41 113t-76 79t-118.5 29.5q-109 0 -180.5 -64.5t-117.5 -156.5t-71 -196.5t-37 -184.5q-8 -53 -13 -118.5t-2 -132z" />
<glyph unicode="1" d="M356 1135l435 315h149l-203 -1450h-172l172 1229h-4l-291 -219z" />
<glyph unicode="2" d="M102 0l27 197l623 532q57 49 102 91t76 82t49 83t27 96q8 57 -6.5 102.5t-46 77t-77 49t-100.5 17.5q-111 0 -191.5 -63.5t-115.5 -167.5l-184 16q27 88 77 156.5t115.5 113.5t145 69t168.5 24q90 0 166.5 -26t130 -75t78 -122.5t12.5 -170.5q-12 -86 -46 -155.5 t-81 -128t-105.5 -110.5t-120.5 -103l-506 -420l-2 -4h740l-21 -160h-934z" />
<glyph unicode="3" d="M115 281l182 57q20 -117 80.5 -166t181.5 -49q61 0 117.5 20.5t101.5 58.5t76 90t39 116q12 80 -12.5 134t-71.5 85.5t-110.5 46t-131.5 14.5h-53l21 148h53q53 0 112.5 8t111.5 34.5t90 77t50 131.5q14 111 -45 175.5t-168 64.5q-92 0 -165.5 -41t-124.5 -121l-156 64 q70 123 192.5 184.5t262.5 61.5q86 0 161.5 -25t128 -72t77 -117.5t11.5 -164.5q-8 -57 -33.5 -109.5t-64.5 -96.5t-89 -77t-108 -49v-4q68 -12 118 -45t82 -81t43 -109.5t3 -129.5q-14 -104 -64 -182t-123 -131t-164 -80t-187 -27q-166 0 -279 72t-145 234z" />
<glyph unicode="4" d="M117 332l26 190l707 928h211l-135 -958h209l-23 -160h-209l-45 -332h-172l45 332h-614zM287 492h467l106 757h-4z" />
<glyph unicode="5" d="M129 240l180 65q27 -82 90.5 -132t155.5 -50q66 0 126 23.5t108.5 67.5t81 105.5t42.5 137.5q10 80 -8 141t-61 103t-105.5 63.5t-138.5 21.5q-74 0 -154.5 -25.5t-152.5 -64.5l121 754h760l-23 -160h-592l-61 -391q45 20 96 27.5t96 7.5q104 0 184 -36t132.5 -100.5 t73 -151.5t5.5 -189q-16 -109 -66 -198t-126 -151.5t-171 -97.5t-202 -35q-164 0 -257 72t-134 193z" />
<glyph unicode="6" d="M143 430q18 127 70.5 220t124.5 188l471 612h201l-473 -604l2 -4q43 23 99 33t101 10q94 0 170 -33t126 -93.5t71.5 -144.5t7.5 -184q-14 -106 -63.5 -190t-123 -142.5t-166.5 -90.5t-196 -32q-102 0 -187 32t-141.5 90.5t-82 142.5t-11.5 190zM315 430q-10 -72 6.5 -128 t53.5 -96t91 -61.5t120 -21.5t126 21.5t107 61.5t80 96t43 128q10 70 -6 127t-53 97t-91 61.5t-120 21.5t-126.5 -21.5t-107.5 -61.5t-79.5 -97t-43.5 -127z" />
<glyph unicode="7" d="M209 0l770 1290h-700l22 160h885l-23 -160l-760 -1290h-194z" />
<glyph unicode="8" d="M162 399q8 68 37.5 130.5t73.5 111.5t101.5 83t125.5 48l2 4q-53 14 -93 47t-65 76t-34 94.5t-1 102.5q12 86 53 155.5t104.5 118.5t142.5 77t167 28t160 -28t120 -77t70.5 -118.5t10.5 -155.5q-8 -51 -32 -102.5t-60.5 -94.5t-85 -75.5t-105.5 -47.5l-2 -4 q127 -29 190.5 -132t44.5 -241q-14 -98 -61 -177t-116.5 -134t-158.5 -84t-186 -29q-96 0 -177 29t-135 84t-80 134t-11 177zM336 412q-10 -63 5 -116.5t49 -91.5t84 -59.5t112 -21.5q61 0 116.5 21.5t100.5 59.5t74.5 91t40.5 117q8 63 -7.5 116.5t-49.5 91t-83 59 t-110 21.5t-117.5 -21.5t-100.5 -59t-75 -91t-39 -116.5zM479 1087q-14 -104 43.5 -171.5t165.5 -67.5q109 0 184.5 67.5t90.5 171.5q16 104 -41.5 172t-165.5 68q-109 0 -185 -68t-92 -172z" />
<glyph unicode="9" d="M225 1020q14 106 64.5 190t124 142.5t167 90.5t195.5 32t186.5 -32t141.5 -90.5t81.5 -142.5t10.5 -190q-16 -127 -69.5 -220t-122.5 -188l-472 -612h-200l473 604l-4 4q-43 -23 -99.5 -33t-101.5 -10q-94 0 -170 33t-126 93.5t-71.5 143.5t-7.5 185zM397 1020 q-10 -72 7.5 -128t54.5 -96t90 -61.5t119 -21.5t126 21.5t108 61.5t80 96t42 128q10 70 -6.5 127t-53 97t-90 61.5t-118.5 21.5q-66 0 -126.5 -21.5t-108.5 -61.5t-80.5 -97t-43.5 -127z" />
<glyph unicode=":" horiz-adv-x="569" d="M176 111q8 51 49 86.5t92 35.5t82 -35.5t23 -86.5t-50 -87t-89 -36t-81 35.5t-26 87.5zM283 860q6 51 47 87t92 36t82 -36t24 -87q-8 -51 -51 -87t-90 -36t-80 36t-24 87z" />
<glyph unicode=";" horiz-adv-x="569" d="M66 -283l208 492h187l-238 -492h-157zM283 860q6 51 47 87t92 36t82 -36t24 -87q-8 -51 -51 -87t-90 -36t-80 36t-24 87z" />
<glyph unicode="&#x3c;" horiz-adv-x="1363" d="M225 561l17 119l1136 475l-20 -135l-959 -399l848 -400l-20 -135z" />
<glyph unicode="=" horiz-adv-x="1363" d="M201 393l20 135h1069l-20 -135h-1069zM246 713l20 135h1069l-20 -135h-1069z" />
<glyph unicode="&#x3e;" horiz-adv-x="1363" d="M158 86l20 135l959 400l-848 399l20 135l1002 -475l-17 -119z" />
<glyph unicode="?" horiz-adv-x="987" d="M215 1137q25 84 73 149.5t111.5 109.5t140 67.5t160.5 23.5t154 -23.5t117 -69.5t68.5 -115t9.5 -157q-10 -68 -37 -122t-66 -100t-88 -88t-100 -85q-37 -31 -58.5 -53.5t-36 -47t-21.5 -54t-13 -72.5l-15 -94h-172l19 129q8 57 20.5 94t34 66.5t52 58t75.5 69.5 q37 33 73 65t66.5 66.5t52 73.5t27.5 88q14 98 -35 160.5t-151 62.5q-104 0 -178 -61t-103 -162zM365 111q8 51 49 86.5t92 35.5t81.5 -35.5t22.5 -86.5t-50 -87t-89 -36t-81 35.5t-25 87.5z" />
<glyph unicode="@" horiz-adv-x="1638" d="M190 725q23 160 103 299t198.5 241.5t267 162t306.5 59.5q141 0 260 -46t202 -129t122 -199t20 -253q-18 -133 -81.5 -241.5t-146.5 -186.5t-173 -121t-162 -43q-53 0 -86 33t-27 102h-4q-55 -55 -118.5 -95t-155.5 -40q-66 0 -116 24.5t-82 67.5t-44 100.5t-2 125.5 q14 106 62.5 210.5t122 186.5t169 132t203.5 50q72 0 127 -37.5t78 -130.5h4l55 129h133l-254 -579q-10 -25 -19 -52.5t-13 -50.5q-6 -41 43 -41t105 38t106.5 100.5t88.5 142.5t50 166q16 121 -16.5 218t-101 166t-164 105.5t-201.5 36.5q-133 0 -256 -52t-220.5 -141 t-163 -208t-83.5 -250q-18 -137 15.5 -256t108 -207t182 -138t234.5 -50q76 0 153 17.5t148.5 50t136 78.5t113.5 102h129q-61 -84 -140 -151t-169 -113t-188.5 -70.5t-198.5 -24.5q-162 0 -293 59.5t-220 163t-129 241.5t-18 298zM621 600q-12 -86 29.5 -141.5t119.5 -55.5 q68 0 131.5 44.5t115.5 110t87 141t45 139.5q6 39 -3 73.5t-28.5 61t-47.5 42t-60 15.5q-72 0 -138.5 -42t-119 -106.5t-88 -139t-43.5 -142.5z" />
<glyph unicode="A" horiz-adv-x="1441" d="M12 0l842 1450h162l414 -1450h-201l-99 356h-724l-199 -356h-195zM496 516h591l-186 713h-4z" />
<glyph unicode="B" horiz-adv-x="1290" d="M180 0l203 1450h442q90 0 174 -18.5t145 -60.5q62 -41 95 -109q23 -46 22 -109q0 -28 -4 -59q-18 -127 -98 -210t-203 -118v-4q70 -6 125.5 -36t92 -77t52.5 -109q10 -39 11 -82q0 -26 -4 -52q-16 -121 -77.5 -199t-148.5 -124t-190.5 -64.5t-204.5 -18.5h-432zM373 160 h291q63 0 127.5 13t119 43t92 78t48.5 118q3 23 3 44q0 47 -16 83q-22 51 -66 81.5t-104.5 43t-126.5 12.5h-295zM469 836h238q61 0 120.5 8t109.5 33.5t86 71.5t46 122q2 19 2 36q-1 44 -15 74q-20 42 -60 66.5t-95 33.5t-113 9h-256z" />
<glyph unicode="C" horiz-adv-x="1441" d="M197 725q23 160 97.5 299t187 241.5t256 162t304.5 59.5q147 0 275.5 -53.5t204.5 -173.5l-166 -109q-53 88 -142.5 132t-193.5 44q-121 0 -229.5 -49t-194.5 -132t-142.5 -192.5t-72.5 -228.5q-7 -53 -8 -102q-1 -71 15 -135q26 -110 87.5 -190.5t156.5 -127.5t218 -47 q133 0 244.5 52t203.5 151l113 -109q-117 -131 -263.5 -192.5t-320.5 -61.5q-156 0 -282.5 57.5t-211.5 159t-122 240.5q-23 86 -23 182q0 59 9 123z" />
<glyph unicode="D" horiz-adv-x="1517" d="M154 0l202 1450h557q106 0 225 -38t214.5 -124t146.5 -224q33 -89 33 -204q0 -63 -10 -135q-18 -133 -65.5 -238.5t-114 -186.5t-147.5 -138.5t-165 -93t-166 -52t-153 -16.5h-557zM346 160h328q125 0 236.5 32.5t199.5 101t147.5 175t79.5 256.5q8 62 8 116 q-1 77 -17 140q-28 106 -96.5 175t-171 101.5t-226.5 32.5h-328z" />
<glyph unicode="E" horiz-adv-x="1214" d="M180 0l203 1450h911l-22 -160h-740l-63 -454h690l-22 -160h-691l-73 -516h776l-21 -160h-948z" />
<glyph unicode="F" d="M180 0l203 1450h899l-22 -160h-728l-67 -479h676l-23 -160h-676l-90 -651h-172z" />
<glyph unicode="G" horiz-adv-x="1593" d="M197 725q25 172 105.5 312.5t200.5 239.5t269.5 154.5t312.5 55.5q143 0 269.5 -43t214.5 -148l-148 -135q-63 80 -161.5 123t-208.5 43q-125 0 -238 -45t-203 -125t-150.5 -190.5t-78.5 -241.5q-7 -50 -7 -97q0 -75 18 -142q28 -111 95.5 -192t172 -126t237.5 -45 q88 0 187.5 21.5t185.5 62.5l61 444h-334l23 160h506l-101 -713q-135 -70 -277 -102.5t-284 -32.5q-170 0 -304 55.5t-223 155.5t-127 240q-23 85 -23 181q0 63 10 130z" />
<glyph unicode="H" horiz-adv-x="1478" d="M180 0l203 1450h172l-86 -614h774l86 614h172l-203 -1450h-172l95 676h-775l-94 -676h-172z" />
<glyph unicode="I" horiz-adv-x="532" d="M180 0l203 1450h172l-203 -1450h-172z" />
<glyph unicode="J" horiz-adv-x="987" d="M43 274l178 35q4 -86 51 -136t140 -50q74 0 124 26.5t82.5 69.5t50 99.5t25.5 115.5l144 1016h172l-152 -1075q-10 -74 -42 -146.5t-88 -132t-140 -96.5t-201 -37q-154 0 -246 78t-98 233z" />
<glyph unicode="K" horiz-adv-x="1290" d="M180 0l203 1450h172l-88 -627h25l747 627h248l-809 -662l641 -788h-252l-588 737h-24l-103 -737h-172z" />
<glyph unicode="L" horiz-adv-x="1024" d="M180 0l203 1450h172l-182 -1290h663l-20 -160h-836z" />
<glyph unicode="M" horiz-adv-x="1857" d="M180 0l203 1450h256l332 -1137h4l655 1137h250l-203 -1450h-172l170 1217h-4l-690 -1217h-104l-351 1217h-4l-170 -1217h-172z" />
<glyph unicode="N" horiz-adv-x="1593" d="M180 0l203 1450h217l670 -1204h4l170 1204h172l-203 -1450h-217l-672 1204h-4l-168 -1204h-172z" />
<glyph unicode="O" horiz-adv-x="1708" d="M197 725q23 164 99.5 304t191 241.5t262 159t313.5 57.5t296 -57.5t216 -159t123 -241.5q23 -86 23 -182q0 -59 -9 -122q-23 -164 -98.5 -304t-191 -241.5t-262 -159t-312.5 -57.5t-297 57.5t-217 159t-123 241.5q-23 86 -23 182q0 59 9 122zM381 725q-7 -51 -7 -99 q0 -72 16 -136q26 -110 90.5 -191.5t163.5 -128.5t226 -47t240 47t200 129t143 191.5t75 234.5q7 51 7 99q1 72 -15 136q-26 110 -90 191.5t-163.5 128.5t-226.5 47t-239.5 -47t-199.5 -129t-144.5 -191.5t-75.5 -234.5z" />
<glyph unicode="P" horiz-adv-x="1214" d="M180 0l203 1450h430q100 0 189.5 -19.5t153.5 -65.5q62 -46 94 -123q21 -51 21 -118q0 -34 -5 -71q-16 -119 -72.5 -197t-133.5 -123t-164 -63.5t-163 -18.5h-291l-90 -651h-172zM465 811h291q129 0 218 58.5t107 181.5q3 22 3 42q0 91 -60 139q-72 58 -201 58h-291z" />
<glyph unicode="Q" horiz-adv-x="1708" d="M201 743q20 158 97 294.5t190.5 235.5t258 156.5t304.5 57.5t287.5 -57.5t213.5 -156.5t123 -235q24 -89 24 -187q0 -53 -7 -108q-12 -92 -50 -183t-95.5 -170t-131.5 -141.5t-160 -96.5v-5h449l-21 -147h-841q-160 0 -288 57.5t-214 156.5t-124 236q-24 85 -24 178 q0 56 9 115zM385 743q-7 -49 -7 -95q0 -70 16 -134q28 -106 92.5 -185t159.5 -124t216 -45q119 0 228.5 45t196.5 124t144.5 185.5t75.5 228.5q6 46 6 89q0 72 -17 138q-26 107 -89.5 186t-159.5 125t-219 46t-231.5 -46t-194.5 -125t-143.5 -185.5t-73.5 -227.5z" />
<glyph unicode="R" horiz-adv-x="1251" d="M180 0l203 1450h371q104 0 206.5 -12.5t177.5 -53.5q76 -42 116 -120q28 -54 28 -135q0 -36 -6 -78q-23 -160 -133.5 -258.5t-284.5 -124.5l320 -668h-211l-303 651h-222l-90 -651h-172zM465 811h153q72 0 150 4t145.5 26.5t116.5 71t62 138.5q3 23 3 43q1 49 -17 82 q-24 47 -70.5 72.5t-108 33.5t-125.5 8h-242z" />
<glyph unicode="S" d="M100 164l164 121q35 -80 114 -121t173 -41q55 0 113.5 16.5t108.5 48t85 78.5t43 109q3 23 3 42q0 39 -11 67q-16 42 -58 73t-111 55.5t-161 57.5q-74 25 -135 56.5t-102 77.5q-42 46 -60 110q-11 39 -11 88q0 31 5 67q14 104 66.5 182t129 130.5t169 79t188.5 26.5 q123 0 218 -38t163 -132l-160 -123q-33 70 -99.5 101.5t-143.5 31.5q-57 0 -115 -14.5t-106 -43t-81.5 -75.5t-42.5 -111q-2 -19 -3 -36q1 -27 7 -51q10 -38 41 -68.5t85.5 -57t138.5 -53.5q80 -27 154.5 -57.5t128.5 -77.5q52 -48 78 -118q16 -44 17 -103q0 -35 -6 -74 q-16 -109 -69 -188.5t-132 -132t-174.5 -78t-193.5 -25.5q-63 0 -125.5 11.5t-118 35t-100.5 61.5t-74 93z" />
<glyph unicode="T" horiz-adv-x="1175" d="M203 1290l22 160h1131l-23 -160h-479l-180 -1290h-172l180 1290h-479z" />
<glyph unicode="U" horiz-adv-x="1441" d="M248 328q-7 49 -7 100q0 61 9 125l127 897h172l-123 -872q-8 -59 -8 -115q0 -28 2 -55q6 -82 41 -145.5t101.5 -101.5t174.5 -38q109 0 185.5 38t129 101.5t82 145t42.5 170.5l122 872h172l-127 -897q-16 -119 -60 -225.5t-121 -187.5t-187.5 -129t-259.5 -48 q-150 0 -247 48t-151.5 129.5t-68.5 187.5z" />
<glyph unicode="V" horiz-adv-x="1251" d="M184 1450h195l278 -1192h5l628 1192h183l-771 -1450h-165z" />
<glyph unicode="W" horiz-adv-x="1972" d="M215 1450h191l159 -1204h4l527 1204h192l185 -1204h4l505 1204h181l-629 -1450h-186l-187 1229h-4l-532 -1229h-189z" />
<glyph unicode="X" horiz-adv-x="1290" d="M-6 0l635 764l-391 686h221l311 -567l467 567h215l-584 -686l428 -764h-227l-340 643l-522 -643h-213z" />
<glyph unicode="Y" horiz-adv-x="1216" d="M184 1450h219l316 -655l512 655h207l-658 -825l-86 -625h-172l86 625z" />
<glyph unicode="Z" horiz-adv-x="1175" d="M59 0l21 154l997 1136h-825l22 160h1035l-21 -147l-999 -1143h848l-21 -160h-1057z" />
<glyph unicode="[" horiz-adv-x="530" d="M12 -319l254 1818h338l-16 -123h-191l-221 -1573h191l-17 -122h-338z" />
<glyph unicode="\" horiz-adv-x="757" d="M215 1487l135 49l395 -1573l-137 -51z" />
<glyph unicode="]" horiz-adv-x="530" d="M90 -319l16 122h191l221 1573h-190l16 123h338l-254 -1818h-338z" />
<glyph unicode="^" horiz-adv-x="1363" d="M242 563l581 887h123l332 -887h-152l-266 715l-467 -715h-151z" />
<glyph unicode="_" horiz-adv-x="1024" d="M-35 -256l15 102h1021l-14 -102h-1022z" />
<glyph unicode="`" horiz-adv-x="491" d="M152 1450h225l172 -295h-146z" />
<glyph unicode="a" horiz-adv-x="1062" d="M131 260q16 119 87 186.5t167 100.5t202.5 41t194.5 8h62l4 29q4 23 4 44q0 71 -43 113q-55 54 -168 54q-78 0 -156.5 -26t-142.5 -79l-86 105q86 76 191.5 111.5t209.5 35.5q213 -1 293 -101q59 -74 59 -203q0 -47 -8 -101l-57 -412q-6 -41 -8 -85q-1 -22 -1 -42.5 t1 -38.5h-154q-2 16 -2 34.5t2 38.5q4 40 9 70h-5q-57 -74 -142 -121t-195 -47q-74 0 -135.5 18.5t-105.5 54.5t-66 89q-15 36 -14 80q0 21 3 43zM305 276q-2 -16 -2 -31q0 -67 45 -97q55 -38 146 -37q70 0 125 23.5t96 62.5t66.5 91t35.5 111l8 62h-159q-154 0 -250.5 -43 t-110.5 -142z" />
<glyph unicode="b" horiz-adv-x="1251" d="M143 0l217 1548h160l-102 -729h4q78 78 170 121t196 43q113 0 200 -38t144.5 -105.5t79.5 -159.5q14 -57 14 -120q0 -39 -5 -81q-14 -109 -64.5 -201t-124.5 -159.5t-167 -105.5t-193 -38q-129 0 -218 56.5t-124 138.5h-4l-23 -170h-160zM369 479q-4 -30 -4 -59 q0 -44 9 -82q15 -64 53 -112t96.5 -75.5t135.5 -27.5q78 0 144.5 27.5t118 75.5t84 112.5t43.5 140.5q4 31 4 60q-1 43 -9 81q-14 64 -52 112t-96 76t-136 28t-144.5 -28t-118 -76t-85 -112.5t-43.5 -140.5z" />
<glyph unicode="c" horiz-adv-x="987" d="M162 479q14 109 63 201t125 159.5t172 105.5t207 38q106 0 196.5 -37t151.5 -115l-143 -112q-43 61 -98.5 89t-126.5 28q-80 0 -144.5 -28t-113 -77t-78 -113.5t-39.5 -138.5q-4 -31 -4 -60q0 -41 8 -79q14 -64 50 -113t91.5 -76.5t128.5 -27.5q156 0 260 119l103 -113 q-80 -80 -179.5 -117t-203.5 -37q-111 0 -198 37t-142 104.5t-79 159.5q-14 54 -14 115q0 42 7 88z" />
<glyph unicode="d" horiz-adv-x="1251" d="M162 479q14 109 64 201t126 159.5t174.5 105.5t210.5 38q104 0 185.5 -43t136.5 -121h4l102 729h160l-217 -1548h-160l23 170h-4q-55 -82 -161 -138.5t-235 -56.5q-100 0 -182 38t-137 105.5t-80 159.5q-16 58 -16 122q0 39 6 79zM334 479q-4 -30 -4 -59q0 -44 9 -82 q15 -64 53 -112t96.5 -75.5t136.5 -27.5t144.5 27.5t117.5 75.5t84 112.5t43 140.5q4 31 4 60q0 43 -8 81q-14 64 -52 112t-96.5 76t-136.5 28t-144.5 -28t-117.5 -76t-85 -112.5t-44 -140.5z" />
<glyph unicode="e" d="M162 479q16 111 66.5 204t125 159.5t169.5 103.5t202 37q100 0 180 -34t130 -99q51 -64 71 -157q12 -52 11 -113q0 -47 -7 -99l-8 -51h-774q-1 -12 0 -23q0 -49 13 -95q17 -56 52 -98t87 -66.5t118 -24.5q104 0 181 37t145 108l106 -94q-100 -111 -208.5 -155t-243.5 -44 q-113 0 -198 40t-138.5 107.5t-73.5 159.5q-12 53 -12 111q0 42 6 86zM346 565h602q2 19 2 37q0 97 -54 160q-64 74 -198 74q-133 0 -226 -74t-126 -197z" />
<glyph unicode="f" horiz-adv-x="645" d="M139 823l19 135h209l30 216q12 88 39 160.5t74 125.5t116.5 83t166.5 30q31 0 64.5 -6t55.5 -19l-43 -143q-25 10 -51 15t-55 5q-61 0 -99 -21.5t-59.5 -59t-33 -91t-19.5 -114.5l-27 -181h234l-19 -135h-233l-115 -823h-160l115 823h-209z" />
<glyph unicode="g" horiz-adv-x="1251" d="M70 -309l133 131q66 -82 144.5 -124t189.5 -42q106 0 181 31.5t124 86t74.5 124t35.5 145.5l19 123h-4q-72 -92 -169.5 -135t-193.5 -43q-113 0 -202 36.5t-147 102.5t-83 156q-16 56 -16 119q0 37 6 77q16 117 66.5 211t127 158.5t175 99.5t212.5 35q98 0 187.5 -46 t124.5 -142h4l22 163h160l-129 -915q-35 -262 -188.5 -398.5t-407.5 -136.5q-141 0 -249.5 41t-196.5 142zM334 479q-4 -26 -4 -51q0 -45 12 -85q18 -62 57 -108.5t97.5 -73t128.5 -26.5q82 0 149.5 29t117.5 77t82 110.5t42 131.5q4 31 4 59q0 44 -10 84q-15 64 -53.5 111 t-98 73t-135.5 26t-141.5 -28t-117.5 -76t-86 -112.5t-44 -140.5z" />
<glyph unicode="h" d="M152 0l217 1548h159l-102 -723h4q20 29 53 56.5t76 50t94.5 37t106.5 14.5q94 0 158.5 -28.5t102.5 -80.5t49 -124q5 -35 5 -72q0 -41 -6 -86l-82 -592h-160l80 575q4 33 4 62q-1 78 -31 129q-42 70 -155 70q-156 0 -241 -102.5t-107 -266.5l-66 -467h-159z" />
<glyph unicode="i" horiz-adv-x="491" d="M166 0l133 958h160l-133 -958h-160zM315 1333q6 47 45 82t89 35q49 0 77 -35q24 -29 24 -66q0 -8 -1 -16q-8 -51 -45 -83.5t-88 -32.5q-51 1 -80 33q-23 25 -23 62q0 10 2 21z" />
<glyph unicode="j" horiz-adv-x="491" d="M-135 -471l39 139q37 -12 76 -12q45 0 73.5 16.5t47 44t28.5 64.5t16 78l154 1099h160l-164 -1173q-6 -37 -23.5 -85t-54.5 -90t-96.5 -72t-147.5 -30q-29 0 -56.5 4.5t-51.5 16.5zM315 1333q6 47 45 82t89 35q49 0 77 -35q24 -29 24 -66q0 -8 -1 -16q-8 -51 -45 -83.5 t-88 -32.5t-80 33q-23 25 -23 62q0 10 2 21z" />
<glyph unicode="k" horiz-adv-x="1024" d="M152 0l217 1548h159l-143 -1011l496 421h227l-524 -436l438 -522h-236l-405 504l-70 -504h-159z" />
<glyph unicode="l" horiz-adv-x="491" d="M166 0l217 1548h160l-217 -1548h-160z" />
<glyph unicode="m" horiz-adv-x="1744" d="M152 0l102 731q10 66 13 123t9 104h152q-4 -39 -8 -77.5t-10 -79.5h4q20 35 55 67.5t80 58t98 41t113 15.5q78 0 128 -19.5t80.5 -47t45 -59.5t22.5 -56q66 86 142.5 134t187.5 48q102 0 167.5 -27.5t101.5 -79.5q35 -54 43 -128q3 -27 3 -56q0 -51 -8 -110l-80 -582 h-159l79 573q4 33 4 65q0 16 -1 32q-3 48 -24.5 84.5t-63.5 59t-111 22.5q-51 0 -99.5 -20.5t-87 -57.5t-66.5 -89.5t-36 -115.5l-76 -553h-159l75 543q9 65 9 114q0 73 -20 113q-34 66 -132 66q-156 0 -241 -102.5t-107 -266.5l-66 -467h-159z" />
<glyph unicode="n" d="M152 0l102 731q10 66 13 123t9 104h152q-4 -39 -8 -77.5t-10 -79.5h4q20 35 55 67.5t80 58t98 41t113 15.5q94 0 158.5 -28.5t102.5 -80.5t49 -124q5 -35 5 -72q0 -41 -6 -86l-82 -592h-160l80 575q4 33 4 62q-1 78 -31 129q-42 70 -155 70q-156 0 -241 -102.5 t-107 -266.5l-66 -467h-159z" />
<glyph unicode="o" horiz-adv-x="1216" d="M162 479q16 113 67.5 205t129 158.5t177 103.5t209.5 37q111 0 200 -37t147 -104q58 -66 84 -158q16 -57 16 -121q0 -40 -6 -84q-16 -113 -67.5 -205t-128.5 -158.5t-176 -103.5t-210 -37t-200 37t-147 104q-59 66 -85 158q-17 57 -16 123q0 39 6 82zM334 479 q-4 -30 -4 -59q0 -44 9 -82q15 -64 53 -112t96.5 -75.5t136.5 -27.5t144.5 27.5t117.5 75.5t84 112.5t43 140.5q4 31 4 60q0 43 -8 81q-14 64 -52 112t-96.5 76t-136.5 28t-144.5 -28t-117.5 -76t-85 -112.5t-44 -140.5z" />
<glyph unicode="p" horiz-adv-x="1251" d="M76 -467l200 1425h160l-18 -139h4q78 78 170 121t196 43q113 0 200 -38t144.5 -105.5t79.5 -159.5q14 -57 14 -120q0 -39 -5 -81q-14 -109 -64.5 -201t-124.5 -159.5t-167 -105.5t-193 -38q-129 0 -218 56.5t-124 138.5h-4l-90 -637h-160zM369 479q-4 -30 -4 -59 q0 -43 9 -82q15 -64 53 -112t96.5 -75.5t135.5 -27.5q78 0 144.5 27.5t118 75.5t84 112.5t43.5 140.5q4 31 4 60q0 42 -9 81q-14 64 -52 112t-96 76t-136 28t-144.5 -28t-118 -76t-85 -112.5t-43.5 -140.5z" />
<glyph unicode="q" horiz-adv-x="1251" d="M162 479q14 106 65.5 198.5t125 160t166.5 106.5t194 39q129 0 218 -56.5t124 -138.5h4l22 170h160l-201 -1425h-159l86 606h-4q-78 -78 -170.5 -121t-196.5 -43q-113 0 -201 38t-144 105.5t-81 159.5q-15 56 -15 116q0 41 7 85zM334 479q-4 -30 -4 -59q0 -43 9 -82 q15 -64 53 -112t96.5 -75.5t136.5 -27.5t144.5 27.5t117.5 75.5t84 112.5t43 140.5q4 31 4 60q0 42 -8 81q-15 64 -52.5 112t-96 76t-136.5 28t-144.5 -28t-117.5 -76t-85 -112.5t-44 -140.5z" />
<glyph unicode="r" horiz-adv-x="720" d="M152 0l102 731q10 66 13 123t9 104h152q-4 -39 -8 -77.5t-10 -79.5h4q20 35 55 67.5t80 58t98 41t113 15.5q16 0 31.5 -2t31.5 -8l-32 -162q-37 12 -84 12q-147 0 -227.5 -95t-102.5 -261l-66 -467h-159z" />
<glyph unicode="s" horiz-adv-x="872" d="M66 154l141 98q39 -59 90 -94t137 -35q37 0 76 8t71.5 26.5t55 46t29.5 66.5q2 11 2 22q0 26 -10 42q-14 24 -41 41.5t-63 28t-73 18.5q-66 14 -125 32.5t-100 47.5q-42 30 -62 78q-14 32 -13 75q0 21 3 45q8 70 47 123.5t94.5 88t122 53t134.5 18.5q102 0 183 -41 t118 -133l-146 -88q-23 51 -68.5 83t-117.5 32q-33 0 -67.5 -8.5t-64.5 -25t-50.5 -42t-24.5 -58.5q-4 -31 12.5 -52t47 -37.5t72.5 -29t89 -20.5q61 -12 115.5 -31.5t93.5 -52.5q38 -33 56 -82q11 -31 12 -72q0 -23 -4 -49q-10 -82 -51.5 -139t-100.5 -93t-130 -52.5 t-142 -16.5q-123 0 -207 38t-141 141z" />
<glyph unicode="t" horiz-adv-x="720" d="M139 823l19 135h209l39 273h159l-39 -273h283l-18 -135h-283l-68 -479q-6 -47 -9 -87q-1 -10 -1 -19q0 -28 7 -50q9 -30 36 -47.5t80 -17.5q35 0 73 8t72 25l-14 -146q-43 -18 -94 -26.5t-96 -8.5q-86 0 -134.5 22.5t-71 63.5t-23.5 101v12q0 56 9 123l74 526h-209z" />
<glyph unicode="u" d="M202 208q-5 34 -6 71q0 42 7 88l82 591h159l-79 -575q-4 -33 -4 -62q1 -79 31 -129q42 -70 155 -69q156 0 240.5 102.5t107.5 266.5l66 466h159l-102 -731q-10 -66 -13.5 -123t-9.5 -104h-151l8 78t8 80h-4q-20 -35 -55 -68t-79 -58.5t-97.5 -41t-112.5 -15.5 q-94 0 -158.5 29t-102 80t-49.5 124z" />
<glyph unicode="v" horiz-adv-x="987" d="M154 958h186l195 -751h4l389 751h172l-512 -958h-176z" />
<glyph unicode="w" horiz-adv-x="1517" d="M162 958h176l117 -737h4l350 737h168l149 -737h4l320 737h172l-442 -958h-158l-170 737h-4l-344 -737h-164z" />
<glyph unicode="x" horiz-adv-x="1024" d="M6 0l465 516l-283 442h209l207 -344l287 344h194l-391 -442l324 -516h-211l-246 414l-356 -414h-199z" />
<glyph unicode="y" horiz-adv-x="987" d="M-25 -467l39 139q41 -16 111 -16q78 0 121 43t80 115l90 180l-262 964h186l192 -751h5l389 751h174l-629 -1177q-33 -61 -65.5 -111.5t-72.5 -86.5t-93.5 -55.5t-124.5 -19.5q-35 0 -73 4.5t-67 20.5z" />
<glyph unicode="z" horiz-adv-x="909" d="M61 0l17 125l661 698h-538l18 135h748l-17 -122l-661 -701h577l-18 -135h-787z" />
<glyph unicode="{" horiz-adv-x="681" d="M141 528l17 123q66 0 129 62.5t80 169.5l51 360q8 61 34.5 109.5t62.5 81t76 49t77 16.5h143l-16 -123h-111q-33 0 -54.5 -13t-35.5 -36.5t-21.5 -52.5t-11.5 -60l-51 -360q-10 -70 -38 -118t-60.5 -78.5t-64.5 -46t-50 -19.5v-4q16 -2 44 -15.5t52.5 -43t38.5 -80 t4 -125.5l-51 -359q-4 -31 -4 -59.5t7 -51t24.5 -37t50.5 -14.5h110l-16 -122h-143q-39 0 -75 16t-62.5 49t-39 81t-4.5 110l52 358q8 55 -1.5 98t-31 74t-50 46t-61.5 15z" />
<glyph unicode="|" horiz-adv-x="454" d="M86 -512l289 2048h135l-289 -2048h-135z" />
<glyph unicode="}" horiz-adv-x="681" d="M35 -319l16 122h111q33 0 54.5 14.5t35.5 37t21.5 51t11.5 59.5l51 359q10 76 37.5 126t60.5 79.5t64.5 43t50.5 15.5v4q-16 4 -44 19.5t-52.5 46t-39 78.5t-3.5 118l51 360q4 31 4 60t-7 52.5t-24.5 36.5t-50.5 13h-111l17 123h143q37 0 73 -16.5t62.5 -49t40 -80.5 t4.5 -110l-51 -360q-8 -53 1 -96.5t30.5 -73t50.5 -46t62 -16.5l-17 -123q-66 0 -129 -61t-80 -172l-51 -358q-8 -61 -33.5 -109.5t-61.5 -81.5t-76 -49t-79 -16h-143z" />
<glyph unicode="~" horiz-adv-x="1363" d="M291 578q27 33 57.5 64.5t64 57t73.5 42t87 16.5q55 0 103.5 -19.5t95.5 -42.5q55 -27 107.5 -52.5t117.5 -25.5q33 0 61.5 12.5t52.5 33t44.5 46t36.5 52.5l53 -98q-29 -33 -58.5 -65t-63 -57.5t-73.5 -42t-87 -16.5q-55 0 -104.5 19.5t-96.5 42.5q-55 27 -107.5 52.5 t-117.5 25.5q-68 0 -114 -45.5t-79 -98.5z" />
<glyph unicode="&#xa1;" horiz-adv-x="569" d="M133 -455l148 1045h172l-148 -1045h-172zM285 885q8 51 51 87t90 36t80 -36t24 -87q-6 -51 -47 -87t-92 -36t-81.5 36t-24.5 87z" />
<glyph unicode="&#xa2;" d="M203 479q14 100 57 187.5t109.5 153t151.5 106.5t184 51l18 141h98l-18 -135q98 -4 178 -42t137 -110l-143 -112q-72 104 -193 117l-100 -713q133 8 227 119l103 -113q-72 -74 -163 -110.5t-187 -43.5l-19 -135h-98l18 135q-96 12 -170 54.5t-121 108t-65.5 152.5 t-3.5 189zM375 479q-18 -131 38 -228t171 -126l100 706q-135 -25 -213 -123t-96 -229z" />
<glyph unicode="&#xa3;" d="M117 0l20 160h221l74 516h-196l18 135h197l22 164q18 133 65.5 228t115 155.5t152.5 88.5t177 28t173 -31t138 -96l-129 -121q-41 47 -90 73.5t-117 26.5q-76 0 -130 -25.5t-91 -72.5t-58.5 -112.5t-33.5 -145.5l-22 -160h331l-18 -135h-332l-74 -516h504l-20 -160h-897z " />
<glyph unicode="&#xa4;" d="M98 303l127 113q-90 135 -67 309q12 88 52 167t103 144l-96 111l102 90l97 -109q76 53 157.5 81t167.5 28t162 -27.5t135 -81.5l125 109l78 -90l-125 -111q90 -131 66 -311q-10 -86 -50 -164t-104 -145l94 -113l-102 -90l-94 113q-76 -53 -159 -83t-169 -30t-161 29.5 t-134 83.5l-127 -113zM317 725q-10 -72 8.5 -137.5t59.5 -116.5t101.5 -81t131.5 -30q72 0 140.5 30t124 81t92.5 116.5t47 137.5q10 74 -8.5 140.5t-59.5 116.5t-101 79t-132 29t-140.5 -29t-123 -79t-92.5 -116.5t-48 -140.5z" />
<glyph unicode="&#xa5;" d="M203 1450h205l270 -670l459 670h204l-485 -670h234l-17 -123h-307l-25 -32l-20 -146h326l-17 -123h-325l-50 -356h-172l49 356h-325l16 123h326l20 146l-12 32h-307l16 123h234z" />
<glyph unicode="&#xa6;" horiz-adv-x="454" d="M109 -358l100 716h135l-100 -716h-135zM252 666l100 716h135l-100 -716h-135z" />
<glyph unicode="&#xa7;" d="M109 -43l167 74q14 -94 77 -136t155 -42q43 0 85 10t75.5 33.5t57.5 59.5t30 85q6 43 -9.5 74.5t-42 55.5t-60.5 41t-64 34l-232 131q-66 37 -95.5 102.5t-16.5 147.5q14 109 81.5 176t163.5 110q-66 41 -100.5 99.5t-22.5 142.5q12 82 54.5 144.5t104 103.5t135 62.5 t147.5 21.5q53 0 105 -11.5t96 -34t78 -59t50 -88.5l-163 -84q-16 68 -72.5 98.5t-122.5 30.5q-39 0 -79 -10t-73.5 -31.5t-57 -55.5t-30.5 -79q-12 -102 70 -147l186 -101q49 -25 100.5 -55.5t91.5 -70t61.5 -91t11.5 -120.5q-12 -94 -71.5 -162t-143.5 -111 q61 -43 89.5 -104.5t16.5 -147.5q-12 -88 -57 -153.5t-109.5 -108.5t-143.5 -64.5t-157 -21.5q-133 0 -233.5 60.5t-132.5 191.5zM397 653q-6 -41 6.5 -69.5t35 -51t51 -39t57.5 -30.5l170 -88q53 23 101 71t56 107q6 43 -8 76t-39.5 59.5t-57.5 46t-62 35.5l-111 59 q-31 -12 -63.5 -26.5t-60.5 -34.5t-48.5 -48t-26.5 -67z" />
<glyph unicode="&#xa8;" horiz-adv-x="491" d="M113 1290q6 45 43 78t84 33t73.5 -33t20.5 -78q-6 -47 -43 -78.5t-84 -31.5t-74 31.5t-20 78.5zM518 1290q6 45 43 78t84 33t73.5 -33t20.5 -78q-6 -47 -43 -78.5t-84 -31.5t-73.5 31.5t-20.5 78.5z" />
<glyph unicode="&#xa9;" horiz-adv-x="1638" d="M158 725q23 162 103.5 302t198.5 241.5t265 160t303 58.5t286 -58.5t219 -160t130 -241.5t18 -302q-23 -164 -103.5 -303t-198 -240.5t-264 -160t-302.5 -58.5t-287 58.5t-220 160t-130 240.5t-18 303zM293 725q-18 -139 13.5 -258t104 -206t180 -137t238.5 -50t252 50 t218.5 137t163 206t83.5 258q20 137 -12.5 257t-104 207t-179 137t-238.5 50t-253 -50t-218.5 -137t-162 -207t-85.5 -257zM496 725q14 100 57 186t109.5 147.5t154.5 96.5t193 35q72 0 134 -19.5t107 -58.5t72 -97.5t27 -133.5h-125q-4 86 -64.5 142t-163.5 56 q-76 0 -138 -27.5t-109.5 -74.5t-78 -111.5t-40.5 -140.5q-10 -72 3 -136.5t49 -113.5t90 -77.5t128 -28.5q102 0 178 59t103 150h127q-53 -147 -168 -233.5t-256 -86.5q-104 0 -183 36t-129.5 98.5t-71 147.5t-5.5 185z" />
<glyph unicode="&#xaa;" horiz-adv-x="690" d="M213 1049q10 72 56 110.5t106.5 57t126 22.5t116.5 4h48l4 29q4 29 -29 60.5t-109 31.5q-59 0 -112 -20.5t-78 -43.5l-51 86q53 45 121.5 67t136.5 22q147 0 200.5 -60.5t36.5 -183.5l-36 -262q-4 -23 -4.5 -44.5t-0.5 -43.5h-124q0 45 6 92h-4q-35 -57 -90.5 -81 t-129.5 -24q-94 0 -148 44t-42 137zM350 1051q-4 -35 26 -53.5t81 -18.5q84 0 134 43t56 88l4 35h-98q-25 0 -57.5 -1t-63.5 -10.5t-54.5 -29t-27.5 -53.5z" />
<glyph unicode="&#xab;" horiz-adv-x="1024" d="M186 492l355 438l102 -74l-291 -364l189 -365l-123 -74zM567 492l355 438l102 -74l-291 -364l189 -365l-123 -74z" />
<glyph unicode="&#xac;" horiz-adv-x="1363" d="M246 713l20 135h1069l-80 -569h-135l60 434h-934z" />
<glyph unicode="&#xad;" horiz-adv-x="681" d="M147 418l21 147h502l-21 -147h-502z" />
<glyph unicode="&#xae;" horiz-adv-x="1638" d="M158 725q23 162 103.5 302t198.5 241.5t265 160t303 58.5t286 -58.5t219 -160t130 -241.5t18 -302q-23 -164 -103.5 -303t-198 -240.5t-264 -160t-302.5 -58.5t-287 58.5t-220 160t-130 240.5t-18 303zM293 725q-18 -139 13.5 -258t104 -206t180 -137t238.5 -50t252 50 t218.5 137t163 206t83.5 258q20 137 -12.5 257t-104 207t-179 137t-238.5 50t-253 -50t-218.5 -137t-162 -207t-85.5 -257zM567 281l125 890h336q311 0 275 -253q-16 -121 -92 -177.5t-177 -66.5l201 -393h-145l-189 383h-145l-54 -383h-135zM772 774h139q45 0 88 3t79 17.5 t59.5 45t31.5 84.5q6 45 -8 72.5t-40.5 42t-61.5 18.5t-70 4h-178z" />
<glyph unicode="&#xaf;" horiz-adv-x="491" d="M135 1229l17 123h565l-17 -123h-565z" />
<glyph unicode="&#xb0;" horiz-adv-x="819" d="M283 1182q8 61 38.5 114.5t75.5 93.5t101.5 62.5t117.5 22.5t111.5 -22.5t84.5 -62.5t49.5 -93.5t6.5 -114.5q-10 -61 -39.5 -114.5t-75.5 -93.5t-102.5 -62.5t-118.5 -22.5q-61 0 -111 22.5t-84 62.5t-49 93.5t-5 114.5zM393 1182q-4 -31 4.5 -64t28.5 -59.5t51 -43 t72 -16.5t77 16.5t63.5 43t46 59.5t22.5 64t-5.5 63.5t-30 59t-51 43t-71.5 16.5t-77 -16.5t-63.5 -43t-45 -59t-21.5 -63.5z" />
<glyph unicode="&#xb1;" horiz-adv-x="1363" d="M158 86l20 135h1069l-20 -135h-1069zM242 676l18 135h467l49 344h135l-49 -344h467l-18 -135h-467l-49 -344h-136l50 344h-467z" />
<glyph unicode="&#xb2;" horiz-adv-x="739" d="M147 592l17 119l387 309q66 51 102.5 92t46.5 107q10 68 -28.5 106.5t-98.5 38.5q-66 0 -116.5 -37t-71.5 -100l-129 10q37 123 126 180.5t204 57.5q57 0 107 -15.5t85 -47.5t50.5 -80t7.5 -113q-6 -53 -28 -94.5t-52.5 -77t-67.5 -66.5t-76 -61l-276 -213v-5h436 l-16 -110h-609z" />
<glyph unicode="&#xb3;" horiz-adv-x="739" d="M170 768l117 47q6 -20 17 -42.5t32.5 -41t51.5 -30t73 -11.5q33 0 66.5 9.5t60 26.5t45 44t24.5 64q6 49 -10 79.5t-46 48t-67.5 23.5t-74.5 6h-33l14 111h35q25 0 58.5 5t64.5 19.5t55.5 42t30.5 74.5q10 66 -30 93.5t-99 27.5q-53 0 -99 -18.5t-79 -67.5l-105 51 q49 78 128 112t171 34q55 0 104.5 -14.5t83.5 -43t51 -71.5t9 -99q-10 -68 -63.5 -123t-126.5 -75v-5q90 -12 132 -73.5t30 -143.5q-8 -61 -40 -107t-79 -77t-105.5 -47t-122.5 -16q-106 0 -180 42t-94 146z" />
<glyph unicode="&#xb4;" horiz-adv-x="491" d="M266 1155l254 295h225l-333 -295h-146z" />
<glyph unicode="&#xb5;" d="M84 -467l201 1425h159l-79 -575q-16 -121 26.5 -190.5t155.5 -69.5q156 0 240.5 102.5t107.5 266.5l66 466h159l-102 -731q-10 -66 -13.5 -123t-9.5 -104h-151l8 78t8 80h-4q-20 -35 -55 -68t-79 -58.5t-97.5 -41t-112.5 -15.5q-66 0 -110 11.5t-89 40.5l-69 -494h-160z " />
<glyph unicode="&#xb6;" horiz-adv-x="1228" d="M313 1028q29 201 169.5 311.5t357.5 110.5h497l-239 -1708h-148l221 1573h-241l-221 -1573h-148l127 905q-94 0 -169 30t-124 81t-71.5 120.5t-10.5 149.5z" />
<glyph unicode="&#xb7;" horiz-adv-x="569" d="M250 633q8 51 48 87t91 36t83 -36t24 -87t-51.5 -87t-90.5 -36t-79.5 36t-24.5 87z" />
<glyph unicode="&#xb8;" horiz-adv-x="491" d="M-31 -401l43 75q70 -33 144 -32q41 0 85 17t52 67q6 43 -28 60t-68 17q-20 0 -42 -5t-40 -11l-35 39l151 174h93l-111 -131q14 2 30.5 5t41.5 3q27 0 54.5 -8t49 -25.5t33.5 -44t6 -63.5q-6 -49 -32.5 -84t-64.5 -56.5t-82 -30.5t-85 -9q-53 0 -103.5 10t-91.5 33z" />
<glyph unicode="&#xb9;" horiz-adv-x="739" d="M295 1272l280 190h119l-123 -870h-135l103 721h-4l-187 -135z" />
<glyph unicode="&#xba;" horiz-adv-x="790" d="M225 1174q8 68 42 123t84 95t114.5 61.5t136.5 21.5t130.5 -21.5t97 -61.5t55 -95.5t8.5 -122.5q-10 -70 -43 -126.5t-83 -96.5t-114.5 -61.5t-136.5 -21.5t-130 21.5t-97 61.5t-56.5 96.5t-7.5 126.5zM360 1174q-6 -39 3.5 -74t32 -61.5t56 -43t80.5 -16.5q45 0 85 16.5 t69 43t47.5 62.5t24.5 73t-3.5 70.5t-32 60t-57 43t-79.5 16.5q-47 0 -86 -16.5t-68 -43t-47.5 -60t-24.5 -70.5z" />
<glyph unicode="&#xbb;" horiz-adv-x="1024" d="M135 127l291 365l-188 364l122 74l232 -438l-354 -439zM516 127l291 365l-189 364l123 74l232 -438l-355 -439z" />
<glyph unicode="&#xbc;" horiz-adv-x="1708" d="M258 1272l281 190h118l-122 -870h-136l103 723h-4l-187 -137zM305 0l1122 1516l103 -66l-1122 -1516zM1004 184l18 129l453 557h159l-80 -575h115l-16 -111h-115l-25 -184h-135l25 184h-399zM1143 295h276l58 416h-4z" />
<glyph unicode="&#xbd;" horiz-adv-x="1708" d="M246 1272l280 190h119l-123 -870h-135l102 723h-4l-186 -137zM270 0l1123 1516l102 -66l-1122 -1516zM1032 0l17 119l387 309q66 51 102.5 92t46.5 107q4 33 -4 60.5t-26.5 46t-44 28.5t-54.5 10q-66 0 -116 -37t-72 -100l-127 10q35 123 124 180.5t203 57.5 q57 0 107.5 -15.5t86.5 -47.5t51.5 -80t6.5 -113q-8 -53 -28.5 -94t-51 -77t-68.5 -67t-77 -61l-276 -213v-4h436l-15 -111h-608z" />
<glyph unicode="&#xbe;" horiz-adv-x="1708" d="M158 768l118 47q6 -20 17.5 -42.5t33 -41t51.5 -30t73 -11.5q33 0 66.5 9.5t60 26.5t45 44t24.5 64q6 49 -10 79.5t-46 48t-68 23.5t-74 6h-33l14 111h33q27 0 60.5 5t64 19.5t55.5 42t31 74.5q10 66 -30 93.5t-99 27.5q-53 0 -99.5 -18.5t-78.5 -67.5l-105 51 q49 78 128 112t171 34q55 0 104.5 -14.5t83 -43t51 -71.5t9.5 -99q-10 -68 -63.5 -123t-127.5 -75v-5q90 -12 132.5 -73.5t29.5 -143.5q-8 -61 -39.5 -107t-79 -77t-105.5 -47t-122 -16q-106 0 -180 42t-96 146zM385 0l1122 1516l103 -66l-1123 -1516zM1032 184l19 129 l452 557h160l-80 -575h115l-17 -111h-114l-25 -184h-135l25 184h-400zM1171 295h277l57 416h-4l-330 -412v-4z" />
<glyph unicode="&#xbf;" horiz-adv-x="987" d="M78 -127q8 68 35.5 122t65.5 100t86 88t102 85q37 31 59.5 53.5t36.5 47t21.5 54.5t13.5 73l12 94h172l-18 -129q-8 -57 -20.5 -94t-33 -67t-52.5 -59.5t-77 -68.5q-37 -33 -72.5 -64.5t-66.5 -66.5t-52.5 -74t-27.5 -88q-14 -98 35 -160.5t152 -62.5q104 0 177.5 61.5 t102.5 161.5l182 -20q-27 -84 -73.5 -149.5t-110 -109.5t-140.5 -68t-161 -24t-153.5 24t-116.5 70t-68.5 114.5t-9.5 156.5zM514 885q8 51 51 87t90 36t80 -36t25 -87q-6 -51 -47 -87t-92 -36t-82 36t-25 87z" />
<glyph unicode="&#xc0;" horiz-adv-x="1441" d="M12 0l842 1450h162l414 -1450h-201l-99 356h-724l-199 -356h-195zM496 516h591l-186 713h-4zM682 1847h225l172 -295h-145z" />
<glyph unicode="&#xc1;" horiz-adv-x="1441" d="M12 0l842 1450h162l414 -1450h-201l-99 356h-724l-199 -356h-195zM496 516h591l-186 713h-4zM797 1552l253 295h226l-334 -295h-145z" />
<glyph unicode="&#xc2;" horiz-adv-x="1441" d="M12 0l842 1450h162l414 -1450h-201l-99 356h-724l-199 -356h-195zM496 516h591l-186 713h-4zM616 1552l269 295h186l188 -295h-166l-133 209l-188 -209h-156z" />
<glyph unicode="&#xc3;" horiz-adv-x="1441" d="M12 0l842 1450h162l414 -1450h-201l-99 356h-724l-199 -356h-195zM496 516h591l-186 713h-4zM600 1577q12 39 32.5 78t49.5 68.5t66.5 48t84.5 18.5t87 -15.5t79 -31.5q29 -12 51.5 -23.5t55.5 -11.5q41 0 67.5 26.5t42.5 63.5h99q-12 -39 -30.5 -77t-46.5 -68.5 t-63.5 -49t-81.5 -18.5q-43 0 -82.5 13.5t-76.5 29.5q-29 12 -61.5 25.5t-67.5 13.5q-39 0 -64.5 -27.5t-42.5 -62.5h-98z" />
<glyph unicode="&#xc4;" horiz-adv-x="1441" d="M12 0l842 1450h162l414 -1450h-201l-99 356h-724l-199 -356h-195zM496 516h591l-186 713h-4zM643 1688q6 45 43 77.5t84 32.5t73.5 -32.5t20.5 -77.5q-6 -47 -42 -79t-83 -32t-74.5 31.5t-21.5 79.5zM1048 1688q6 45 43 77.5t84 32.5t74 -32.5t21 -77.5q-6 -47 -42 -79 t-83 -32t-75 31.5t-22 79.5z" />
<glyph unicode="&#xc5;" horiz-adv-x="1441" d="M12 0l842 1450h162l414 -1450h-201l-99 356h-724l-199 -356h-195zM496 516h591l-186 713h-4zM756 1698q6 41 26.5 77.5t51 64.5t70.5 44.5t83 16.5q92 0 138 -60.5t36 -142.5q-6 -43 -26.5 -80t-51 -64.5t-70.5 -43t-83 -15.5q-88 0 -137 58.5t-37 144.5zM842 1698 q-8 -51 23.5 -84t76.5 -33t85 33t48 84q8 49 -23.5 83t-76.5 34t-85 -34t-48 -83z" />
<glyph unicode="&#xc6;" horiz-adv-x="1933" d="M-20 0l1144 1450h891l-22 -160h-602l-64 -454h565l-22 -160h-565l-74 -516h627l-21 -160h-799l54 393h-600l-306 -393h-206zM616 553h498l105 737h-25z" />
<glyph unicode="&#xc7;" horiz-adv-x="1441" d="M197 725q23 160 97.5 299t187 241.5t256 162t304.5 59.5q147 0 275.5 -53.5t204.5 -173.5l-166 -109q-53 88 -142.5 132t-193.5 44q-121 0 -229.5 -49t-194.5 -132t-142.5 -192.5t-72.5 -228.5q-18 -127 7.5 -236.5t87 -190.5t156.5 -128t218 -47q133 0 244.5 52 t203.5 151l113 -109q-117 -131 -263.5 -192.5t-320.5 -61.5l-77 -94q14 2 30.5 5t40.5 3q27 0 54.5 -8t49 -25.5t34 -44t6.5 -63.5q-6 -49 -33 -84t-65 -56.5t-82 -30.5t-85 -9q-53 0 -103 10t-93 33l45 75q70 -33 143 -32q41 0 85 17t52 67q6 43 -27.5 60t-68.5 17 q-20 0 -41.5 -5t-40.5 -11l-35 39l123 143q-137 14 -246.5 77t-182 162t-104.5 231t-9 286z" />
<glyph unicode="&#xc8;" horiz-adv-x="1214" d="M180 0l203 1450h911l-22 -160h-740l-63 -454h690l-22 -160h-691l-73 -516h776l-21 -160h-948zM569 1847h225l172 -295h-145z" />
<glyph unicode="&#xc9;" horiz-adv-x="1214" d="M180 0l203 1450h911l-22 -160h-740l-63 -454h690l-22 -160h-691l-73 -516h776l-21 -160h-948zM684 1552l253 295h226l-334 -295h-145z" />
<glyph unicode="&#xca;" horiz-adv-x="1214" d="M180 0l203 1450h911l-22 -160h-740l-63 -454h690l-22 -160h-691l-73 -516h776l-21 -160h-948zM503 1552l269 295h186l188 -295h-166l-133 209l-188 -209h-156z" />
<glyph unicode="&#xcb;" horiz-adv-x="1214" d="M180 0l203 1450h911l-22 -160h-740l-63 -454h690l-22 -160h-691l-73 -516h776l-21 -160h-948zM530 1688q6 45 43 77.5t84 32.5t73.5 -32.5t20.5 -77.5q-6 -47 -42 -79t-83 -32t-74.5 31.5t-21.5 79.5zM935 1688q6 45 43 77.5t84 32.5t74 -32.5t21 -77.5q-6 -47 -42 -79 t-83 -32t-75 31.5t-22 79.5z" />
<glyph unicode="&#xcc;" horiz-adv-x="532" d="M180 0l203 1450h172l-203 -1450h-172zM227 1847h225l172 -295h-145z" />
<glyph unicode="&#xcd;" horiz-adv-x="532" d="M180 0l203 1450h172l-203 -1450h-172zM342 1552l253 295h226l-334 -295h-145z" />
<glyph unicode="&#xce;" horiz-adv-x="532" d="M161 1552l269 295h186l188 -295h-166l-133 209l-188 -209h-156zM180 0l203 1450h172l-203 -1450h-172z" />
<glyph unicode="&#xcf;" horiz-adv-x="532" d="M180 0l203 1450h172l-203 -1450h-172zM188 1688q6 45 43 77.5t84 32.5t73.5 -32.5t20.5 -77.5q-6 -47 -42 -79t-83 -32t-74.5 31.5t-21.5 79.5zM593 1688q6 45 43 77.5t84 32.5t74 -32.5t21 -77.5q-6 -47 -42 -79t-83 -32t-75 31.5t-22 79.5z" />
<glyph unicode="&#xd0;" horiz-adv-x="1517" d="M102 688l19 135h147l88 627h557q106 0 225 -38t214.5 -124t146.5 -224t23 -339q-18 -133 -65.5 -238.5t-114 -186.5t-147.5 -138.5t-165 -93t-166 -52t-153 -16.5h-557l96 688h-148zM346 160h328q125 0 236.5 32.5t199.5 101t147.5 175t79.5 256.5t-8.5 256t-97 175 t-171 101.5t-226.5 32.5h-328l-66 -467h516l-18 -135h-516z" />
<glyph unicode="&#xd1;" horiz-adv-x="1593" d="M180 0l203 1450h217l670 -1204h4l170 1204h172l-203 -1450h-217l-672 1204h-4l-168 -1204h-172zM676 1577q12 39 32.5 78t49.5 68.5t66.5 48t84.5 18.5t87 -15.5t79 -31.5q29 -12 51.5 -23.5t55.5 -11.5q41 0 67.5 26.5t42.5 63.5h99q-12 -39 -30.5 -77t-46.5 -68.5 t-63.5 -49t-81.5 -18.5q-43 0 -82.5 13.5t-76.5 29.5q-29 12 -61.5 25.5t-67.5 13.5q-39 0 -64.5 -27.5t-42.5 -62.5h-98z" />
<glyph unicode="&#xd2;" horiz-adv-x="1708" d="M197 725q23 164 99.5 304t191 241.5t262 159t313.5 57.5t296 -57.5t216 -159t123 -241.5t14 -304t-98.5 -304t-191 -241.5t-262 -159t-312.5 -57.5t-297 57.5t-217 159t-123 241.5t-14 304zM381 725q-18 -125 8.5 -234.5t91 -191.5t163.5 -129t226 -47t240 47t200 129 t143 191.5t75 234.5q18 125 -8.5 234.5t-90 191.5t-163 129t-226.5 47t-239.5 -47t-199.5 -129t-144.5 -191.5t-75.5 -234.5zM815 1847h225l172 -295h-145z" />
<glyph unicode="&#xd3;" horiz-adv-x="1708" d="M197 725q23 164 99.5 304t191 241.5t262 159t313.5 57.5t296 -57.5t216 -159t123 -241.5t14 -304t-98.5 -304t-191 -241.5t-262 -159t-312.5 -57.5t-297 57.5t-217 159t-123 241.5t-14 304zM381 725q-18 -125 8.5 -234.5t91 -191.5t163.5 -129t226 -47t240 47t200 129 t143 191.5t75 234.5q18 125 -8.5 234.5t-90 191.5t-163 129t-226.5 47t-239.5 -47t-199.5 -129t-144.5 -191.5t-75.5 -234.5zM930 1552l253 295h226l-334 -295h-145z" />
<glyph unicode="&#xd4;" horiz-adv-x="1708" d="M197 725q23 164 99.5 304t191 241.5t262 159t313.5 57.5t296 -57.5t216 -159t123 -241.5t14 -304t-98.5 -304t-191 -241.5t-262 -159t-312.5 -57.5t-297 57.5t-217 159t-123 241.5t-14 304zM381 725q-18 -125 8.5 -234.5t91 -191.5t163.5 -129t226 -47t240 47t200 129 t143 191.5t75 234.5q18 125 -8.5 234.5t-90 191.5t-163 129t-226.5 47t-239.5 -47t-199.5 -129t-144.5 -191.5t-75.5 -234.5zM749 1552l269 295h186l188 -295h-166l-133 209l-188 -209h-156z" />
<glyph unicode="&#xd5;" horiz-adv-x="1708" d="M197 725q23 164 99.5 304t191 241.5t262 159t313.5 57.5t296 -57.5t216 -159t123 -241.5t14 -304t-98.5 -304t-191 -241.5t-262 -159t-312.5 -57.5t-297 57.5t-217 159t-123 241.5t-14 304zM381 725q-18 -125 8.5 -234.5t91 -191.5t163.5 -129t226 -47t240 47t200 129 t143 191.5t75 234.5q18 125 -8.5 234.5t-90 191.5t-163 129t-226.5 47t-239.5 -47t-199.5 -129t-144.5 -191.5t-75.5 -234.5zM733 1577q12 39 32.5 78t49.5 68.5t66.5 48t84.5 18.5t87 -15.5t79 -31.5q29 -12 51.5 -23.5t55.5 -11.5q41 0 67.5 26.5t42.5 63.5h99 q-12 -39 -30.5 -77t-46.5 -68.5t-63.5 -49t-81.5 -18.5q-43 0 -82.5 13.5t-76.5 29.5q-29 12 -61.5 25.5t-67.5 13.5q-39 0 -64.5 -27.5t-42.5 -62.5h-98z" />
<glyph unicode="&#xd6;" horiz-adv-x="1708" d="M197 725q23 164 99.5 304t191 241.5t262 159t313.5 57.5t296 -57.5t216 -159t123 -241.5t14 -304t-98.5 -304t-191 -241.5t-262 -159t-312.5 -57.5t-297 57.5t-217 159t-123 241.5t-14 304zM381 725q-18 -125 8.5 -234.5t91 -191.5t163.5 -129t226 -47t240 47t200 129 t143 191.5t75 234.5q18 125 -8.5 234.5t-90 191.5t-163 129t-226.5 47t-239.5 -47t-199.5 -129t-144.5 -191.5t-75.5 -234.5zM776 1688q6 45 43 77.5t84 32.5t73.5 -32.5t20.5 -77.5q-6 -47 -42 -79t-83 -32t-74.5 31.5t-21.5 79.5zM1181 1688q6 45 43 77.5t84 32.5 t74 -32.5t21 -77.5q-6 -47 -42 -79t-83 -32t-75 31.5t-22 79.5z" />
<glyph unicode="&#xd7;" horiz-adv-x="1363" d="M219 223l451 398l-340 393l114 100l338 -395l451 395l84 -96l-453 -397l342 -394l-112 -100l-340 397l-451 -397z" />
<glyph unicode="&#xd8;" horiz-adv-x="1708" d="M125 23l190 180q-78 102 -109.5 234t-8.5 288q23 164 99.5 304t191 241.5t262 159t313.5 57.5q137 0 249.5 -40t198.5 -114l187 178l76 -77l-187 -177q80 -100 114 -236t11 -296q-23 -164 -98.5 -304t-191 -241.5t-262 -159t-312.5 -57.5q-143 0 -259 42t-202 120 l-190 -180zM381 725q-16 -113 4.5 -212t71.5 -177l919 870q-63 57 -147 89t-189 32q-127 0 -239.5 -47t-199.5 -129t-144.5 -191.5t-75.5 -234.5zM524 254q61 -61 149.5 -96t196.5 -35q127 0 240 47t200 129t143 191.5t75 234.5q16 117 -5.5 219.5t-74.5 181.5z" />
<glyph unicode="&#xd9;" horiz-adv-x="1441" d="M247.5 327.5q-14.5 106.5 2.5 225.5l127 897h172l-123 -872q-12 -88 -6 -170t41 -145.5t101.5 -101.5t174.5 -38q109 0 185.5 38t129 101.5t82 145t42.5 170.5l122 872h172l-127 -897q-16 -119 -60 -225.5t-121 -187.5t-187.5 -129t-259.5 -48q-150 0 -247 48t-151.5 129 t-69 187.5zM682 1847h225l172 -295h-145z" />
<glyph unicode="&#xda;" horiz-adv-x="1441" d="M247.5 327.5q-14.5 106.5 2.5 225.5l127 897h172l-123 -872q-12 -88 -6 -170t41 -145.5t101.5 -101.5t174.5 -38q109 0 185.5 38t129 101.5t82 145t42.5 170.5l122 872h172l-127 -897q-16 -119 -60 -225.5t-121 -187.5t-187.5 -129t-259.5 -48q-150 0 -247 48t-151.5 129 t-69 187.5zM797 1552l253 295h226l-334 -295h-145z" />
<glyph unicode="&#xdb;" horiz-adv-x="1441" d="M247.5 327.5q-14.5 106.5 2.5 225.5l127 897h172l-123 -872q-12 -88 -6 -170t41 -145.5t101.5 -101.5t174.5 -38q109 0 185.5 38t129 101.5t82 145t42.5 170.5l122 872h172l-127 -897q-16 -119 -60 -225.5t-121 -187.5t-187.5 -129t-259.5 -48q-150 0 -247 48t-151.5 129 t-69 187.5zM616 1552l269 295h186l188 -295h-166l-133 209l-188 -209h-156z" />
<glyph unicode="&#xdc;" horiz-adv-x="1441" d="M247.5 327.5q-14.5 106.5 2.5 225.5l127 897h172l-123 -872q-12 -88 -6 -170t41 -145.5t101.5 -101.5t174.5 -38q109 0 185.5 38t129 101.5t82 145t42.5 170.5l122 872h172l-127 -897q-16 -119 -60 -225.5t-121 -187.5t-187.5 -129t-259.5 -48q-150 0 -247 48t-151.5 129 t-69 187.5zM643 1688q6 45 43 77.5t84 32.5t73.5 -32.5t20.5 -77.5q-6 -47 -42 -79t-83 -32t-74.5 31.5t-21.5 79.5zM1048 1688q6 45 43 77.5t84 32.5t74 -32.5t21 -77.5q-6 -47 -42 -79t-83 -32t-75 31.5t-22 79.5z" />
<glyph unicode="&#xdd;" horiz-adv-x="1216" d="M184 1450h219l316 -655l512 655h207l-658 -825l-86 -625h-172l86 625zM684 1552l253 295h226l-334 -295h-145z" />
<glyph unicode="&#xde;" horiz-adv-x="1214" d="M180 0l203 1450h172l-37 -256h258q100 0 189.5 -19.5t153 -65.5t95 -123t15.5 -189q-16 -119 -72.5 -197t-132.5 -123t-163 -63.5t-163 -18.5h-290l-56 -395h-172zM430 555h291q129 0 218 58.5t105 181.5t-56.5 181t-201.5 58h-290z" />
<glyph unicode="&#xdf;" horiz-adv-x="1214" d="M152 0l153 1106q14 94 51 178t99.5 148.5t152.5 102.5t211 38q84 0 153.5 -24.5t118 -70.5t70 -114t8.5 -156q-16 -117 -84.5 -200.5t-185.5 -122.5v-4q84 -8 143.5 -46t95.5 -97.5t48 -134.5t0 -157q-16 -109 -65.5 -195.5t-123 -148t-168 -94.5t-198.5 -33 q-33 0 -64.5 4.5t-60.5 14.5l20 145q25 -10 50.5 -13t54.5 -3q76 0 142.5 24.5t116.5 68.5t83 106.5t43 138.5q23 164 -65.5 256t-248.5 92h-47l19 135h45q55 0 104 17.5t87 49t63.5 77t34.5 102.5q14 111 -48.5 173t-168.5 62q-82 0 -139.5 -27.5t-96.5 -73.5t-61.5 -106.5 t-30.5 -125.5l-152 -1092h-159z" />
<glyph unicode="&#xe0;" horiz-adv-x="1062" d="M131 260q16 119 87 186.5t167 100.5t202.5 41t194.5 8h62l4 29q16 104 -39 157.5t-168 53.5q-78 0 -156.5 -26t-142.5 -79l-86 105q86 76 191.5 111.5t209.5 35.5q213 0 293 -100.5t51 -304.5l-57 -412q-6 -41 -8 -85t0 -81h-154q-4 33 0 73t9 70h-5q-57 -74 -142 -121 t-195 -47q-74 0 -135.5 18.5t-105.5 54.5t-65.5 89t-11.5 123zM305 276q-12 -90 43 -127.5t146 -37.5q70 0 125 23.5t96 62.5t66.5 91t35.5 111l8 62h-159q-154 0 -250.5 -43t-110.5 -142zM439 1483h225l172 -295h-146z" />
<glyph unicode="&#xe1;" horiz-adv-x="1062" d="M131 260q16 119 87 186.5t167 100.5t202.5 41t194.5 8h62l4 29q16 104 -39 157.5t-168 53.5q-78 0 -156.5 -26t-142.5 -79l-86 105q86 76 191.5 111.5t209.5 35.5q213 0 293 -100.5t51 -304.5l-57 -412q-6 -41 -8 -85t0 -81h-154q-4 33 0 73t9 70h-5q-57 -74 -142 -121 t-195 -47q-74 0 -135.5 18.5t-105.5 54.5t-65.5 89t-11.5 123zM305 276q-12 -90 43 -127.5t146 -37.5q70 0 125 23.5t96 62.5t66.5 91t35.5 111l8 62h-159q-154 0 -250.5 -43t-110.5 -142zM553 1188l254 295h225l-333 -295h-146z" />
<glyph unicode="&#xe2;" horiz-adv-x="1062" d="M131 260q16 119 87 186.5t167 100.5t202.5 41t194.5 8h62l4 29q16 104 -39 157.5t-168 53.5q-78 0 -156.5 -26t-142.5 -79l-86 105q86 76 191.5 111.5t209.5 35.5q213 0 293 -100.5t51 -304.5l-57 -412q-6 -41 -8 -85t0 -81h-154q-4 33 0 73t9 70h-5q-57 -74 -142 -121 t-195 -47q-74 0 -135.5 18.5t-105.5 54.5t-65.5 89t-11.5 123zM305 276q-12 -90 43 -127.5t146 -37.5q70 0 125 23.5t96 62.5t66.5 91t35.5 111l8 62h-159q-154 0 -250.5 -43t-110.5 -142zM373 1188l268 295h187l188 -295h-166l-133 209l-188 -209h-156z" />
<glyph unicode="&#xe3;" horiz-adv-x="1062" d="M131 260q16 119 87 186.5t167 100.5t202.5 41t194.5 8h62l4 29q16 104 -39 157.5t-168 53.5q-78 0 -156.5 -26t-142.5 -79l-86 105q86 76 191.5 111.5t209.5 35.5q213 0 293 -100.5t51 -304.5l-57 -412q-6 -41 -8 -85t0 -81h-154q-4 33 0 73t9 70h-5q-57 -74 -142 -121 t-195 -47q-74 0 -135.5 18.5t-105.5 54.5t-65.5 89t-11.5 123zM305 276q-12 -90 43 -127.5t146 -37.5q70 0 125 23.5t96 62.5t66.5 91t35.5 111l8 62h-159q-154 0 -250.5 -43t-110.5 -142zM355 1213q12 39 33.5 77.5t51 68.5t67.5 48.5t83 18.5q47 0 86 -15.5t80 -31.5 q29 -12 50.5 -23.5t53.5 -11.5q41 0 69 26.5t44 63.5h98q-12 -39 -31.5 -77t-46 -68.5t-62.5 -49t-81 -18.5q-43 0 -83 13t-77 30q-29 12 -61.5 25.5t-67.5 13.5q-39 0 -65.5 -28t-42.5 -62h-98z" />
<glyph unicode="&#xe4;" horiz-adv-x="1062" d="M131 260q16 119 87 186.5t167 100.5t202.5 41t194.5 8h62l4 29q16 104 -39 157.5t-168 53.5q-78 0 -156.5 -26t-142.5 -79l-86 105q86 76 191.5 111.5t209.5 35.5q213 0 293 -100.5t51 -304.5l-57 -412q-6 -41 -8 -85t0 -81h-154q-4 33 0 73t9 70h-5q-57 -74 -142 -121 t-195 -47q-74 0 -135.5 18.5t-105.5 54.5t-65.5 89t-11.5 123zM305 276q-12 -90 43 -127.5t146 -37.5q70 0 125 23.5t96 62.5t66.5 91t35.5 111l8 62h-159q-154 0 -250.5 -43t-110.5 -142zM400 1323q6 45 43 78t84 33t73.5 -33t20.5 -78q-6 -47 -43 -78.5t-84 -31.5 t-74 31.5t-20 78.5zM805 1323q6 45 43 78t84 33t73.5 -33t20.5 -78q-6 -47 -43 -78.5t-84 -31.5t-73.5 31.5t-20.5 78.5z" />
<glyph unicode="&#xe5;" horiz-adv-x="1062" d="M131 260q16 119 87 186.5t167 100.5t202.5 41t194.5 8h62l4 29q16 104 -39 157.5t-168 53.5q-78 0 -156.5 -26t-142.5 -79l-86 105q86 76 191.5 111.5t209.5 35.5q213 0 293 -100.5t51 -304.5l-57 -412q-6 -41 -8 -85t0 -81h-154q-4 33 0 73t9 70h-5q-57 -74 -142 -121 t-195 -47q-74 0 -135.5 18.5t-105.5 54.5t-65.5 89t-11.5 123zM305 276q-12 -90 43 -127.5t146 -37.5q70 0 125 23.5t96 62.5t66.5 91t35.5 111l8 62h-159q-154 0 -250.5 -43t-110.5 -142zM514 1354q6 41 26.5 78t51.5 64.5t71 44t83 16.5q90 0 138 -60.5t36 -142.5 q-6 -41 -26.5 -78t-51.5 -64.5t-71 -44t-83 -16.5q-88 0 -136 59.5t-38 143.5zM600 1354q-6 -51 25 -84t76 -33t86 33t47 84q8 49 -23.5 83t-77.5 34q-45 0 -85 -34t-48 -83z" />
<glyph unicode="&#xe6;" horiz-adv-x="1744" d="M133 264q14 98 67.5 157.5t128 91.5t160.5 42t164 10h197l4 25q14 104 -35 175t-170 71q-88 0 -155.5 -24t-139.5 -71l-86 107q88 68 192.5 101.5t209.5 33.5q98 0 183 -36t126 -126q96 88 185 125t177 37q100 0 180.5 -34t130.5 -98.5t70.5 -157.5t3.5 -212l-8 -51h-739 q-8 -63 5 -118.5t44 -97.5t79 -66.5t107 -24.5q104 0 181.5 37t144.5 108l107 -94q-100 -111 -209 -155t-244 -44q-70 0 -126 18.5t-98 48.5t-70 66.5t-42 73.5q-72 -115 -181.5 -161t-230.5 -46q-61 0 -122.5 16.5t-107.5 51.5t-70.5 89t-12.5 132zM305 270 q-6 -41 10.5 -68.5t46 -45t67.5 -25.5t79 -8q61 0 116.5 20.5t97.5 57.5t69.5 89t35.5 113l4 27h-239q-43 0 -90 -7t-89 -24.5t-72 -48.5t-36 -80zM997 565h568q12 123 -52.5 197t-197.5 74q-59 0 -112.5 -24t-96.5 -61.5t-71.5 -87t-37.5 -98.5z" />
<glyph unicode="&#xe7;" horiz-adv-x="987" d="M162 479q14 109 63 201t125 159.5t172 105.5t207 38q106 0 196.5 -37t151.5 -115l-143 -112q-43 61 -98.5 89t-126.5 28q-80 0 -144.5 -28t-113 -77t-78 -113.5t-39.5 -138.5t4 -138.5t50 -113.5t91.5 -76.5t128.5 -27.5q156 0 260 119l103 -113q-72 -72 -162 -108.5 t-184 -40.5l-93 -111q14 2 31 5t41 3q27 0 54.5 -8t49 -25.5t34 -44t6.5 -63.5q-6 -49 -33 -84t-65 -56.5t-82 -30.5t-85 -9q-53 0 -103 10t-93 33l45 75q70 -33 143 -32q41 0 85 17t52 67q6 43 -27.5 60t-68.5 17q-20 0 -41.5 -5t-40.5 -11l-35 39l133 156q-98 8 -173.5 48 t-124 105.5t-68 152.5t-4.5 191z" />
<glyph unicode="&#xe8;" d="M162 479q16 111 66.5 204t125 159.5t169.5 103.5t202 37q100 0 180 -34t130 -98.5t70.5 -157.5t4.5 -212l-8 -51h-774q-4 -61 13 -117.5t52 -98.5t87 -66.5t118 -24.5q104 0 181 37t145 108l106 -94q-100 -111 -208.5 -155t-243.5 -44q-113 0 -198 40t-138.5 107.5 t-74 160t-5.5 196.5zM346 565h602q12 123 -52.5 197t-197.5 74t-226 -74t-126 -197zM476 1483h225l172 -295h-146z" />
<glyph unicode="&#xe9;" d="M162 479q16 111 66.5 204t125 159.5t169.5 103.5t202 37q100 0 180 -34t130 -98.5t70.5 -157.5t4.5 -212l-8 -51h-774q-4 -61 13 -117.5t52 -98.5t87 -66.5t118 -24.5q104 0 181 37t145 108l106 -94q-100 -111 -208.5 -155t-243.5 -44q-113 0 -198 40t-138.5 107.5 t-74 160t-5.5 196.5zM346 565h602q12 123 -52.5 197t-197.5 74t-226 -74t-126 -197zM590 1188l254 295h225l-333 -295h-146z" />
<glyph unicode="&#xea;" d="M162 479q16 111 66.5 204t125 159.5t169.5 103.5t202 37q100 0 180 -34t130 -98.5t70.5 -157.5t4.5 -212l-8 -51h-774q-4 -61 13 -117.5t52 -98.5t87 -66.5t118 -24.5q104 0 181 37t145 108l106 -94q-100 -111 -208.5 -155t-243.5 -44q-113 0 -198 40t-138.5 107.5 t-74 160t-5.5 196.5zM346 565h602q12 123 -52.5 197t-197.5 74t-226 -74t-126 -197zM410 1188l268 295h187l188 -295h-166l-133 209l-188 -209h-156z" />
<glyph unicode="&#xeb;" d="M162 479q16 111 66.5 204t125 159.5t169.5 103.5t202 37q100 0 180 -34t130 -98.5t70.5 -157.5t4.5 -212l-8 -51h-774q-4 -61 13 -117.5t52 -98.5t87 -66.5t118 -24.5q104 0 181 37t145 108l106 -94q-100 -111 -208.5 -155t-243.5 -44q-113 0 -198 40t-138.5 107.5 t-74 160t-5.5 196.5zM346 565h602q12 123 -52.5 197t-197.5 74t-226 -74t-126 -197zM437 1323q6 45 43 78t84 33t73.5 -33t20.5 -78q-6 -47 -43 -78.5t-84 -31.5t-74 31.5t-20 78.5zM842 1323q6 45 43 78t84 33t73.5 -33t20.5 -78q-6 -47 -43 -78.5t-84 -31.5t-73.5 31.5 t-20.5 78.5z" />
<glyph unicode="&#xec;" horiz-adv-x="491" d="M152 1483h225l172 -295h-146zM166 0l133 958h160l-133 -958h-160z" />
<glyph unicode="&#xed;" horiz-adv-x="491" d="M166 0l133 958h160l-133 -958h-160zM266 1188l254 295h225l-333 -295h-146z" />
<glyph unicode="&#xee;" horiz-adv-x="491" d="M86 1188l268 295h187l188 -295h-166l-133 209l-188 -209h-156zM166 0l133 958h160l-133 -958h-160z" />
<glyph unicode="&#xef;" horiz-adv-x="491" d="M113 1323q6 45 43 78t84 33t73.5 -33t20.5 -78q-6 -47 -43 -78.5t-84 -31.5t-74 31.5t-20 78.5zM166 0l133 958h160l-133 -958h-160zM518 1323q6 45 43 78t84 33t73.5 -33t20.5 -78q-6 -47 -43 -78.5t-84 -31.5t-73.5 31.5t-20.5 78.5z" />
<glyph unicode="&#xf0;" horiz-adv-x="1216" d="M162 479q16 113 67.5 205t129 158.5t177 103.5t209.5 37q78 0 143.5 -24.5t108.5 -75.5l2 4q-41 106 -108.5 202.5t-145.5 186.5l-235 -111l-74 84l234 109q-37 41 -78 81t-82 74l154 82q41 -37 84 -79.5t79 -83.5l234 110l84 -80l-244 -114q70 -78 132.5 -162 t105.5 -181.5t59 -212t-2 -249.5q-18 -125 -64.5 -229.5t-120 -179.5t-176 -117t-231.5 -42q-111 0 -200 37t-147 103.5t-85 159t-10 204.5zM334 479q-10 -76 5 -140.5t53 -112.5t96.5 -75.5t136.5 -27.5t144.5 27.5t117.5 75.5t84 112.5t43 140.5t-4.5 140.5t-52 112.5 t-96 76t-136.5 28t-144.5 -28t-117.5 -76t-85 -112.5t-44 -140.5z" />
<glyph unicode="&#xf1;" d="M152 0l102 731q10 66 13 123t9 104h152q-4 -39 -8 -77.5t-10 -79.5h4q20 35 55 67.5t80 58t98 41t113 15.5q94 0 158.5 -28.5t102.5 -80t49 -124t-1 -158.5l-82 -592h-160l80 575q16 121 -26.5 191t-155.5 70q-156 0 -241 -102.5t-107 -266.5l-66 -467h-159zM392 1213 q12 39 33.5 77.5t51 68.5t67.5 48.5t83 18.5q47 0 86 -15.5t80 -31.5q29 -12 50.5 -23.5t53.5 -11.5q41 0 69 26.5t44 63.5h98q-12 -39 -31.5 -77t-46 -68.5t-62.5 -49t-81 -18.5q-43 0 -83 13t-77 30q-29 12 -61.5 25.5t-67.5 13.5q-39 0 -65.5 -28t-42.5 -62h-98z" />
<glyph unicode="&#xf2;" horiz-adv-x="1216" d="M162 479q16 113 67.5 205t129 158.5t177 103.5t209.5 37q111 0 200 -37t147.5 -103.5t84 -158.5t9.5 -205t-67.5 -205t-128.5 -158.5t-176 -103.5t-210 -37t-200 37t-147 103.5t-84.5 158.5t-10.5 205zM334 479q-10 -76 5 -140.5t53 -112.5t96.5 -75.5t136.5 -27.5 t144.5 27.5t117.5 75.5t84 112.5t43 140.5t-4.5 140.5t-52 112.5t-96 76t-136.5 28t-144.5 -28t-117.5 -76t-85 -112.5t-44 -140.5zM514 1483h225l172 -295h-146z" />
<glyph unicode="&#xf3;" horiz-adv-x="1216" d="M162 479q16 113 67.5 205t129 158.5t177 103.5t209.5 37q111 0 200 -37t147.5 -103.5t84 -158.5t9.5 -205t-67.5 -205t-128.5 -158.5t-176 -103.5t-210 -37t-200 37t-147 103.5t-84.5 158.5t-10.5 205zM334 479q-10 -76 5 -140.5t53 -112.5t96.5 -75.5t136.5 -27.5 t144.5 27.5t117.5 75.5t84 112.5t43 140.5t-4.5 140.5t-52 112.5t-96 76t-136.5 28t-144.5 -28t-117.5 -76t-85 -112.5t-44 -140.5zM628 1188l254 295h225l-333 -295h-146z" />
<glyph unicode="&#xf4;" horiz-adv-x="1216" d="M162 479q16 113 67.5 205t129 158.5t177 103.5t209.5 37q111 0 200 -37t147.5 -103.5t84 -158.5t9.5 -205t-67.5 -205t-128.5 -158.5t-176 -103.5t-210 -37t-200 37t-147 103.5t-84.5 158.5t-10.5 205zM334 479q-10 -76 5 -140.5t53 -112.5t96.5 -75.5t136.5 -27.5 t144.5 27.5t117.5 75.5t84 112.5t43 140.5t-4.5 140.5t-52 112.5t-96 76t-136.5 28t-144.5 -28t-117.5 -76t-85 -112.5t-44 -140.5zM448 1188l268 295h187l188 -295h-166l-133 209l-188 -209h-156z" />
<glyph unicode="&#xf5;" horiz-adv-x="1216" d="M162 479q16 113 67.5 205t129 158.5t177 103.5t209.5 37q111 0 200 -37t147.5 -103.5t84 -158.5t9.5 -205t-67.5 -205t-128.5 -158.5t-176 -103.5t-210 -37t-200 37t-147 103.5t-84.5 158.5t-10.5 205zM334 479q-10 -76 5 -140.5t53 -112.5t96.5 -75.5t136.5 -27.5 t144.5 27.5t117.5 75.5t84 112.5t43 140.5t-4.5 140.5t-52 112.5t-96 76t-136.5 28t-144.5 -28t-117.5 -76t-85 -112.5t-44 -140.5zM430 1213q12 39 33.5 77.5t51 68.5t67.5 48.5t83 18.5q47 0 86 -15.5t80 -31.5q29 -12 50.5 -23.5t53.5 -11.5q41 0 69 26.5t44 63.5h98 q-12 -39 -31.5 -77t-46 -68.5t-62.5 -49t-81 -18.5q-43 0 -83 13t-77 30q-29 12 -61.5 25.5t-67.5 13.5q-39 0 -65.5 -28t-42.5 -62h-98z" />
<glyph unicode="&#xf6;" horiz-adv-x="1216" d="M162 479q16 113 67.5 205t129 158.5t177 103.5t209.5 37q111 0 200 -37t147.5 -103.5t84 -158.5t9.5 -205t-67.5 -205t-128.5 -158.5t-176 -103.5t-210 -37t-200 37t-147 103.5t-84.5 158.5t-10.5 205zM334 479q-10 -76 5 -140.5t53 -112.5t96.5 -75.5t136.5 -27.5 t144.5 27.5t117.5 75.5t84 112.5t43 140.5t-4.5 140.5t-52 112.5t-96 76t-136.5 28t-144.5 -28t-117.5 -76t-85 -112.5t-44 -140.5zM475 1323q6 45 43 78t84 33t73.5 -33t20.5 -78q-6 -47 -43 -78.5t-84 -31.5t-74 31.5t-20 78.5zM880 1323q6 45 43 78t84 33t73.5 -33 t20.5 -78q-6 -47 -43 -78.5t-84 -31.5t-73.5 31.5t-20.5 78.5z" />
<glyph unicode="&#xf7;" horiz-adv-x="1363" d="M223 553l21 135h1069l-21 -135h-1069zM604 283q6 49 46 82.5t87 33.5t77 -34.5t24 -81.5q-8 -49 -47 -83t-86 -34t-77 35t-24 82zM698 958q8 49 47 83t86 34t78 -34.5t23 -82.5q-6 -49 -46 -82.5t-87 -33.5t-77 34.5t-24 81.5z" />
<glyph unicode="&#xf8;" horiz-adv-x="1216" d="M76 4l160 143q-49 63 -69 147.5t-5 184.5q16 113 67.5 205t129 158.5t177 103.5t209.5 37q96 0 174 -27.5t138 -76.5l155 141l62 -66l-158 -141q47 -66 66.5 -149.5t3.5 -184.5q-16 -113 -67.5 -205t-128.5 -158.5t-176 -103.5t-210 -37q-96 0 -175 28t-134 79l-160 -143 zM334 479q-16 -125 35 -213l559 498q-37 35 -88.5 53.5t-114.5 18.5q-78 0 -144.5 -28t-117.5 -76t-85 -112.5t-44 -140.5zM422 195q35 -35 86 -53.5t117 -18.5q78 0 144.5 27.5t117.5 75.5t84 112.5t43 140.5q18 123 -33 213z" />
<glyph unicode="&#xf9;" d="M201.5 208q-11.5 73 1.5 159l82 591h159l-79 -575q-16 -121 26.5 -190.5t155.5 -69.5q156 0 240.5 102.5t107.5 266.5l66 466h159l-102 -731q-10 -66 -13.5 -123t-9.5 -104h-151l8 78t8 80h-4q-20 -35 -55 -68t-79 -58.5t-97.5 -41t-112.5 -15.5q-94 0 -158.5 29 t-102.5 80t-49.5 124zM476 1483h225l172 -295h-146z" />
<glyph unicode="&#xfa;" d="M201.5 208q-11.5 73 1.5 159l82 591h159l-79 -575q-16 -121 26.5 -190.5t155.5 -69.5q156 0 240.5 102.5t107.5 266.5l66 466h159l-102 -731q-10 -66 -13.5 -123t-9.5 -104h-151l8 78t8 80h-4q-20 -35 -55 -68t-79 -58.5t-97.5 -41t-112.5 -15.5q-94 0 -158.5 29 t-102.5 80t-49.5 124zM590 1188l254 295h225l-333 -295h-146z" />
<glyph unicode="&#xfb;" d="M201.5 208q-11.5 73 1.5 159l82 591h159l-79 -575q-16 -121 26.5 -190.5t155.5 -69.5q156 0 240.5 102.5t107.5 266.5l66 466h159l-102 -731q-10 -66 -13.5 -123t-9.5 -104h-151l8 78t8 80h-4q-20 -35 -55 -68t-79 -58.5t-97.5 -41t-112.5 -15.5q-94 0 -158.5 29 t-102.5 80t-49.5 124zM410 1188l268 295h187l188 -295h-166l-133 209l-188 -209h-156z" />
<glyph unicode="&#xfc;" d="M201.5 208q-11.5 73 1.5 159l82 591h159l-79 -575q-16 -121 26.5 -190.5t155.5 -69.5q156 0 240.5 102.5t107.5 266.5l66 466h159l-102 -731q-10 -66 -13.5 -123t-9.5 -104h-151l8 78t8 80h-4q-20 -35 -55 -68t-79 -58.5t-97.5 -41t-112.5 -15.5q-94 0 -158.5 29 t-102.5 80t-49.5 124zM437 1323q6 45 43 78t84 33t73.5 -33t20.5 -78q-6 -47 -43 -78.5t-84 -31.5t-74 31.5t-20 78.5zM842 1323q6 45 43 78t84 33t73.5 -33t20.5 -78q-6 -47 -43 -78.5t-84 -31.5t-73.5 31.5t-20.5 78.5z" />
<glyph unicode="&#xfd;" horiz-adv-x="987" d="M-25 -467l39 139q41 -16 111 -16q78 0 121 43t80 115l90 180l-262 964h186l192 -751h5l389 751h174l-629 -1177q-33 -61 -65.5 -111.5t-72.5 -86.5t-93.5 -55.5t-124.5 -19.5q-35 0 -73 4.5t-67 20.5zM514 1188l254 295h225l-333 -295h-146z" />
<glyph unicode="&#xfe;" horiz-adv-x="1251" d="M76 -467l284 2015h160l-102 -729h4q78 78 170 121t196 43q113 0 200 -38t144.5 -105.5t80 -159.5t8.5 -201t-64.5 -201t-124.5 -159.5t-167 -105.5t-193 -38q-129 0 -218 56.5t-124 138.5h-4l-90 -637h-160zM369 479q-10 -76 5 -140.5t53 -112.5t96.5 -75.5t135.5 -27.5 q78 0 144.5 27.5t118 75.5t84 112.5t43.5 140.5q10 76 -4.5 140.5t-52.5 112.5t-96 76t-136 28t-144.5 -28t-118 -76t-85 -112.5t-43.5 -140.5z" />
<glyph unicode="&#xff;" horiz-adv-x="987" d="M-25 -467l39 139q41 -16 111 -16q78 0 121 43t80 115l90 180l-262 964h186l192 -751h5l389 751h174l-629 -1177q-33 -61 -65.5 -111.5t-72.5 -86.5t-93.5 -55.5t-124.5 -19.5q-35 0 -73 4.5t-67 20.5zM361 1323q6 45 43 78t84 33t73.5 -33t20.5 -78q-6 -47 -43 -78.5 t-84 -31.5t-74 31.5t-20 78.5zM766 1323q6 45 43 78t84 33t73.5 -33t20.5 -78q-6 -47 -43 -78.5t-84 -31.5t-73.5 31.5t-20.5 78.5z" />
<glyph unicode="&#x100;" horiz-adv-x="1441" d="M12 0l842 1450h162l414 -1450h-201l-99 356h-724l-199 -356h-195zM496 516h591l-186 713h-4zM671 1626l19 123h565l-18 -123h-566z" />
<glyph unicode="&#x101;" horiz-adv-x="1062" d="M131 260q16 119 87 186.5t167 100.5t202.5 41t194.5 8h62l4 29q16 104 -39 157.5t-168 53.5q-78 0 -156.5 -26t-142.5 -79l-86 105q86 76 191.5 111.5t209.5 35.5q213 0 293 -100.5t51 -304.5l-57 -412q-6 -41 -8 -85t0 -81h-154q-4 33 0 73t9 70h-5q-57 -74 -142 -121 t-195 -47q-74 0 -135.5 18.5t-105.5 54.5t-65.5 89t-11.5 123zM305 276q-12 -90 43 -127.5t146 -37.5q70 0 125 23.5t96 62.5t66.5 91t35.5 111l8 62h-159q-154 0 -250.5 -43t-110.5 -142zM424 1229l17 123h565l-17 -123h-565z" />
<glyph unicode="&#x102;" horiz-adv-x="1441" d="M12 0l842 1450h162l414 -1450h-201l-99 356h-724l-199 -356h-195zM496 516h591l-186 713h-4zM671 1835h101q6 -80 58 -120t130 -40q92 0 148.5 34t91.5 126h98q-33 -135 -127 -202.5t-225 -67.5q-129 0 -207 67.5t-68 202.5z" />
<glyph unicode="&#x103;" horiz-adv-x="1062" d="M131 260q16 119 87 186.5t167 100.5t202.5 41t194.5 8h62l4 29q16 104 -39 157.5t-168 53.5q-78 0 -156.5 -26t-142.5 -79l-86 105q86 76 191.5 111.5t209.5 35.5q213 0 293 -100.5t51 -304.5l-57 -412q-6 -41 -8 -85t0 -81h-154q-4 33 0 73t9 70h-5q-57 -74 -142 -121 t-195 -47q-74 0 -135.5 18.5t-105.5 54.5t-65.5 89t-11.5 123zM305 276q-12 -90 43 -127.5t146 -37.5q70 0 125 23.5t96 62.5t66.5 91t35.5 111l8 62h-159q-154 0 -250.5 -43t-110.5 -142zM399 1438h100q4 -80 57.5 -120t131.5 -40q90 0 147.5 35t92.5 125h98 q-33 -135 -127 -203t-225 -68q-129 0 -207 68t-68 203z" />
<glyph unicode="&#x104;" horiz-adv-x="1441" d="M12 0l842 1450h162l414 -1450h-97q-27 -16 -57.5 -41t-58 -55.5t-48 -66.5t-26.5 -73q-4 -41 16.5 -68.5t69.5 -25.5q27 0 56.5 11.5t51.5 29.5l31 -84q-43 -37 -95 -58.5t-106 -21.5q-76 0 -126 48.5t-40 125.5q6 43 29 84t55.5 78t70.5 67t73 50l-99 356h-724 l-199 -356h-195zM496 516h591l-186 713h-4z" />
<glyph unicode="&#x105;" horiz-adv-x="1062" d="M131 260q16 119 87 186.5t167 100.5t202.5 41t194.5 8h62l4 29q16 104 -39 157.5t-168 53.5q-78 0 -155.5 -26t-143.5 -79l-86 105q86 76 191.5 111.5t209.5 35.5q215 0 294 -100.5t50 -304.5l-57 -412q-6 -41 -8 -85t0 -81h-47q-27 -16 -57.5 -41t-58.5 -55.5t-48 -66.5 t-27 -73q-4 -41 16.5 -68.5t69.5 -25.5q27 0 56.5 11.5t52.5 29.5l31 -84q-43 -37 -95.5 -58.5t-105.5 -21.5q-76 0 -126 48.5t-40 125.5q6 43 28.5 84t55.5 78t71 67t72 50h-2q-4 33 0 73t9 70h-5q-57 -74 -142 -121t-195 -47q-74 0 -135.5 18.5t-105.5 54.5t-65.5 89 t-11.5 123zM305 276q-12 -90 43 -127.5t146 -37.5q70 0 125 23.5t96 62.5t66.5 91t35.5 111l8 62h-159q-154 0 -250.5 -43t-110.5 -142z" />
<glyph unicode="&#x106;" horiz-adv-x="1441" d="M197 725q23 160 97.5 299t187 241.5t256 162t304.5 59.5q147 0 275.5 -53.5t204.5 -173.5l-166 -109q-53 88 -142.5 132t-193.5 44q-121 0 -229.5 -49t-194.5 -132t-142.5 -192.5t-72.5 -228.5q-18 -127 7.5 -236.5t87 -190.5t156.5 -128t218 -47q133 0 244.5 52 t203.5 151l113 -109q-117 -131 -263.5 -192.5t-320.5 -61.5q-156 0 -282.5 57.5t-211.5 159t-122 240.5t-14 305zM873 1552l253 295h226l-334 -295h-145z" />
<glyph unicode="&#x107;" horiz-adv-x="987" d="M162 479q14 109 63 201t125 159.5t172 105.5t207 38q106 0 196.5 -37t151.5 -115l-143 -112q-43 61 -98.5 89t-126.5 28q-80 0 -144.5 -28t-113 -77t-78 -113.5t-39.5 -138.5t4 -138.5t50 -113.5t91.5 -76.5t128.5 -27.5q156 0 260 119l103 -113q-80 -80 -179.5 -117 t-203.5 -37q-111 0 -198 37t-142 104.5t-79 160t-7 202.5zM624 1155l254 295h225l-333 -295h-146z" />
<glyph unicode="&#x108;" horiz-adv-x="1441" d="M197 725q23 160 97.5 299t187 241.5t256 162t304.5 59.5q147 0 275.5 -53.5t204.5 -173.5l-166 -109q-53 88 -142.5 132t-193.5 44q-121 0 -229.5 -49t-194.5 -132t-142.5 -192.5t-72.5 -228.5q-18 -127 7.5 -236.5t87 -190.5t156.5 -128t218 -47q133 0 244.5 52 t203.5 151l113 -109q-117 -131 -263.5 -192.5t-320.5 -61.5q-156 0 -282.5 57.5t-211.5 159t-122 240.5t-14 305zM749 1552l269 295h186l188 -295h-166l-133 209l-188 -209h-156z" />
<glyph unicode="&#x109;" horiz-adv-x="987" d="M162 479q14 109 63 201t125 159.5t172 105.5t207 38q106 0 196.5 -37t151.5 -115l-143 -112q-43 61 -98.5 89t-126.5 28q-80 0 -144.5 -28t-113 -77t-78 -113.5t-39.5 -138.5t4 -138.5t50 -113.5t91.5 -76.5t128.5 -27.5q156 0 260 119l103 -113q-80 -80 -179.5 -117 t-203.5 -37q-111 0 -198 37t-142 104.5t-79 160t-7 202.5zM422 1155l268 295h187l188 -295h-166l-133 209l-188 -209h-156z" />
<glyph unicode="&#x10a;" horiz-adv-x="1441" d="M197 725q23 160 97.5 299t187 241.5t256 162t304.5 59.5q147 0 275.5 -53.5t204.5 -173.5l-166 -109q-53 88 -142.5 132t-193.5 44q-121 0 -229.5 -49t-194.5 -132t-142.5 -192.5t-72.5 -228.5q-18 -127 7.5 -236.5t87 -190.5t156.5 -128t218 -47q133 0 244.5 52 t203.5 151l113 -109q-117 -131 -263.5 -192.5t-320.5 -61.5q-156 0 -282.5 57.5t-211.5 159t-122 240.5t-14 305zM938 1688q6 45 43 77.5t84 32.5t73.5 -32.5t20.5 -77.5q-6 -47 -42 -79t-83 -32t-74.5 31.5t-21.5 79.5z" />
<glyph unicode="&#x10b;" horiz-adv-x="987" d="M162 479q14 109 63 201t125 159.5t172 105.5t207 38q106 0 196.5 -37t151.5 -115l-143 -112q-43 61 -98.5 89t-126.5 28q-80 0 -144.5 -28t-113 -77t-78 -113.5t-39.5 -138.5t4 -138.5t50 -113.5t91.5 -76.5t128.5 -27.5q156 0 260 119l103 -113q-80 -80 -179.5 -117 t-203.5 -37q-111 0 -198 37t-142 104.5t-79 160t-7 202.5zM657 1290q6 45 43 78t84 33t74 -33t21 -78q-6 -47 -43 -78.5t-84 -31.5t-74 31.5t-21 78.5z" />
<glyph unicode="&#x10c;" horiz-adv-x="1441" d="M197 725q23 160 97.5 299t187 241.5t256 162t304.5 59.5q147 0 275.5 -53.5t204.5 -173.5l-166 -109q-53 88 -142.5 132t-193.5 44q-121 0 -229.5 -49t-194.5 -132t-142.5 -192.5t-72.5 -228.5q-18 -127 7.5 -236.5t87 -190.5t156.5 -128t218 -47q133 0 244.5 52 t203.5 151l113 -109q-117 -131 -263.5 -192.5t-320.5 -61.5q-156 0 -282.5 57.5t-211.5 159t-122 240.5t-14 305zM792 1847h166l131 -209l187 209h155l-266 -295h-186z" />
<glyph unicode="&#x10d;" horiz-adv-x="987" d="M162 479q14 109 63 201t125 159.5t172 105.5t207 38q106 0 196.5 -37t151.5 -115l-143 -112q-43 61 -98.5 89t-126.5 28q-80 0 -144.5 -28t-113 -77t-78 -113.5t-39.5 -138.5t4 -138.5t50 -113.5t91.5 -76.5t128.5 -27.5q156 0 260 119l103 -113q-80 -80 -179.5 -117 t-203.5 -37q-111 0 -198 37t-142 104.5t-79 160t-7 202.5zM479 1450h166l131 -209l186 209h156l-266 -295h-187z" />
<glyph unicode="&#x10e;" horiz-adv-x="1517" d="M154 0l202 1450h557q106 0 225 -38t214.5 -124t146.5 -224t23 -339q-18 -133 -65.5 -238.5t-114 -186.5t-147.5 -138.5t-165 -93t-166 -52t-153 -16.5h-557zM346 160h328q125 0 236.5 32.5t199.5 101t147.5 175t79.5 256.5t-8.5 256t-97 175t-171 101.5t-226.5 32.5h-328 zM567 1847h166l131 -209l187 209h155l-266 -295h-186z" />
<glyph unicode="&#x10f;" horiz-adv-x="1251" d="M162 479q14 109 64 201t126 159.5t174.5 105.5t210.5 38q104 0 185.5 -43t136.5 -121h4l102 729h160l-217 -1548h-160l23 170h-4q-55 -82 -161 -138.5t-235 -56.5q-100 0 -182 38t-137 105.5t-80 160t-10 200.5zM334 479q-10 -76 5 -140.5t53 -112.5t96.5 -75.5 t136.5 -27.5t144.5 27.5t117.5 75.5t84 112.5t43 140.5t-4.5 140.5t-52 112.5t-96 76t-136.5 28t-144.5 -28t-117.5 -76t-85 -112.5t-44 -140.5zM1421 1087l158 363h176l-199 -363h-135z" />
<glyph unicode="&#x110;" horiz-adv-x="1517" d="M102 688l19 135h147l88 627h557q106 0 225 -38t214.5 -124t146.5 -224t23 -339q-18 -133 -65.5 -238.5t-114 -186.5t-147.5 -138.5t-165 -93t-166 -52t-153 -16.5h-557l96 688h-148zM346 160h328q125 0 236.5 32.5t199.5 101t147.5 175t79.5 256.5t-8.5 256t-97 175 t-171 101.5t-226.5 32.5h-328l-66 -467h516l-18 -135h-516z" />
<glyph unicode="&#x111;" horiz-adv-x="1251" d="M162 479q14 109 64 201t126 159.5t174.5 105.5t210.5 38q104 0 185.5 -43t136.5 -121h4l49 348h-258l16 123h258l37 258h160l-37 -258h148l-17 -123h-147l-164 -1167h-160l23 170h-4q-55 -82 -161 -138.5t-235 -56.5q-102 0 -184 38t-137 105.5t-79 160t-9 200.5z M334 479q-10 -76 5 -140.5t53 -112.5t96.5 -75.5t136.5 -27.5t144.5 27.5t117.5 75.5t84 112.5t43 140.5t-4.5 140.5t-52 112.5t-96 76t-136.5 28t-144.5 -28t-117.5 -76t-85 -112.5t-44 -140.5z" />
<glyph unicode="&#x112;" horiz-adv-x="1214" d="M180 0l203 1450h911l-22 -160h-740l-63 -454h690l-22 -160h-691l-73 -516h776l-21 -160h-948zM596 1626l19 123h565l-18 -123h-566z" />
<glyph unicode="&#x113;" d="M162 479q16 111 66.5 204t125 159.5t169.5 103.5t202 37q100 0 180 -34t130 -98.5t70.5 -157.5t4.5 -212l-8 -51h-774q-4 -61 13 -117.5t52 -98.5t87 -66.5t118 -24.5q104 0 181 37t145 108l106 -94q-100 -111 -208.5 -155t-243.5 -44q-113 0 -198 40t-138.5 107.5 t-74 160t-5.5 196.5zM346 565h602q12 123 -52.5 197t-197.5 74t-226 -74t-126 -197zM467 1229l17 123h565l-17 -123h-565z" />
<glyph unicode="&#x114;" horiz-adv-x="1214" d="M180 0l203 1450h911l-22 -160h-740l-63 -454h690l-22 -160h-691l-73 -516h776l-21 -160h-948zM598 1835h101q6 -80 58 -120t130 -40q92 0 148.5 34t91.5 126h98q-33 -135 -127 -202.5t-225 -67.5q-129 0 -207 67.5t-68 202.5z" />
<glyph unicode="&#x115;" d="M162 479q16 111 66.5 204t125 159.5t169.5 103.5t202 37q100 0 180 -34t130 -98.5t70.5 -157.5t4.5 -212l-8 -51h-774q-4 -61 13 -117.5t52 -98.5t87 -66.5t118 -24.5q104 0 181 37t145 108l106 -94q-100 -111 -208.5 -155t-243.5 -44q-113 0 -198 40t-138.5 107.5 t-74 160t-5.5 196.5zM346 565h602q12 123 -52.5 197t-197.5 74t-226 -74t-126 -197zM465 1438h100q4 -80 57.5 -120t131.5 -40q90 0 147.5 35t92.5 125h98q-33 -135 -127 -203t-225 -68q-129 0 -207 68t-68 203z" />
<glyph unicode="&#x116;" horiz-adv-x="1214" d="M180 0l203 1450h911l-22 -160h-740l-63 -454h690l-22 -160h-691l-73 -516h776l-21 -160h-948zM779 1688q6 45 43 77.5t84 32.5t73.5 -32.5t20.5 -77.5q-6 -47 -42 -79t-83 -32t-74.5 31.5t-21.5 79.5z" />
<glyph unicode="&#x117;" d="M162 479q16 111 66.5 204t125 159.5t169.5 103.5t202 37q100 0 180 -34t130 -98.5t70.5 -157.5t4.5 -212l-8 -51h-774q-4 -61 13 -117.5t52 -98.5t87 -66.5t118 -24.5q104 0 181 37t145 108l106 -94q-100 -111 -208.5 -155t-243.5 -44q-113 0 -198 40t-138.5 107.5 t-74 160t-5.5 196.5zM346 565h602q12 123 -52.5 197t-197.5 74t-226 -74t-126 -197zM647 1290q6 45 43 78t84 33t74 -33t21 -78q-6 -47 -43 -78.5t-84 -31.5t-74 31.5t-21 78.5z" />
<glyph unicode="&#x118;" horiz-adv-x="1214" d="M180 0l203 1450h911l-22 -160h-740l-63 -454h690l-22 -160h-691l-73 -516h776l-21 -160h-106q-27 -16 -57.5 -41t-58 -55.5t-48 -66.5t-27.5 -73q-4 -41 16.5 -68.5t70.5 -25.5q27 0 56.5 11.5t51.5 29.5l31 -84q-43 -37 -95.5 -58.5t-105.5 -21.5q-76 0 -126 48.5 t-40 125.5q6 43 28.5 84t55.5 78t71 67t73 50h-738z" />
<glyph unicode="&#x119;" d="M162 479q16 111 66.5 204t125 159.5t169.5 103.5t202 37q100 0 180 -34t130 -98.5t70.5 -157.5t4.5 -212l-8 -51h-774q-4 -61 13 -117.5t53 -98.5t87 -66.5t117 -24.5q104 0 181 37t145 108l106 -94q-78 -86 -161 -131t-179 -59q-25 -18 -51.5 -43t-50 -52.5t-41 -59.5 t-21.5 -65q-4 -41 16.5 -68.5t69.5 -25.5q27 0 56.5 11.5t52.5 29.5l31 -84q-43 -37 -95.5 -58.5t-105.5 -21.5q-76 0 -126 48.5t-40 125.5q10 76 66.5 142.5t121.5 111.5q-113 0 -196.5 40t-136 109t-73 160t-5.5 195zM346 565h602q14 123 -50 197t-200 74q-135 0 -226 -74 t-126 -197z" />
<glyph unicode="&#x11a;" horiz-adv-x="1214" d="M180 0l203 1450h911l-22 -160h-740l-63 -454h690l-22 -160h-691l-73 -516h776l-21 -160h-948zM596 1847h166l131 -209l187 209h155l-266 -295h-186z" />
<glyph unicode="&#x11b;" d="M162 479q16 111 66.5 204t125 159.5t169.5 103.5t202 37q100 0 180 -34t130 -98.5t70.5 -157.5t4.5 -212l-8 -51h-774q-4 -61 13 -117.5t52 -98.5t87 -66.5t118 -24.5q104 0 181 37t145 108l106 -94q-100 -111 -208.5 -155t-243.5 -44q-113 0 -198 40t-138.5 107.5 t-74 160t-5.5 196.5zM346 565h602q12 123 -52.5 197t-197.5 74t-226 -74t-126 -197zM461 1450h166l131 -209l186 209h156l-266 -295h-187z" />
<glyph unicode="&#x11c;" horiz-adv-x="1593" d="M197 725q25 172 105.5 312.5t200.5 239.5t269.5 154.5t312.5 55.5q143 0 269.5 -43t214.5 -148l-148 -135q-63 80 -161.5 123t-208.5 43q-125 0 -238 -45t-203 -125t-150.5 -190.5t-78.5 -241.5q-18 -129 10.5 -239.5t96 -191.5t172 -126t237.5 -45q88 0 187.5 21.5 t185.5 62.5l61 444h-334l23 160h506l-101 -713q-135 -70 -277 -102.5t-284 -32.5q-170 0 -304 55.5t-223 155.5t-127 240.5t-13 310.5zM745 1552l269 295h186l188 -295h-166l-133 209l-188 -209h-156z" />
<glyph unicode="&#x11d;" horiz-adv-x="1251" d="M70 -309l133 131q66 -82 144.5 -124t189.5 -42q106 0 181 31.5t124 86t74.5 124t35.5 145.5l19 123h-4q-72 -92 -169.5 -135t-193.5 -43q-113 0 -202 36.5t-147 102.5t-83 156t-10 196q16 117 66.5 211t127 158.5t175 99.5t212.5 35q98 0 187.5 -46t124.5 -142h4l22 163 h160l-129 -915q-35 -262 -188.5 -398.5t-407.5 -136.5q-141 0 -249.5 41t-196.5 142zM334 479q-10 -74 8 -136t57 -108.5t97.5 -73t128.5 -26.5q82 0 149.5 29t117.5 77t82 110.5t42 131.5q10 78 -5.5 142.5t-54 111.5t-98 73t-135.5 26t-141.5 -28t-117.5 -76t-86 -112.5 t-44 -140.5zM455 1155l268 295h187l188 -295h-166l-133 209l-188 -209h-156z" />
<glyph unicode="&#x11e;" horiz-adv-x="1593" d="M197 725q25 172 105.5 312.5t200.5 239.5t269.5 154.5t312.5 55.5q143 0 269.5 -43t214.5 -148l-148 -135q-63 80 -161.5 123t-208.5 43q-125 0 -238 -45t-203 -125t-150.5 -190.5t-78.5 -241.5q-18 -129 10.5 -239.5t96 -191.5t172 -126t237.5 -45q88 0 187.5 21.5 t185.5 62.5l61 444h-334l23 160h506l-101 -713q-135 -70 -277 -102.5t-284 -32.5q-170 0 -304 55.5t-223 155.5t-127 240.5t-13 310.5zM792 1835h101q6 -80 58 -120t130 -40q92 0 148.5 34t91.5 126h98q-33 -135 -127 -202.5t-225 -67.5q-129 0 -207 67.5t-68 202.5z" />
<glyph unicode="&#x11f;" horiz-adv-x="1251" d="M70 -309l133 131q66 -82 144.5 -124t189.5 -42q106 0 181 31.5t124 86t74.5 124t35.5 145.5l19 123h-4q-72 -92 -169.5 -135t-193.5 -43q-113 0 -202 36.5t-147 102.5t-83 156t-10 196q16 117 66.5 211t127 158.5t175 99.5t212.5 35q98 0 187.5 -46t124.5 -142h4l22 163 h160l-129 -915q-35 -262 -188.5 -398.5t-407.5 -136.5q-141 0 -249.5 41t-196.5 142zM334 479q-10 -74 8 -136t57 -108.5t97.5 -73t128.5 -26.5q82 0 149.5 29t117.5 77t82 110.5t42 131.5q10 78 -5.5 142.5t-54 111.5t-98 73t-135.5 26t-141.5 -28t-117.5 -76t-86 -112.5 t-44 -140.5zM502 1438h100q4 -80 57.5 -120t131.5 -40q90 0 147.5 35t92.5 125h98q-33 -135 -127 -203t-225 -68q-129 0 -207 68t-68 203z" />
<glyph unicode="&#x120;" horiz-adv-x="1593" d="M197 725q25 172 105.5 312.5t200.5 239.5t269.5 154.5t312.5 55.5q143 0 269.5 -43t214.5 -148l-148 -135q-63 80 -161.5 123t-208.5 43q-125 0 -238 -45t-203 -125t-150.5 -190.5t-78.5 -241.5q-18 -129 10.5 -239.5t96 -191.5t172 -126t237.5 -45q88 0 187.5 21.5 t185.5 62.5l61 444h-334l23 160h506l-101 -713q-135 -70 -277 -102.5t-284 -32.5q-170 0 -304 55.5t-223 155.5t-127 240.5t-13 310.5zM975 1688q6 45 43 77.5t84 32.5t73.5 -32.5t20.5 -77.5q-6 -47 -42 -79t-83 -32t-74.5 31.5t-21.5 79.5z" />
<glyph unicode="&#x121;" horiz-adv-x="1251" d="M70 -309l133 131q66 -82 144.5 -124t189.5 -42q106 0 181 31.5t124 86t74.5 124t35.5 145.5l19 123h-4q-72 -92 -169.5 -135t-193.5 -43q-113 0 -202 36.5t-147 102.5t-83 156t-10 196q16 117 66.5 211t127 158.5t175 99.5t212.5 35q98 0 187.5 -46t124.5 -142h4l22 163 h160l-129 -915q-35 -262 -188.5 -398.5t-407.5 -136.5q-141 0 -249.5 41t-196.5 142zM334 479q-10 -74 8 -136t57 -108.5t97.5 -73t128.5 -26.5q82 0 149.5 29t117.5 77t82 110.5t42 131.5q10 78 -5.5 142.5t-54 111.5t-98 73t-135.5 26t-141.5 -28t-117.5 -76t-86 -112.5 t-44 -140.5zM684 1290q6 45 43 78t84 33t74 -33t21 -78q-6 -47 -43 -78.5t-84 -31.5t-74 31.5t-21 78.5z" />
<glyph unicode="&#x122;" horiz-adv-x="1593" d="M197 725q25 172 105.5 312.5t200.5 239.5t269.5 154.5t312.5 55.5q143 0 269.5 -43t214.5 -148l-148 -135q-63 80 -161.5 123t-208.5 43q-125 0 -238 -45t-203 -125t-150.5 -190.5t-78.5 -241.5q-18 -129 10.5 -239.5t96 -191.5t172 -126t237.5 -45q88 0 187.5 21.5 t185.5 62.5l61 444h-334l23 160h506l-101 -713q-135 -70 -277 -102.5t-284 -32.5q-170 0 -304 55.5t-223 155.5t-127 240.5t-13 310.5zM610 -467l156 342h176l-197 -342h-135z" />
<glyph unicode="&#x123;" horiz-adv-x="1251" d="M70 -309l133 131q66 -82 144.5 -124t189.5 -42q106 0 181 31.5t124 86t74.5 124t35.5 145.5l19 123h-4q-72 -92 -169.5 -135t-193.5 -43q-113 0 -202 36.5t-147 102.5t-83 156t-10 196q16 117 66.5 211t127 158.5t175 99.5t212.5 35q98 0 187.5 -46t124.5 -142h4l22 163 h160l-129 -915q-35 -262 -188.5 -398.5t-407.5 -136.5q-141 0 -249.5 41t-196.5 142zM334 479q-10 -74 8 -136t57 -108.5t97.5 -73t128.5 -26.5q82 0 149.5 29t117.5 77t82 110.5t42 131.5q10 78 -5.5 142.5t-54 111.5t-98 73t-135.5 26t-141.5 -28t-117.5 -76t-86 -112.5 t-44 -140.5zM702 1196l195 342h135l-154 -342h-176z" />
<glyph unicode="&#x124;" horiz-adv-x="1478" d="M180 0l203 1450h172l-86 -614h774l86 614h172l-203 -1450h-172l95 676h-775l-94 -676h-172zM637 1552l269 295h186l188 -295h-166l-133 209l-188 -209h-156z" />
<glyph unicode="&#x125;" d="M152 0l217 1548h159l-102 -723h4q20 29 53 56.5t76 50t94.5 37t106.5 14.5q94 0 158.5 -28.5t102.5 -80t49 -124t-1 -158.5l-82 -592h-160l80 575q16 121 -26.5 191t-155.5 70q-156 0 -241 -102.5t-107 -266.5l-66 -467h-159zM430 1669l269 295h186l188 -295h-166 l-133 209l-188 -209h-156z" />
<glyph unicode="&#x126;" horiz-adv-x="1478" d="M180 0l203 1450h172l-25 -180h775l24 180h172l-203 -1450h-172l95 676h-775l-94 -676h-172zM469 836h774l43 311h-774z" />
<glyph unicode="&#x127;" d="M152 0l163 1167h-147l16 123h148l37 258h159l-36 -258h258l-17 -123h-258l-49 -342h4q20 27 53 55.5t76 51t94.5 37t106.5 14.5q94 0 158.5 -28.5t102.5 -80t49 -124t-1 -158.5l-82 -592h-160l80 575q16 123 -26.5 192t-155.5 69q-156 0 -241 -102.5t-107 -266.5 l-66 -467h-159z" />
<glyph unicode="&#x128;" horiz-adv-x="532" d="M148 1577q12 39 32.5 78t49.5 68.5t66.5 48t84.5 18.5t87 -15.5t79 -31.5q29 -12 51.5 -23.5t55.5 -11.5q41 0 67.5 26.5t42.5 63.5h99q-12 -39 -30.5 -77t-46.5 -68.5t-63.5 -49t-81.5 -18.5q-43 0 -82.5 13.5t-76.5 29.5q-29 12 -61.5 25.5t-67.5 13.5 q-39 0 -64.5 -27.5t-42.5 -62.5h-98zM180 0l203 1450h172l-203 -1450h-172z" />
<glyph unicode="&#x129;" horiz-adv-x="491" d="M72 1180q12 39 33.5 77.5t51 68.5t67.5 48.5t83 18.5q47 0 86 -15.5t80 -31.5q29 -12 50.5 -23.5t53.5 -11.5q41 0 69 26.5t44 63.5h98q-12 -39 -31.5 -77t-46 -68.5t-62.5 -49t-81 -18.5q-43 0 -83 13t-77 30q-29 12 -61.5 25.5t-67.5 13.5q-39 0 -65.5 -28t-42.5 -62 h-98zM166 0l133 958h160l-133 -958h-160z" />
<glyph unicode="&#x12a;" horiz-adv-x="532" d="M180 0l203 1450h172l-203 -1450h-172zM208 1626l19 123h565l-18 -123h-566z" />
<glyph unicode="&#x12b;" horiz-adv-x="491" d="M137 1229l17 123h565l-17 -123h-565zM166 0l133 958h160l-133 -958h-160z" />
<glyph unicode="&#x12e;" horiz-adv-x="532" d="M-45 -279q6 43 28.5 84t54.5 78t69.5 67t72.5 50l203 1450h172l-203 -1450h-69q-27 -16 -57.5 -41t-58.5 -55.5t-47.5 -66.5t-25.5 -73q-4 -41 16.5 -68.5t69.5 -25.5q27 0 56.5 11.5t52.5 29.5l30 -84q-43 -37 -95 -58.5t-105 -21.5q-76 0 -125 48.5t-39 125.5z" />
<glyph unicode="&#x12f;" horiz-adv-x="491" d="M-35 -279q6 43 28.5 84t54.5 78t70 67t72 50h-24l133 958h160l-133 -958h-31q-27 -16 -57.5 -41t-58 -55.5t-48 -66.5t-27.5 -73q-4 -41 16.5 -68.5t69.5 -25.5q27 0 56.5 11.5t52.5 29.5l31 -84q-43 -37 -95.5 -58.5t-105.5 -21.5q-76 0 -125 48.5t-39 125.5zM315 1333 q6 47 45 82t89 35q49 0 77.5 -35t22.5 -82q-8 -51 -45 -83.5t-88 -32.5t-80 32.5t-21 83.5z" />
<glyph unicode="&#x130;" horiz-adv-x="532" d="M180 0l203 1450h172l-203 -1450h-172zM396 1688q6 45 43 77.5t84 32.5t73.5 -32.5t20.5 -77.5q-6 -47 -42 -79t-83 -32t-74.5 31.5t-21.5 79.5z" />
<glyph unicode="&#x131;" horiz-adv-x="491" d="M166 0l133 958h160l-133 -958h-160z" />
<glyph unicode="&#x132;" horiz-adv-x="1497" d="M180 0l203 1450h172l-203 -1450h-172zM553 274l178 35q4 -86 51 -136t140 -50q74 0 124 26.5t82.5 69.5t50 99.5t25.5 115.5l144 1016h172l-152 -1075q-10 -74 -42 -146.5t-88 -132t-140 -96.5t-201 -37q-154 0 -246 78t-98 233z" />
<glyph unicode="&#x133;" horiz-adv-x="923" d="M166 0l133 958h160l-133 -958h-160zM297 -471l39 139q37 -12 76 -12q45 0 73.5 16.5t47 44t28.5 64.5t16 78l154 1099h160l-164 -1173q-6 -37 -23.5 -85t-54.5 -90t-96.5 -72t-147.5 -30q-29 0 -56.5 4.5t-51.5 16.5zM315 1333q6 47 45 82t89 35q49 0 77.5 -35t22.5 -82 q-8 -51 -45 -83.5t-88 -32.5t-80 32.5t-21 83.5zM747 1333q6 47 45 82t89 35q49 0 77.5 -35t22.5 -82q-8 -51 -45 -83.5t-88 -32.5t-80 32.5t-21 83.5z" />
<glyph unicode="&#x134;" horiz-adv-x="987" d="M43 274l178 35q4 -86 51 -136t140 -50q74 0 124 26.5t82.5 69.5t50 99.5t25.5 115.5l144 1016h172l-152 -1075q-10 -74 -42 -146.5t-88 -132t-140 -96.5t-201 -37q-154 0 -246 78t-98 233zM610 1552l269 295h186l188 -295h-166l-133 209l-188 -209h-156z" />
<glyph unicode="&#x135;" horiz-adv-x="491" d="M-135 -471l39 139q37 -12 76 -12q45 0 73.5 16.5t47 44t28.5 64.5t16 78l154 1099h160l-164 -1173q-6 -37 -23.5 -85t-54.5 -90t-96.5 -72t-147.5 -30q-29 0 -56.5 4.5t-51.5 16.5zM88 1155l268 295h187l188 -295h-166l-133 209l-188 -209h-156z" />
<glyph unicode="&#x136;" horiz-adv-x="1290" d="M180 0l203 1450h172l-88 -627h25l747 627h248l-809 -662l641 -788h-252l-588 737h-24l-103 -737h-172zM416 -467l156 342h176l-197 -342h-135z" />
<glyph unicode="&#x137;" horiz-adv-x="1024" d="M152 0l217 1548h159l-143 -1011l496 421h227l-524 -436l438 -522h-236l-405 504l-70 -504h-159zM272 -467l156 342h176l-197 -342h-135z" />
<glyph unicode="&#x139;" horiz-adv-x="1024" d="M180 0l203 1450h172l-182 -1290h663l-20 -160h-836zM342 1552l253 295h226l-334 -295h-145z" />
<glyph unicode="&#x13a;" horiz-adv-x="491" d="M166 0l217 1548h160l-217 -1548h-160zM369 1669l253 295h226l-334 -295h-145z" />
<glyph unicode="&#x13b;" horiz-adv-x="1024" d="M180 0l203 1450h172l-182 -1290h663l-20 -160h-836zM329 -467l156 342h176l-197 -342h-135z" />
<glyph unicode="&#x13c;" horiz-adv-x="491" d="M28 -467l156 342h176l-197 -342h-135zM166 0l217 1548h160l-217 -1548h-160z" />
<glyph unicode="&#x13d;" horiz-adv-x="1024" d="M180 0l203 1450h172l-182 -1290h663l-20 -160h-836zM606 1087l158 363h176l-199 -363h-135z" />
<glyph unicode="&#x13e;" horiz-adv-x="491" d="M166 0l217 1548h160l-217 -1548h-160zM658 1087l158 363h176l-199 -363h-135z" />
<glyph unicode="&#x13f;" horiz-adv-x="1024" d="M180 0l203 1450h172l-182 -1290h663l-20 -160h-836zM782 784q6 45 43 78t84 33t74 -33t21 -78q-6 -47 -43 -78.5t-84 -31.5t-74 31.5t-21 78.5z" />
<glyph unicode="&#x140;" horiz-adv-x="688" d="M166 0l217 1548h160l-217 -1548h-160zM596 786q6 45 43 78t84 33t74 -33t21 -78q-6 -47 -43 -78.5t-84 -31.5t-74 31.5t-21 78.5z" />
<glyph unicode="&#x141;" horiz-adv-x="1024" d="M63 315l23 162l180 137l117 836h172l-96 -688l495 381l-22 -162l-496 -381l-63 -440h663l-20 -160h-836l64 453z" />
<glyph unicode="&#x142;" horiz-adv-x="491" d="M63 465l25 168l188 166l107 749h160l-84 -590l190 166l-24 -166l-189 -165l-110 -793h-160l88 631z" />
<glyph unicode="&#x143;" horiz-adv-x="1593" d="M180 0l203 1450h217l670 -1204h4l170 1204h172l-203 -1450h-217l-672 1204h-4l-168 -1204h-172zM869 1552l253 295h226l-334 -295h-145z" />
<glyph unicode="&#x144;" d="M152 0l102 731q10 66 13 123t9 104h152q-4 -39 -8 -77.5t-10 -79.5h4q20 35 55 67.5t80 58t98 41t113 15.5q94 0 158.5 -28.5t102.5 -80t49 -124t-1 -158.5l-82 -592h-160l80 575q16 121 -26.5 191t-155.5 70q-156 0 -241 -102.5t-107 -266.5l-66 -467h-159zM565 1155 l254 295h225l-333 -295h-146z" />
<glyph unicode="&#x145;" horiz-adv-x="1593" d="M180 0l203 1450h217l670 -1204h4l170 1204h172l-203 -1450h-217l-672 1204h-4l-168 -1204h-172zM526 -467l156 342h176l-197 -342h-135z" />
<glyph unicode="&#x146;" d="M152 0l102 731q10 66 13 123t9 104h152q-4 -39 -8 -77.5t-10 -79.5h4q20 35 55 67.5t80 58t98 41t113 15.5q94 0 158.5 -28.5t102.5 -80t49 -124t-1 -158.5l-82 -592h-160l80 575q16 121 -26.5 191t-155.5 70q-156 0 -241 -102.5t-107 -266.5l-66 -467h-159zM311 -467 l156 342h176l-197 -342h-135z" />
<glyph unicode="&#x147;" horiz-adv-x="1593" d="M180 0l203 1450h217l670 -1204h4l170 1204h172l-203 -1450h-217l-672 1204h-4l-168 -1204h-172zM733 1847h166l131 -209l187 209h155l-266 -295h-186z" />
<glyph unicode="&#x148;" d="M152 0l102 731q10 66 13 123t9 104h152q-4 -39 -8 -77.5t-10 -79.5h4q20 35 55 67.5t80 58t98 41t113 15.5q94 0 158.5 -28.5t102.5 -80t49 -124t-1 -158.5l-82 -592h-160l80 575q16 121 -26.5 191t-155.5 70q-156 0 -241 -102.5t-107 -266.5l-66 -467h-159zM467 1450 h166l131 -209l186 209h156l-266 -295h-187z" />
<glyph unicode="&#x149;" d="M152 0l102 731q10 66 13 123t9 104h152q-4 -39 -8 -77.5t-10 -79.5h4q20 35 55 67.5t80 58t98 41t113 15.5q94 0 158.5 -28.5t102.5 -80t49 -124t-1 -158.5l-82 -592h-160l80 575q16 121 -26.5 191t-155.5 70q-156 0 -241 -102.5t-107 -266.5l-66 -467h-159zM191 1087 l158 363h176l-199 -363h-135z" />
<glyph unicode="&#x14c;" horiz-adv-x="1708" d="M197 725q23 164 99.5 304t191 241.5t262 159t313.5 57.5t296 -57.5t216 -159t123 -241.5t14 -304t-98.5 -304t-191 -241.5t-262 -159t-312.5 -57.5t-297 57.5t-217 159t-123 241.5t-14 304zM381 725q-18 -125 8.5 -234.5t91 -191.5t163.5 -129t226 -47t240 47t200 129 t143 191.5t75 234.5q18 125 -8.5 234.5t-90 191.5t-163 129t-226.5 47t-239.5 -47t-199.5 -129t-144.5 -191.5t-75.5 -234.5zM800 1626l19 123h565l-18 -123h-566z" />
<glyph unicode="&#x14d;" horiz-adv-x="1216" d="M162 479q16 113 67.5 205t129 158.5t177 103.5t209.5 37q111 0 200 -37t147.5 -103.5t84 -158.5t9.5 -205t-67.5 -205t-128.5 -158.5t-176 -103.5t-210 -37t-200 37t-147 103.5t-84.5 158.5t-10.5 205zM334 479q-10 -76 5 -140.5t53 -112.5t96.5 -75.5t136.5 -27.5 t144.5 27.5t117.5 75.5t84 112.5t43 140.5t-4.5 140.5t-52 112.5t-96 76t-136.5 28t-144.5 -28t-117.5 -76t-85 -112.5t-44 -140.5zM497 1229l17 123h565l-17 -123h-565z" />
<glyph unicode="&#x14e;" horiz-adv-x="1708" d="M197 725q23 164 99.5 304t191 241.5t262 159t313.5 57.5t296 -57.5t216 -159t123 -241.5t14 -304t-98.5 -304t-191 -241.5t-262 -159t-312.5 -57.5t-297 57.5t-217 159t-123 241.5t-14 304zM381 725q-18 -125 8.5 -234.5t91 -191.5t163.5 -129t226 -47t240 47t200 129 t143 191.5t75 234.5q18 125 -8.5 234.5t-90 191.5t-163 129t-226.5 47t-239.5 -47t-199.5 -129t-144.5 -191.5t-75.5 -234.5zM794 1835h101q6 -80 58 -120t130 -40q92 0 148.5 34t91.5 126h98q-33 -135 -127 -202.5t-225 -67.5q-129 0 -207 67.5t-68 202.5z" />
<glyph unicode="&#x14f;" horiz-adv-x="1216" d="M162 479q16 113 67.5 205t129 158.5t177 103.5t209.5 37q111 0 200 -37t147.5 -103.5t84 -158.5t9.5 -205t-67.5 -205t-128.5 -158.5t-176 -103.5t-210 -37t-200 37t-147 103.5t-84.5 158.5t-10.5 205zM334 479q-10 -76 5 -140.5t53 -112.5t96.5 -75.5t136.5 -27.5 t144.5 27.5t117.5 75.5t84 112.5t43 140.5t-4.5 140.5t-52 112.5t-96 76t-136.5 28t-144.5 -28t-117.5 -76t-85 -112.5t-44 -140.5zM495 1438h100q4 -80 57.5 -120t131.5 -40q90 0 147.5 35t92.5 125h98q-33 -135 -127 -203t-225 -68q-129 0 -207 68t-68 203z" />
<glyph unicode="&#x150;" horiz-adv-x="1708" d="M197 725q23 164 99.5 304t191 241.5t262 159t313.5 57.5t296 -57.5t216 -159t123 -241.5t14 -304t-98.5 -304t-191 -241.5t-262 -159t-312.5 -57.5t-297 57.5t-217 159t-123 241.5t-14 304zM381 725q-18 -125 8.5 -234.5t91 -191.5t163.5 -129t226 -47t240 47t200 129 t143 191.5t75 234.5q18 125 -8.5 234.5t-90 191.5t-163 129t-226.5 47t-239.5 -47t-199.5 -129t-144.5 -191.5t-75.5 -234.5zM846 1552l246 295h196l-305 -295h-137zM1166 1552l264 295h209l-334 -295h-139z" />
<glyph unicode="&#x151;" horiz-adv-x="1216" d="M162 479q16 113 67.5 205t129 158.5t177 103.5t209.5 37q111 0 200 -37t147.5 -103.5t84 -158.5t9.5 -205t-67.5 -205t-128.5 -158.5t-176 -103.5t-210 -37t-200 37t-147 103.5t-84.5 158.5t-10.5 205zM334 479q-10 -76 5 -140.5t53 -112.5t96.5 -75.5t136.5 -27.5 t144.5 27.5t117.5 75.5t84 112.5t43 140.5t-4.5 140.5t-52 112.5t-96 76t-136.5 28t-144.5 -28t-117.5 -76t-85 -112.5t-44 -140.5zM541 1155l245 295h197l-305 -295h-137zM860 1155l264 295h209l-334 -295h-139z" />
<glyph unicode="&#x152;" horiz-adv-x="1972" d="M213 725q20 141 89 272t184.5 231.5t274.5 161t359 60.5h930l-22 -160h-615l-63 -454h577l-22 -160h-578l-74 -516h627l-20 -160h-942q-201 0 -343.5 60.5t-229.5 161t-119.5 231.5t-12.5 272zM397 725q-14 -104 8.5 -205.5t89 -181.5t177 -129t274.5 -49h135l160 1130 h-135q-164 0 -289 -49t-214 -129t-140 -181.5t-66 -205.5z" />
<glyph unicode="&#x153;" horiz-adv-x="1857" d="M139 479q14 109 64.5 201t125 159.5t171 105.5t205.5 38q129 0 218 -45t154 -147q174 193 389 192q100 0 180 -34t130.5 -98.5t71 -157.5t3.5 -212l-8 -51h-739q-8 -63 5 -118.5t44 -97.5t79 -66.5t107 -24.5q104 0 181 37t145 108l107 -94q-100 -111 -209 -155t-244 -44 q-104 0 -192.5 46.5t-137.5 150.5q-88 -98 -189.5 -147.5t-230.5 -49.5q-115 0 -201.5 36t-142 102.5t-79 159t-7.5 206.5zM311 479q-10 -70 1.5 -134t45 -113.5t89 -79t135.5 -29.5q82 0 147.5 27.5t114.5 76.5t78.5 114t40.5 138q10 70 -1.5 134.5t-45 113.5t-90 79 t-136.5 30t-145.5 -29t-113.5 -77t-79 -112.5t-41 -138.5zM1122 565h568q12 123 -52.5 197t-197.5 74q-59 0 -112.5 -24t-96.5 -61.5t-72 -87t-37 -98.5z" />
<glyph unicode="&#x154;" horiz-adv-x="1251" d="M180 0l203 1450h371q104 0 206.5 -12.5t178 -53.5t115.5 -119.5t22 -213.5q-23 -160 -133.5 -258.5t-284.5 -124.5l320 -668h-211l-303 651h-222l-90 -651h-172zM465 811h153q72 0 150 4t145.5 26.5t116.5 71t62 138.5q10 78 -14.5 125t-70.5 72.5t-107.5 33.5t-125.5 8 h-242zM662 1552l253 295h226l-334 -295h-145z" />
<glyph unicode="&#x155;" horiz-adv-x="720" d="M152 0l102 731q10 66 13 123t9 104h152q-4 -39 -8 -77.5t-10 -79.5h4q20 35 55 67.5t80 58t98 41t113 15.5q16 0 31.5 -2t31.5 -8l-32 -162q-37 12 -84 12q-147 0 -227.5 -95t-102.5 -261l-66 -467h-159zM434 1155l254 295h225l-333 -295h-146z" />
<glyph unicode="&#x156;" horiz-adv-x="1251" d="M180 0l203 1450h371q104 0 206.5 -12.5t178 -53.5t115.5 -119.5t22 -213.5q-23 -160 -133.5 -258.5t-284.5 -124.5l320 -668h-211l-303 651h-222l-90 -651h-172zM344 -467l156 342h176l-197 -342h-135zM465 811h153q72 0 150 4t145.5 26.5t116.5 71t62 138.5 q10 78 -14.5 125t-70.5 72.5t-107.5 33.5t-125.5 8h-242z" />
<glyph unicode="&#x157;" horiz-adv-x="720" d="M96 -467l156 342h176l-197 -342h-135zM152 0l102 731q10 66 13 123t9 104h152q-4 -39 -8 -77.5t-10 -79.5h4q20 35 55 67.5t80 58t98 41t113 15.5q16 0 31.5 -2t31.5 -8l-32 -162q-37 12 -84 12q-147 0 -227.5 -95t-102.5 -261l-66 -467h-159z" />
<glyph unicode="&#x158;" horiz-adv-x="1251" d="M180 0l203 1450h371q104 0 206.5 -12.5t178 -53.5t115.5 -119.5t22 -213.5q-23 -160 -133.5 -258.5t-284.5 -124.5l320 -668h-211l-303 651h-222l-90 -651h-172zM465 811h153q72 0 150 4t145.5 26.5t116.5 71t62 138.5q10 78 -14.5 125t-70.5 72.5t-107.5 33.5t-125.5 8 h-242zM549 1847h166l131 -209l187 209h155l-266 -295h-186z" />
<glyph unicode="&#x159;" horiz-adv-x="720" d="M152 0l102 731q10 66 13 123t9 104h152q-4 -39 -8 -77.5t-10 -79.5h4q20 35 55 67.5t80 58t98 41t113 15.5q16 0 31.5 -2t31.5 -8l-32 -162q-37 12 -84 12q-147 0 -227.5 -95t-102.5 -261l-66 -467h-159zM264 1450h166l131 -209l186 209h156l-266 -295h-187z" />
<glyph unicode="&#x15a;" d="M100 164l164 121q35 -80 114 -121t173 -41q55 0 113.5 16.5t108.5 48t85 78.5t43 109q8 68 -8 109.5t-58 72.5t-111 55.5t-161 57.5q-74 25 -135 56.5t-102 77.5t-59.5 110.5t-6.5 154.5q14 104 66.5 182t129 130.5t169 79t188.5 26.5q123 0 218 -38t163 -132l-160 -123 q-33 70 -99.5 101.5t-143.5 31.5q-57 0 -115 -14.5t-106 -43t-81.5 -75.5t-42.5 -111q-6 -49 3.5 -87t41 -68.5t86 -57t138.5 -53.5q80 -27 154.5 -57.5t128 -77.5t79 -117.5t10.5 -177.5q-16 -109 -69 -188.5t-132 -132t-174.5 -78t-193.5 -25.5q-63 0 -125.5 11.5t-118 35 t-100.5 61.5t-74 93zM672 1552l253 295h226l-334 -295h-145z" />
<glyph unicode="&#x15b;" horiz-adv-x="872" d="M66 154l141 98q39 -59 90 -94t137 -35q37 0 76 8t71.5 26.5t55 46t29.5 66.5q6 39 -8.5 63.5t-41 42t-62.5 28t-73 18.5q-66 14 -125 32.5t-100 48t-61.5 77t-10.5 120.5q8 70 47 123.5t94.5 88t122 53t134.5 18.5q102 0 183 -41t118 -133l-146 -88q-23 51 -68.5 83 t-117.5 32q-33 0 -67.5 -8.5t-64.5 -25t-50.5 -42t-24.5 -58.5q-4 -31 12.5 -52t47 -37.5t72.5 -29t89 -20.5q61 -12 115.5 -31.5t93.5 -52.5t56.5 -82t7.5 -121q-10 -82 -51.5 -139t-100.5 -93t-130 -52.5t-142 -16.5q-123 0 -207 38t-141 141zM471 1155l254 295h225 l-333 -295h-146z" />
<glyph unicode="&#x15c;" d="M100 164l164 121q35 -80 114 -121t173 -41q55 0 113.5 16.5t108.5 48t85 78.5t43 109q8 68 -8 109.5t-58 72.5t-111 55.5t-161 57.5q-74 25 -135 56.5t-102 77.5t-59.5 110.5t-6.5 154.5q14 104 66.5 182t129 130.5t169 79t188.5 26.5q123 0 218 -38t163 -132l-160 -123 q-33 70 -99.5 101.5t-143.5 31.5q-57 0 -115 -14.5t-106 -43t-81.5 -75.5t-42.5 -111q-6 -49 3.5 -87t41 -68.5t86 -57t138.5 -53.5q80 -27 154.5 -57.5t128 -77.5t79 -117.5t10.5 -177.5q-16 -109 -69 -188.5t-132 -132t-174.5 -78t-193.5 -25.5q-63 0 -125.5 11.5t-118 35 t-100.5 61.5t-74 93zM495 1552l269 295h186l188 -295h-166l-133 209l-188 -209h-156z" />
<glyph unicode="&#x15d;" horiz-adv-x="872" d="M66 154l141 98q39 -59 90 -94t137 -35q37 0 76 8t71.5 26.5t55 46t29.5 66.5q6 39 -8.5 63.5t-41 42t-62.5 28t-73 18.5q-66 14 -125 32.5t-100 48t-61.5 77t-10.5 120.5q8 70 47 123.5t94.5 88t122 53t134.5 18.5q102 0 183 -41t118 -133l-146 -88q-23 51 -68.5 83 t-117.5 32q-33 0 -67.5 -8.5t-64.5 -25t-50.5 -42t-24.5 -58.5q-4 -31 12.5 -52t47 -37.5t72.5 -29t89 -20.5q61 -12 115.5 -31.5t93.5 -52.5t56.5 -82t7.5 -121q-10 -82 -51.5 -139t-100.5 -93t-130 -52.5t-142 -16.5q-123 0 -207 38t-141 141zM297 1155l268 295h187 l188 -295h-166l-133 209l-188 -209h-156z" />
<glyph unicode="&#x15e;" d="M100 164l164 121q37 -80 115 -121t172 -41q55 0 113.5 16.5t108.5 48t85 78.5t43 109q10 68 -7 109.5t-60 72.5t-111 55.5t-160 57.5q-74 25 -135 56.5t-102 77.5t-59.5 110.5t-6.5 154.5q14 104 66.5 182t129 130.5t169 79t188.5 26.5q123 0 218 -38t163 -132l-160 -123 q-33 70 -99.5 101.5t-143.5 31.5q-57 0 -115 -14.5t-106 -43t-81.5 -75.5t-42.5 -111q-6 -49 3.5 -87t40 -68.5t86 -57t139.5 -53.5q80 -27 154.5 -57.5t128 -77.5t79 -117.5t10.5 -177.5q-14 -96 -59 -170t-110.5 -126t-147.5 -83t-170 -41l-82 -98q14 2 30.5 5t41.5 3 q27 0 54.5 -8t49 -25.5t33.5 -44t6 -63.5q-6 -49 -32.5 -84t-64.5 -56.5t-82 -30.5t-85 -9q-53 0 -102.5 10t-94.5 33l45 75q66 -33 144 -32q41 0 85 17t52 67q6 43 -27.5 60t-68.5 17q-20 0 -42 -5t-40 -11l-35 39l119 137q-61 2 -121.5 14.5t-115 36t-97.5 60.5t-70 90z " />
<glyph unicode="&#x15f;" horiz-adv-x="872" d="M66 154l141 98q39 -59 90 -94t137 -35q37 0 76 8t71.5 26.5t55 46t29.5 66.5q6 39 -8.5 63.5t-40 42t-61.5 28t-75 18.5q-66 14 -124 32.5t-100 48t-62.5 77t-10.5 120.5q8 70 47 123.5t94.5 88t122 53t134.5 18.5q104 0 184 -41t117 -133l-146 -88q-23 51 -68.5 83 t-117.5 32q-33 0 -67.5 -8.5t-64.5 -25t-50.5 -42t-24.5 -58.5q-4 -29 12.5 -51t47 -38.5t72.5 -29t89 -20.5q63 -12 117.5 -31.5t92.5 -52.5t55.5 -82t7.5 -121t-43 -124t-81 -88.5t-108.5 -57t-122.5 -26.5l-92 -111q14 2 30.5 5t41.5 3q27 0 54.5 -8t49 -25.5t33.5 -44 t6 -63.5q-6 -49 -32.5 -84t-64.5 -56.5t-82 -30.5t-85 -9q-53 0 -102.5 10t-94.5 33l45 75q66 -33 144 -32q41 0 85 17t52 67q6 43 -27.5 60t-68.5 17q-20 0 -42 -5t-40 -11l-35 39l129 149q-111 4 -189.5 42t-131.5 137z" />
<glyph unicode="&#x160;" d="M100 164l164 121q35 -80 114 -121t173 -41q55 0 113.5 16.5t108.5 48t85 78.5t43 109q8 68 -8 109.5t-58 72.5t-111 55.5t-161 57.5q-74 25 -135 56.5t-102 77.5t-59.5 110.5t-6.5 154.5q14 104 66.5 182t129 130.5t169 79t188.5 26.5q123 0 218 -38t163 -132l-160 -123 q-33 70 -99.5 101.5t-143.5 31.5q-57 0 -115 -14.5t-106 -43t-81.5 -75.5t-42.5 -111q-6 -49 3.5 -87t41 -68.5t86 -57t138.5 -53.5q80 -27 154.5 -57.5t128 -77.5t79 -117.5t10.5 -177.5q-16 -109 -69 -188.5t-132 -132t-174.5 -78t-193.5 -25.5q-63 0 -125.5 11.5t-118 35 t-100.5 61.5t-74 93zM508 1847h166l131 -209l187 209h155l-266 -295h-186z" />
<glyph unicode="&#x161;" horiz-adv-x="872" d="M66 154l141 98q39 -59 90 -94t137 -35q37 0 76 8t71.5 26.5t55 46t29.5 66.5q6 39 -8.5 63.5t-41 42t-62.5 28t-73 18.5q-66 14 -125 32.5t-100 48t-61.5 77t-10.5 120.5q8 70 47 123.5t94.5 88t122 53t134.5 18.5q102 0 183 -41t118 -133l-146 -88q-23 51 -68.5 83 t-117.5 32q-33 0 -67.5 -8.5t-64.5 -25t-50.5 -42t-24.5 -58.5q-4 -31 12.5 -52t47 -37.5t72.5 -29t89 -20.5q61 -12 115.5 -31.5t93.5 -52.5t56.5 -82t7.5 -121q-10 -82 -51.5 -139t-100.5 -93t-130 -52.5t-142 -16.5q-123 0 -207 38t-141 141zM319 1483h166l131 -209 l186 209h156l-266 -295h-187z" />
<glyph unicode="&#x162;" horiz-adv-x="1175" d="M203 1290l22 160h1131l-23 -160h-479l-180 -1290h-172l180 1290h-479zM325 -467l156 342h176l-197 -342h-135z" />
<glyph unicode="&#x163;" horiz-adv-x="720" d="M139 823l19 135h209l39 273h159l-39 -273h283l-18 -135h-283l-68 -479q-6 -47 -9 -87t6 -69.5t36 -47t80 -17.5q35 0 73 8t72 25l-14 -146q-43 -18 -94 -26.5t-96 -8.5q-86 0 -134.5 22.5t-71 63.5t-23.5 101.5t9 134.5l74 526h-209zM147 -467l156 342h176l-197 -342 h-135z" />
<glyph unicode="&#x164;" horiz-adv-x="1175" d="M203 1290l22 160h1131l-23 -160h-479l-180 -1290h-172l180 1290h-479zM526 1847h166l131 -209l187 209h155l-266 -295h-186z" />
<glyph unicode="&#x165;" horiz-adv-x="720" d="M139 823l19 135h209l39 273h159l-39 -273h283l-18 -135h-283l-68 -479q-6 -47 -9 -87t6 -69.5t36 -47t80 -17.5q35 0 73 8t72 25l-14 -146q-43 -18 -94 -26.5t-96 -8.5q-86 0 -134.5 22.5t-71 63.5t-23.5 101.5t9 134.5l74 526h-209zM678 1087l158 363h176l-199 -363 h-135z" />
<glyph unicode="&#x166;" horiz-adv-x="1175" d="M203 1290l22 160h1131l-23 -160h-479l-47 -329h305l-16 -123h-305l-117 -838h-172l116 838h-292l16 123h293l47 329h-479z" />
<glyph unicode="&#x167;" horiz-adv-x="720" d="M139 823l19 135h209l39 273h159l-39 -273h283l-18 -135h-283l-19 -133h244l-18 -123h-244l-31 -223q-6 -47 -9 -87t6 -69.5t36 -47t80 -17.5q35 0 73 8t72 25l-14 -146q-43 -18 -94 -26.5t-96 -8.5q-86 0 -134.5 22.5t-71 63.5t-23.5 101.5t9 134.5l37 270h-161l18 123 h162l18 133h-209z" />
<glyph unicode="&#x168;" horiz-adv-x="1441" d="M247.5 327.5q-14.5 106.5 2.5 225.5l127 897h172l-123 -872q-12 -88 -6 -170t41 -145.5t101.5 -101.5t174.5 -38q109 0 185.5 38t129 101.5t82 145t42.5 170.5l122 872h172l-127 -897q-16 -119 -60 -225.5t-121 -187.5t-187.5 -129t-259.5 -48q-150 0 -247 48t-151.5 129 t-69 187.5zM602 1577q12 39 32.5 78t49.5 68.5t66.5 48t84.5 18.5t87 -15.5t79 -31.5q29 -12 51.5 -23.5t55.5 -11.5q41 0 67.5 26.5t42.5 63.5h99q-12 -39 -30.5 -77t-46.5 -68.5t-63.5 -49t-81.5 -18.5q-43 0 -82.5 13.5t-76.5 29.5q-29 12 -61.5 25.5t-67.5 13.5 q-39 0 -64.5 -27.5t-42.5 -62.5h-98z" />
<glyph unicode="&#x169;" d="M201.5 208q-11.5 73 1.5 159l82 591h159l-79 -575q-16 -121 26.5 -190.5t155.5 -69.5q156 0 240.5 102.5t107.5 266.5l66 466h159l-102 -731q-10 -66 -13.5 -123t-9.5 -104h-151l8 78t8 80h-4q-20 -35 -55 -68t-79 -58.5t-97.5 -41t-112.5 -15.5q-94 0 -158.5 29 t-102.5 80t-49.5 124zM398 1180q12 39 33.5 77.5t51 68.5t67.5 48.5t83 18.5q47 0 86 -15.5t80 -31.5q29 -12 50.5 -23.5t53.5 -11.5q41 0 69 26.5t44 63.5h98q-12 -39 -31.5 -77t-46 -68.5t-62.5 -49t-81 -18.5q-43 0 -83 13t-77 30q-29 12 -61.5 25.5t-67.5 13.5 q-39 0 -65.5 -28t-42.5 -62h-98z" />
<glyph unicode="&#x16a;" horiz-adv-x="1441" d="M247.5 327.5q-14.5 106.5 2.5 225.5l127 897h172l-123 -872q-12 -88 -6 -170t41 -145.5t101.5 -101.5t174.5 -38q109 0 185.5 38t129 101.5t82 145t42.5 170.5l122 872h172l-127 -897q-16 -119 -60 -225.5t-121 -187.5t-187.5 -129t-259.5 -48q-150 0 -247 48t-151.5 129 t-69 187.5zM667 1626l19 123h565l-18 -123h-566z" />
<glyph unicode="&#x16b;" d="M201.5 208q-11.5 73 1.5 159l82 591h159l-79 -575q-16 -121 26.5 -190.5t155.5 -69.5q156 0 240.5 102.5t107.5 266.5l66 466h159l-102 -731q-10 -66 -13.5 -123t-9.5 -104h-151l8 78t8 80h-4q-20 -35 -55 -68t-79 -58.5t-97.5 -41t-112.5 -15.5q-94 0 -158.5 29 t-102.5 80t-49.5 124zM465 1229l17 123h565l-17 -123h-565z" />
<glyph unicode="&#x16c;" horiz-adv-x="1441" d="M247.5 327.5q-14.5 106.5 2.5 225.5l127 897h172l-123 -872q-12 -88 -6 -170t41 -145.5t101.5 -101.5t174.5 -38q109 0 185.5 38t129 101.5t82 145t42.5 170.5l122 872h172l-127 -897q-16 -119 -60 -225.5t-121 -187.5t-187.5 -129t-259.5 -48q-150 0 -247 48t-151.5 129 t-69 187.5zM665 1835h101q6 -80 58 -120t130 -40q92 0 148.5 34t91.5 126h98q-33 -135 -127 -202.5t-225 -67.5q-129 0 -207 67.5t-68 202.5z" />
<glyph unicode="&#x16d;" d="M201.5 208q-11.5 73 1.5 159l82 591h159l-79 -575q-16 -121 26.5 -190.5t155.5 -69.5q156 0 240.5 102.5t107.5 266.5l66 466h159l-102 -731q-10 -66 -13.5 -123t-9.5 -104h-151l8 78t8 80h-4q-20 -35 -55 -68t-79 -58.5t-97.5 -41t-112.5 -15.5q-94 0 -158.5 29 t-102.5 80t-49.5 124zM463 1438h100q4 -80 57.5 -120t131.5 -40q90 0 147.5 35t92.5 125h98q-33 -135 -127 -203t-225 -68q-129 0 -207 68t-68 203z" />
<glyph unicode="&#x16e;" horiz-adv-x="1441" d="M247.5 327.5q-14.5 106.5 2.5 225.5l127 897h172l-123 -872q-12 -88 -6 -170t41 -145.5t101.5 -101.5t174.5 -38q109 0 185.5 38t129 101.5t82 145t42.5 170.5l122 872h172l-127 -897q-16 -119 -60 -225.5t-121 -187.5t-187.5 -129t-259.5 -48q-150 0 -247 48t-151.5 129 t-69 187.5zM758 1698q6 41 26.5 77.5t51 64.5t70.5 44.5t83 16.5q92 0 138 -60.5t36 -142.5q-6 -43 -26.5 -80t-51 -64.5t-70.5 -43t-83 -15.5q-88 0 -137 58.5t-37 144.5zM844 1698q-8 -51 23.5 -84t76.5 -33t85 33t48 84q8 49 -23.5 83t-76.5 34t-85 -34t-48 -83z" />
<glyph unicode="&#x16f;" d="M201.5 208q-11.5 73 1.5 159l82 591h159l-79 -575q-16 -121 26.5 -190.5t155.5 -69.5q156 0 240.5 102.5t107.5 266.5l66 466h159l-102 -731q-10 -66 -13.5 -123t-9.5 -104h-151l8 78t8 80h-4q-20 -35 -55 -68t-79 -58.5t-97.5 -41t-112.5 -15.5q-94 0 -158.5 29 t-102.5 80t-49.5 124zM557 1321q6 41 26.5 78t51.5 64.5t71 44t83 16.5q90 0 138 -60.5t36 -142.5q-6 -41 -26.5 -78t-51.5 -64.5t-71 -44t-83 -16.5q-88 0 -136 59.5t-38 143.5zM643 1321q-6 -51 25 -84t76 -33t86 33t47 84q8 49 -23.5 83t-77.5 34q-45 0 -85 -34t-48 -83z " />
<glyph unicode="&#x170;" horiz-adv-x="1441" d="M247.5 327.5q-14.5 106.5 2.5 225.5l127 897h172l-123 -872q-12 -88 -6 -170t41 -145.5t101.5 -101.5t174.5 -38q109 0 185.5 38t129 101.5t82 145t42.5 170.5l122 872h172l-127 -897q-16 -119 -60 -225.5t-121 -187.5t-187.5 -129t-259.5 -48q-150 0 -247 48t-151.5 129 t-69 187.5zM688 1552l246 295h196l-305 -295h-137zM1008 1552l264 295h209l-334 -295h-139z" />
<glyph unicode="&#x171;" d="M201.5 208q-11.5 73 1.5 159l82 591h159l-79 -575q-16 -121 26.5 -190.5t155.5 -69.5q156 0 240.5 102.5t107.5 266.5l66 466h159l-102 -731q-10 -66 -13.5 -123t-9.5 -104h-151l8 78t8 80h-4q-20 -35 -55 -68t-79 -58.5t-97.5 -41t-112.5 -15.5q-94 0 -158.5 29 t-102.5 80t-49.5 124zM490 1155l245 295h197l-305 -295h-137zM809 1155l264 295h209l-334 -295h-139z" />
<glyph unicode="&#x172;" horiz-adv-x="1441" d="M246.5 331.5q-13.5 104.5 3.5 221.5l127 897h172l-123 -872q-12 -88 -5 -170t41 -145.5t100.5 -101.5t174.5 -38q106 0 184 38t130.5 101.5t82 145t42.5 170.5l122 872h172l-127 -897q-16 -111 -55 -210t-105.5 -178t-161.5 -131t-222 -67q-47 -37 -89 -90t-53 -113 q-4 -41 16.5 -68.5t69.5 -25.5q27 0 56.5 11.5t52.5 29.5l31 -84q-43 -37 -95.5 -58.5t-105.5 -21.5q-76 0 -126 48.5t-40 125.5q10 72 60.5 134.5t109.5 107.5q-141 4 -233.5 53.5t-142.5 130t-63.5 185z" />
<glyph unicode="&#x173;" d="M201.5 208q-11.5 73 1.5 159l82 591h159l-79 -575q-16 -123 26.5 -191.5t155.5 -68.5q156 0 240.5 102.5t107.5 266.5l66 466h159l-102 -731q-10 -66 -13.5 -123t-9.5 -104h-47q-27 -16 -57.5 -41t-58 -55.5t-48 -66.5t-26.5 -73q-4 -41 16.5 -68.5t69.5 -25.5 q27 0 56.5 11.5t51.5 29.5l31 -84q-43 -37 -95 -58.5t-106 -21.5q-76 0 -126 48.5t-40 125.5q6 43 29 84t55.5 78t70.5 67t73 50l8 78t8 80h-4q-20 -35 -55 -68t-79 -58.5t-97.5 -41t-112.5 -15.5q-94 0 -158.5 29t-102.5 80t-49.5 124z" />
<glyph unicode="&#x174;" horiz-adv-x="1972" d="M215 1450h191l159 -1204h4l527 1204h192l185 -1204h4l505 1204h181l-629 -1450h-186l-187 1229h-4l-532 -1229h-189zM882 1552l269 295h186l188 -295h-166l-133 209l-188 -209h-156z" />
<glyph unicode="&#x175;" horiz-adv-x="1517" d="M162 958h176l117 -737h4l350 737h168l149 -737h4l320 737h172l-442 -958h-158l-170 737h-4l-344 -737h-164zM596 1155l268 295h187l188 -295h-166l-133 209l-188 -209h-156z" />
<glyph unicode="&#x176;" horiz-adv-x="1216" d="M184 1450h219l316 -655l512 655h207l-658 -825l-86 -625h-172l86 625zM503 1552l269 295h186l188 -295h-166l-133 209l-188 -209h-156z" />
<glyph unicode="&#x177;" horiz-adv-x="987" d="M-25 -467l39 139q41 -16 111 -16q78 0 121 43t80 115l90 180l-262 964h186l192 -751h5l389 751h174l-629 -1177q-33 -61 -65.5 -111.5t-72.5 -86.5t-93.5 -55.5t-124.5 -19.5q-35 0 -73 4.5t-67 20.5zM350 1155l268 295h187l188 -295h-166l-133 209l-188 -209h-156z" />
<glyph unicode="&#x178;" horiz-adv-x="1216" d="M184 1450h219l316 -655l512 655h207l-658 -825l-86 -625h-172l86 625zM530 1688q6 45 43 77.5t84 32.5t73.5 -32.5t20.5 -77.5q-6 -47 -42 -79t-83 -32t-74.5 31.5t-21.5 79.5zM935 1688q6 45 43 77.5t84 32.5t74 -32.5t21 -77.5q-6 -47 -42 -79t-83 -32t-75 31.5 t-22 79.5z" />
<glyph unicode="&#x179;" horiz-adv-x="1175" d="M59 0l21 154l997 1136h-825l22 160h1035l-21 -147l-999 -1143h848l-21 -160h-1057zM695 1552l253 295h226l-334 -295h-145z" />
<glyph unicode="&#x17a;" horiz-adv-x="909" d="M61 0l17 125l661 698h-538l18 135h748l-17 -122l-661 -701h577l-18 -135h-787zM465 1155l254 295h225l-333 -295h-146z" />
<glyph unicode="&#x17b;" horiz-adv-x="1175" d="M59 0l21 154l997 1136h-825l22 160h1035l-21 -147l-999 -1143h848l-21 -160h-1057zM736 1688q6 45 43 77.5t84 32.5t73.5 -32.5t20.5 -77.5q-6 -47 -42 -79t-83 -32t-74.5 31.5t-21.5 79.5z" />
<glyph unicode="&#x17c;" horiz-adv-x="909" d="M61 0l17 125l661 698h-538l18 135h748l-17 -122l-661 -701h577l-18 -135h-787zM548 1290q6 45 43 78t84 33t74 -33t21 -78q-6 -47 -43 -78.5t-84 -31.5t-74 31.5t-21 78.5z" />
<glyph unicode="&#x17d;" horiz-adv-x="1175" d="M59 0l21 154l997 1136h-825l22 160h1035l-21 -147l-999 -1143h848l-21 -160h-1057zM526 1847h166l131 -209l187 209h155l-266 -295h-186z" />
<glyph unicode="&#x17e;" horiz-adv-x="909" d="M61 0l17 125l661 698h-538l18 135h748l-17 -122l-661 -701h577l-18 -135h-787zM338 1483h166l131 -209l186 209h156l-266 -295h-187z" />
<glyph unicode="&#x192;" d="M-53 -246l88 129q43 -31 102 -30q49 0 83 20.5t56.5 52t37 70.5t26.5 76l217 663h-221l18 135h248l76 226q25 74 55.5 142.5t74.5 120.5t107.5 84t151.5 32q106 0 197 -58l-95 -127q-25 16 -52 26.5t-58 10.5q-49 0 -84 -21.5t-59.5 -55t-41 -74.5t-28.5 -80l-76 -226 h234l-19 -135h-258l-231 -704q-25 -72 -56.5 -131.5t-77 -102.5t-106.5 -67.5t-143 -24.5q-47 0 -89 12.5t-77 36.5z" />
<glyph unicode="&#x2c6;" horiz-adv-x="491" d="M86 1155l268 295h187l188 -295h-166l-133 209l-188 -209h-156z" />
<glyph unicode="&#x2c7;" horiz-adv-x="491" d="M129 1450h166l131 -209l186 209h156l-266 -295h-187z" />
<glyph unicode="&#x2d8;" horiz-adv-x="491" d="M133 1438h100q4 -80 57.5 -120t131.5 -40q90 0 147.5 35t92.5 125h98q-33 -135 -127 -203t-225 -68q-129 0 -207 68t-68 203z" />
<glyph unicode="&#x2d9;" horiz-adv-x="491" d="M315 1290q6 45 43 78t84 33t74 -33t21 -78q-6 -47 -43 -78.5t-84 -31.5t-74 31.5t-21 78.5z" />
<glyph unicode="&#x2da;" horiz-adv-x="491" d="M227 1321q6 41 26.5 78t51.5 64.5t71 44t83 16.5q90 0 138 -60.5t36 -142.5q-6 -41 -26.5 -78t-51.5 -64.5t-71 -44t-83 -16.5q-88 0 -136 59.5t-38 143.5zM313 1321q-6 -51 25 -84t76 -33t86 33t47 84q8 49 -23.5 83t-77.5 34q-45 0 -85 -34t-48 -83z" />
<glyph unicode="&#x2db;" horiz-adv-x="491" d="M-2 -279q6 43 28.5 84t54.5 78t69.5 67t72.5 50h105q-25 -16 -56.5 -41t-59.5 -55.5t-48.5 -66.5t-26.5 -73q-4 -41 16.5 -68.5t69.5 -25.5q27 0 56.5 11.5t52.5 29.5l30 -84q-43 -37 -95 -58.5t-105 -21.5q-76 0 -125 48.5t-39 125.5z" />
<glyph unicode="&#x2dc;" horiz-adv-x="491" d="M68 1180q12 39 33.5 77.5t51 68.5t67.5 48.5t83 18.5q47 0 86 -15.5t80 -31.5q29 -12 50.5 -23.5t53.5 -11.5q41 0 69 26.5t44 63.5h98q-12 -39 -31.5 -77t-46 -68.5t-62.5 -49t-81 -18.5q-43 0 -83 13t-77 30q-29 12 -61.5 25.5t-67.5 13.5q-39 0 -65.5 -28t-42.5 -62 h-98z" />
<glyph unicode="&#x2dd;" horiz-adv-x="491" d="M117 1155l245 295h197l-305 -295h-137zM436 1155l264 295h209l-334 -295h-139z" />
<glyph unicode="&#x3a9;" horiz-adv-x="1523" d="M96 0l17 119h403l23 168q-92 27 -160 82t-109 129.5t-55 165t0 188.5q18 137 87 252t170 197.5t227 129t259 46.5q131 0 244 -46.5t189.5 -129t112.5 -197.5t18 -250q-14 -98 -53 -189.5t-100.5 -167t-145.5 -130t-185 -80.5l-22 -168h403l-16 -119h-514l51 371 q94 16 171 58t133 105.5t92 143.5t48 172q14 111 -12 203t-86.5 158.5t-149.5 103.5t-198 37t-208 -38t-178 -104.5t-132 -159t-68 -200.5q-12 -90 0.5 -171t51 -144.5t103 -106.5t155.5 -57l-52 -371h-514z" />
<glyph unicode="&#x3c0;" horiz-adv-x="1153" d="M182 838l17 120h1011l-16 -120h-156l-88 -625q-6 -45 1 -78t63 -33q41 0 88 21l-15 -100q-37 -16 -67.5 -25.5t-67.5 -9.5q-59 0 -90 19.5t-42 53t-8 76.5t9 90l86 611h-450l-117 -838h-131l117 838h-144z" />
<glyph unicode="&#x2000;" horiz-adv-x="982" />
<glyph unicode="&#x2001;" horiz-adv-x="1964" />
<glyph unicode="&#x2002;" horiz-adv-x="982" />
<glyph unicode="&#x2003;" horiz-adv-x="1964" />
<glyph unicode="&#x2004;" horiz-adv-x="654" />
<glyph unicode="&#x2005;" horiz-adv-x="491" />
<glyph unicode="&#x2006;" horiz-adv-x="327" />
<glyph unicode="&#x2007;" horiz-adv-x="327" />
<glyph unicode="&#x2008;" horiz-adv-x="245" />
<glyph unicode="&#x2009;" horiz-adv-x="392" />
<glyph unicode="&#x200a;" horiz-adv-x="109" />
<glyph unicode="&#x2010;" horiz-adv-x="681" d="M147 418l21 147h502l-21 -147h-502z" />
<glyph unicode="&#x2011;" horiz-adv-x="681" d="M147 418l21 147h502l-21 -147h-502z" />
<glyph unicode="&#x2012;" horiz-adv-x="681" d="M147 418l21 147h502l-21 -147h-502z" />
<glyph unicode="&#x2013;" horiz-adv-x="1024" d="M57 418l21 147h1024l-21 -147h-1024z" />
<glyph unicode="&#x2014;" horiz-adv-x="2048" d="M57 418l21 147h2048l-21 -147h-2048z" />
<glyph unicode="&#x2018;" horiz-adv-x="569" d="M256 958l238 492h155l-207 -492h-186z" />
<glyph unicode="&#x2019;" horiz-adv-x="569" d="M256 958l207 492h186l-237 -492h-156z" />
<glyph unicode="&#x201a;" horiz-adv-x="569" d="M82 -283l207 492h186l-237 -492h-156z" />
<glyph unicode="&#x201c;" horiz-adv-x="1062" d="M311 958l238 492h156l-207 -492h-187zM694 958l238 492h155l-206 -492h-187z" />
<glyph unicode="&#x201d;" horiz-adv-x="1062" d="M311 958l207 492h187l-238 -492h-156zM694 958l207 492h186l-237 -492h-156z" />
<glyph unicode="&#x201e;" horiz-adv-x="1062" d="M137 -283l207 492h186l-237 -492h-156zM520 -283l207 492h186l-237 -492h-156z" />
<glyph unicode="&#x2020;" d="M197 899l18 135h418l59 416h160l-59 -416h417l-18 -135h-418l-162 -1157h-159l161 1157h-417z" />
<glyph unicode="&#x2021;" d="M102 135l19 135h405l92 652h-405l18 135h406l55 393h160l-55 -393h405l-18 -135h-406l-92 -652h406l-19 -135h-405l-56 -393h-159l55 393h-406z" />
<glyph unicode="&#x2022;" horiz-adv-x="1024" d="M250 725q10 76 48 141.5t94.5 114.5t126 77.5t145.5 28.5t137 -28.5t104 -77.5t61.5 -114.5t8.5 -141.5t-48 -141.5t-94.5 -114.5t-126 -78t-145.5 -29t-137.5 29t-104.5 78t-61 114.5t-8 141.5z" />
<glyph unicode="&#x2026;" horiz-adv-x="2048" d="M233 111q8 51 49.5 86.5t92.5 35.5t81.5 -35.5t22.5 -86.5t-50 -87t-89 -36t-81 35.5t-26 87.5zM915 111q8 51 49.5 86.5t92.5 35.5t81.5 -35.5t22.5 -86.5t-50 -87t-89 -36t-81 35.5t-26 87.5zM1597 111q8 51 49.5 86.5t92.5 35.5t81.5 -35.5t22.5 -86.5t-50 -87 t-89 -36t-81 35.5t-26 87.5z" />
<glyph unicode="&#x202f;" horiz-adv-x="392" />
<glyph unicode="&#x2030;" horiz-adv-x="2084" d="M166 0l1122 1516l103 -66l-1123 -1516zM199 1153q8 66 42.5 124t85 102t112 70t126.5 26q66 0 120 -26t92 -70t55.5 -102t9.5 -124q-10 -68 -44 -126t-83 -101t-110.5 -69t-129.5 -26t-123 26t-92 69t-54 101t-7 126zM334 1153q-6 -37 5 -70.5t32.5 -59.5t53.5 -41 t69 -15t72.5 15t65.5 41t49 59.5t26 70.5q4 37 -6.5 70.5t-33 59.5t-54 41t-68.5 15t-73 -15t-65.5 -41t-49 -59.5t-23.5 -70.5zM709 297q8 66 42.5 124t85 102t112 69.5t126.5 25.5q66 0 120 -25.5t92 -69.5t55.5 -102.5t9.5 -123.5q-10 -68 -43 -126t-83 -101t-111.5 -69 t-129.5 -26t-122 26t-92 69t-55 101t-7 126zM844 297q-6 -37 5 -70.5t32.5 -59.5t53.5 -41t69 -15t72.5 15t65 41t49 59.5t26.5 70.5q6 37 -5.5 70.5t-33 59.5t-53 41t-68.5 15t-73 -15t-65.5 -41t-49 -59.5t-25.5 -70.5zM1446 297q8 66 43 124t85 102t111.5 69.5 t126.5 25.5q66 0 120.5 -25.5t92 -69.5t55 -102.5t9.5 -123.5q-10 -68 -43 -126t-83 -101t-111.5 -69t-129.5 -26t-122 26t-92 69t-55 101t-7 126zM1581 295q-6 -37 5 -71t32.5 -59.5t53.5 -40.5t69 -15t72.5 15t65.5 40.5t49.5 59.5t25.5 71q4 37 -6.5 70.5t-32 59.5 t-53 41t-68.5 15t-72.5 -15t-65.5 -41t-50.5 -59.5t-24.5 -70.5z" />
<glyph unicode="&#x2039;" horiz-adv-x="643" d="M186 492l355 438l102 -74l-291 -364l189 -365l-123 -74z" />
<glyph unicode="&#x203a;" horiz-adv-x="643" d="M135 127l291 365l-188 364l122 74l232 -438l-354 -439z" />
<glyph unicode="&#x2044;" horiz-adv-x="342" d="M-340 0l1122 1516l103 -66l-1121 -1516z" />
<glyph unicode="&#x205f;" horiz-adv-x="491" />
<glyph unicode="&#x20ac;" horiz-adv-x="1187" d="M92 485l58 113h100q0 20 2 53t6 62q6 35 12 72.5t17 62.5h-142l56 113h116q47 125 118 223t160 165.5t192.5 102.5t213.5 35q86 0 163 -17.5t132 -48.5l-69 -125q-96 61 -250 62q-180 0 -310 -105.5t-200 -291.5h614l-51 -113h-596q-10 -31 -17 -64.5t-11 -68.5 q-4 -25 -7.5 -58.5t-1.5 -58.5h525l-54 -113h-473q4 -90 35 -161.5t84 -124t126 -80t159 -27.5q80 0 151.5 19.5t136.5 62.5l46 -115q-156 -96 -371 -96q-125 0 -219 44t-159 117t-98.5 167t-37.5 194h-156z" />
<glyph unicode="&#x2122;" horiz-adv-x="2027" d="M315 1315l19 135h667l-18 -135h-266l-101 -709h-135l101 709h-267zM1053 606l118 844h215l162 -641l342 641h209l-119 -844h-135l101 709h-4l-379 -709h-93l-178 709h-4l-100 -709h-135z" />
<glyph unicode="&#x2202;" horiz-adv-x="1015" d="M123 434q12 88 50 168t97.5 139.5t138 94t173.5 34.5q100 0 182 -47t133 -125q4 27 9 53.5t9 53.5q12 86 8.5 183t-34.5 181t-93.5 139.5t-168.5 55.5q-72 0 -127.5 -26.5t-114.5 -67.5l-61 88q74 57 149.5 88t163.5 31q147 0 234 -70t129 -177.5t47 -237.5t-11 -249 q-10 -76 -29.5 -161.5t-49 -170.5t-73.5 -164t-103.5 -139.5t-137.5 -96.5t-176 -36q-96 0 -167 38t-114 101.5t-59 146.5t-4 173zM252 430q-8 -61 1 -122.5t36.5 -112t76 -81t117.5 -30.5q88 0 155 49t114 123t75.5 157.5t42.5 155.5q-47 74 -120.5 130.5t-171.5 56.5 q-70 0 -126.5 -27t-97.5 -72t-67.5 -104t-34.5 -123z" />
<glyph unicode="&#x2206;" horiz-adv-x="1372" d="M31 0l780 1458h152l383 -1458h-1315zM233 127h932l-301 1194z" />
<glyph unicode="&#x220f;" horiz-adv-x="1456" d="M145 -438v2048h1168v-2048h-135v1921h-897v-1921h-136z" />
<glyph unicode="&#x2211;" horiz-adv-x="1236" d="M51 -326l674 918l-645 903v115h1079v-127h-905l633 -891l-672 -905h969v-125h-1133v112z" />
<glyph unicode="&#x221a;" horiz-adv-x="1009" d="M-16 315l204 99l324 -680l387 1876h129l-430 -2048h-135l-336 696l-94 -45z" />
<glyph unicode="&#x221e;" horiz-adv-x="1597" d="M104 592q0 70 25 129t68 103t101 69t128 25q57 0 108.5 -20.5t98.5 -54.5t90 -78t84 -93q39 45 80 89t87 78.5t99 56.5t119 22q68 0 122 -24t94 -65t61.5 -100t21.5 -129v-2q0 -74 -26.5 -134.5t-69.5 -103.5t-99.5 -65.5t-117.5 -22.5q-98 0 -183.5 60.5t-193.5 183.5 q-41 -47 -83 -91t-89 -78t-100.5 -54.5t-116.5 -20.5q-61 0 -117.5 25t-98.5 68t-67 101t-25 126zM207 590q2 -92 61.5 -156.5t157.5 -64.5h2q49 0 93 21.5t83 54t74 70.5t67 73q-35 43 -69.5 85t-74.5 75.5t-86 54t-101 20.5q-49 0 -88 -18.5t-64.5 -51t-40 -74.5 t-14.5 -89zM858 598q102 -115 173 -172t155 -57q49 0 86 19.5t63.5 51t40 71.5t13.5 81q0 111 -57.5 171t-149.5 60h-2q-53 0 -99.5 -24.5t-86.5 -60.5t-74.5 -74.5t-61.5 -65.5z" />
<glyph unicode="&#x222b;" horiz-adv-x="1112" d="M207 -340q0 29 19.5 47.5t47.5 18.5q27 0 41.5 -12.5t23.5 -27t17.5 -26.5t20.5 -12q20 0 32.5 26.5t19.5 66.5t10 86t3 83v63l2 43v1014q0 47 -2 108.5t1 126t14.5 126t39 110.5t73.5 79t118 30q23 0 48.5 -5.5t47 -17.5t34.5 -31.5t13 -48.5q0 -35 -21.5 -52t-53.5 -17 q-29 0 -43.5 12t-23.5 27.5t-17 29t-23 13.5q-25 0 -39 -27t-21 -67t-10.5 -87t-2 -91t2.5 -76.5t1 -43.5v-1032q0 -66 -2.5 -157t-25 -174.5t-73.5 -142t-149 -58.5q-43 0 -83 22.5t-40 73.5z" />
<glyph unicode="&#x2248;" horiz-adv-x="1363" d="M170 178q14 53 38.5 104.5t59.5 92.5t82 65.5t111 24.5q68 0 140.5 -23.5t144 -51.5t140 -51.5t128.5 -23.5q72 0 116 47.5t66 112.5h90q-14 -53 -38.5 -104.5t-60.5 -91t-84 -63t-110 -23.5q-68 0 -140.5 23.5t-144 51t-139 51t-123.5 23.5q-70 0 -117.5 -50t-66.5 -114 h-92zM219 528q12 53 37 104.5t61.5 91.5t85 64.5t109.5 24.5q68 0 139.5 -23.5t143 -51t140.5 -51t128 -23.5q74 0 118 47t66 112h88q-14 -53 -38.5 -104t-60.5 -90t-83 -62.5t-109 -23.5q-68 0 -140.5 23.5t-145 51t-140 51t-122.5 23.5q-70 0 -117 -50t-68 -114h-92z" />
<glyph unicode="&#x2260;" horiz-adv-x="1363" d="M201 246l18 123h371l176 266h-510l18 123h578l199 301l98 -58l-162 -243h316l-19 -123h-381l-178 -266h522l-18 -123h-588l-197 -295l-98 55l160 240h-305z" />
<glyph unicode="&#x2264;" horiz-adv-x="1363" d="M168 12l18 121h1028l-18 -121h-1028zM252 606l18 133l1084 387l-19 -133l-903 -321l813 -318l-18 -133z" />
<glyph unicode="&#x2265;" horiz-adv-x="1363" d="M168 12l18 121h1028l-18 -121h-1028zM199 221l18 133l905 318l-815 321l19 133l972 -387l-18 -133z" />
<glyph unicode="&#x25ca;" horiz-adv-x="1214" d="M195 729l346 801h129l350 -801l-350 -801h-129zM328 729l278 -666l281 666l-281 666z" />
<glyph unicode="&#x25fc;" horiz-adv-x="962" d="M0 0v963h963v-963h-963z" />
<glyph unicode="&#xf8ff;" horiz-adv-x="1048" d="M0 0v1470h1049v-1470h-1049zM102 102h844v1264h-844v-1264zM254 967q14 147 90 213.5t186 66.5q111 0 182.5 -72.5t71.5 -195.5q0 -66 -25.5 -120t-103.5 -126q-76 -68 -88 -106q-12 -41 -12 -148h-94l-4 35q0 115 26 166q14 27 37 56.5t58 64.5q66 61 84 97t18 73 q0 74 -46 124t-110 50q-63 0 -109 -45t-59 -150zM455 240v137h114v-137h-114z" />
<glyph unicode="&#xfb01;" horiz-adv-x="1099" d="M139 823l19 135h209l30 216q12 88 39 160.5t74 125.5t116.5 83t166.5 30q31 0 64.5 -6t55.5 -19l-43 -143q-25 10 -51 15t-55 5q-61 0 -99 -21.5t-59.5 -59t-33 -91t-19.5 -114.5l-27 -181h234l-19 -135h-233l-115 -823h-160l115 823h-209zM774 0l133 958h160l-133 -958 h-160zM924 1333q6 47 45 82t88 35t77.5 -35t22.5 -82q-8 -51 -45 -83.5t-88 -32.5t-79.5 32.5t-20.5 83.5z" />
<glyph unicode="&#xfb02;" horiz-adv-x="1099" d="M139 823l19 135h209l30 216q12 88 39 160.5t74 125.5t116.5 83t166.5 30q31 0 64.5 -6t55.5 -19l-43 -143q-25 10 -51 15t-55 5q-61 0 -99 -21.5t-59.5 -59t-33 -91t-19.5 -114.5l-27 -181h234l-19 -135h-233l-115 -823h-160l115 823h-209zM774 0l217 1548h160 l-217 -1548h-160z" />
</font>
</defs>
</svg>
