<?xml version="1.0" standalone="no"?>
<!DOCTYPE svg PUBLIC "-//W3C//DTD SVG 1.1//EN" "http://www.w3.org/Graphics/SVG/1.1/DTD/svg11.dtd" >
<svg xmlns="http://www.w3.org/2000/svg">
<metadata></metadata>
<defs>
<font id="dhlight" horiz-adv-x="1138" >
<font-face units-per-em="2048" ascent="1638" descent="-410" />
<missing-glyph horiz-adv-x="532" />
<glyph horiz-adv-x="0" />
<glyph unicode="&#xd;" horiz-adv-x="0" />
<glyph unicode=" "  horiz-adv-x="532" />
<glyph unicode="&#x09;" horiz-adv-x="532" />
<glyph unicode="&#xa0;" horiz-adv-x="532" />
<glyph unicode="!" horiz-adv-x="757" d="M281 86q0 41 28.5 69.5t69.5 28.5t69.5 -28.5t28.5 -69.5t-28.5 -69.5t-69.5 -28.5t-69.5 28.5t-28.5 69.5zM317 381v1069h123v-1069h-123z" />
<glyph unicode="&#x22;" horiz-adv-x="1064" d="M330 983v467h123v-467h-123zM612 983v467h123v-467h-123z" />
<glyph unicode="#" horiz-adv-x="1064" d="M27 469v98h235l45 320h-221v98h236l61 465h106l-63 -465h285l63 465h107l-64 -465h221v-98h-235l-43 -320h221v-98h-236l-61 -469h-106l61 469h-285l-61 -469h-107l62 469h-221zM371 567h282l43 320h-282z" />
<glyph unicode="$" horiz-adv-x="1064" d="M68 190l116 80q49 -84 127 -132t166 -52v594l-145 53q-76 27 -122 72t-71.5 94t-34 96t-8.5 82q0 86 34 157t89 122t123 81.5t135 37.5v137h98v-137q51 0 102.5 -7.5t99.5 -28t92 -56t85 -91.5l-112 -82q-47 74 -120 114t-147 40v-578l144 -49q45 -16 92 -44.5t85 -73 t61.5 -105.5t23.5 -143q0 -88 -34 -159t-90 -122t-130 -80.5t-152 -34.5v-137h-98v137q-55 0 -112.5 13.5t-111.5 41t-101.5 67.5t-83.5 93zM231 1085q0 -109 57.5 -164t153.5 -90l35 -12v545q-49 -8 -93 -30.5t-78 -58.5t-54.5 -84t-20.5 -106zM575 86q57 2 106.5 25.5 t86.5 62.5t57.5 91t20.5 114q0 31 -8.5 63.5t-27.5 63.5t-55 57.5t-91 46.5l-89 33v-557z" />
<glyph unicode="%" horiz-adv-x="1669" d="M78 1122q0 74 27.5 137.5t75.5 111.5t111.5 76t137.5 28t137.5 -28t111.5 -76t75.5 -111.5t27.5 -137.5t-27.5 -137t-75.5 -111.5t-111.5 -76t-137.5 -27.5t-137.5 27.5t-111.5 76t-75.5 111.5t-27.5 137zM188 1122q0 -51 19.5 -95t52.5 -76.5t77 -51t93 -18.5t93 18.5 t77 51t52.5 76.5t19.5 95t-19.5 95.5t-52.5 77t-77 51t-93 18.5t-93 -18.5t-77 -51t-52.5 -77t-19.5 -95.5zM324 -12l933 1532l95 -58l-936 -1532zM887 328q0 74 27.5 137t75.5 111.5t111.5 76t137.5 27.5t137.5 -27.5t111.5 -76t75.5 -112t27.5 -136.5q0 -74 -27.5 -137.5 t-75.5 -111.5t-111.5 -76t-137.5 -28t-137.5 28t-111.5 76t-75.5 111.5t-27.5 137.5zM997 328q0 -51 19.5 -95.5t52.5 -77t77 -51t93 -18.5t93 18.5t77 51t52.5 76.5t19.5 96q0 51 -19.5 95t-52.5 76.5t-77 51t-93 18.5t-93 -18.5t-77 -51t-52.5 -76.5t-19.5 -95z" />
<glyph unicode="&#x26;" horiz-adv-x="1441" d="M121 385q0 84 28.5 147.5t74.5 112.5t105.5 89t123.5 79q-31 37 -63 77t-56.5 83t-41 89t-16.5 95q0 78 30 139.5t80 103.5t116.5 64.5t138.5 22.5q63 0 122.5 -22.5t105.5 -62.5t73 -96.5t27 -125.5q0 -78 -28 -135.5t-74 -102.5t-103 -80t-119 -67l352 -373l209 377 h140l-263 -463l330 -346h-182l-217 233q-88 -119 -193.5 -189.5t-257.5 -70.5q-92 0 -173 30t-140.5 85t-94 133t-34.5 174zM256 389q0 -70 25.5 -125t69.5 -95t104.5 -61.5t128.5 -21.5q57 0 107 18.5t93 49t80 70.5t68 85l-402 418q-49 -29 -97 -61.5t-88 -72.5t-64.5 -90 t-24.5 -114zM412 1159q0 -37 15 -76t38.5 -75.5t51.5 -69.5t50 -59q43 23 90.5 49t86 61t64.5 79t26 101q0 86 -57.5 140.5t-145.5 54.5q-92 0 -155.5 -56.5t-63.5 -148.5z" />
<glyph unicode="'" horiz-adv-x="532" d="M205 983v467h123v-467h-123z" />
<glyph unicode="(" horiz-adv-x="532" d="M119 590q0 244 74.5 481.5t209.5 427.5l105 -65q-68 -84 -117 -187.5t-83 -214t-50 -223.5t-16 -219q0 -240 69.5 -444.5t196.5 -403.5l-96 -61q-72 98 -126.5 209.5t-91 228.5t-56 235.5t-19.5 235.5z" />
<glyph unicode=")" horiz-adv-x="532" d="M25 -254q68 84 116.5 186.5t82.5 213t50.5 224t16.5 220.5q0 119 -18.5 229.5t-52.5 215t-83 203.5t-112 200l96 61q72 -98 126 -209.5t91 -228.5t56.5 -235.5t19.5 -235.5q0 -244 -75 -481.5t-210 -427.5z" />
<glyph unicode="*" horiz-adv-x="909" d="M78 1145l28 92l302 -98v311h98v-311l295 98l30 -98l-294 -97l186 -249l-76 -60l-192 256l-183 -256l-82 60l187 249z" />
<glyph unicode="+" horiz-adv-x="1363" d="M160 571v99h473v473h98v-473h473v-99h-473v-473h-98v473h-473z" />
<glyph unicode="," horiz-adv-x="532" d="M102 -283l136 467h143l-158 -467h-121z" />
<glyph unicode="-" horiz-adv-x="681" d="M88 430v111h506v-111h-506z" />
<glyph unicode="." horiz-adv-x="532" d="M168 86q0 41 28.5 69.5t69.5 28.5t70 -28.5t29 -69.5t-29 -69.5t-70 -28.5t-69.5 28.5t-28.5 69.5z" />
<glyph unicode="/" horiz-adv-x="757" d="M18 -37l623 1561l107 -37l-621 -1561z" />
<glyph unicode="0" horiz-adv-x="1064" d="M53 725q0 78 7.5 165t26.5 170t53 157.5t87.5 132t128 91.5t176.5 34t177 -34t128.5 -91.5t87 -132t53 -157.5t27 -170t7.5 -165q0 -80 -7.5 -166t-27 -169t-53 -157.5t-87 -132t-128 -91.5t-177.5 -34q-102 0 -176.5 34t-128 91.5t-87.5 132t-53 157.5t-26.5 169 t-7.5 166zM188 725q0 -57 4.5 -126t16.5 -139.5t35.5 -138t61.5 -119.5t93.5 -84t132.5 -32q76 0 132.5 32t94.5 84t61.5 119.5t35.5 138t16.5 139.5t4.5 126q0 55 -4.5 125t-16.5 140.5t-35.5 138t-61.5 119.5t-94.5 84t-132.5 32t-132 -32t-94 -84t-61.5 -119.5 t-35.5 -138t-16.5 -140.5t-4.5 -125z" />
<glyph unicode="1" horiz-adv-x="1064" d="M195 1157l358 293h104v-1450h-122v1278h-3l-262 -215z" />
<glyph unicode="2" horiz-adv-x="1064" d="M84 0v143l545 576q37 37 73.5 79t66.5 88t48.5 97t18.5 111q0 127 -82 198.5t-207 71.5q-113 0 -190.5 -65.5t-100.5 -172.5l-143 15q35 168 153.5 251t286.5 83q84 0 159.5 -26t133 -73t91.5 -115.5t34 -156.5q0 -84 -25.5 -155.5t-67.5 -136t-96.5 -122t-109.5 -115.5 l-453 -464h762v-111h-897z" />
<glyph unicode="3" horiz-adv-x="1064" d="M84 260l133 43q41 -104 111.5 -160.5t193.5 -56.5q80 0 141.5 24.5t101.5 67.5t60.5 100.5t20.5 122.5q0 80 -34 137.5t-88 93.5t-123 52t-138 16h-53v123h61q57 0 115.5 15.5t104.5 48.5t75 85t29 126q0 117 -73 191.5t-196 74.5q-90 0 -161.5 -46t-112.5 -124l-117 66 q59 113 162.5 164t228.5 51q82 0 156 -24t129 -70t87 -115.5t32 -163.5q0 -119 -65.5 -210t-192.5 -126v-4q70 -12 126 -46t97 -83t63.5 -110.5t22.5 -131.5q0 -86 -27.5 -161.5t-84 -132t-140.5 -89.5t-197 -33q-164 0 -277.5 69t-170.5 216z" />
<glyph unicode="4" horiz-adv-x="1064" d="M47 356v146l580 948h170v-983h221v-111h-221v-356h-123v356h-627zM158 467h516v848h-4z" />
<glyph unicode="5" horiz-adv-x="1064" d="M84 221l127 64q18 -41 50 -77t73 -63.5t88 -43t96 -15.5t106.5 21.5t106.5 64.5t82 108.5t33 151.5q0 78 -27.5 146.5t-77 120t-116 81t-144.5 29.5t-151.5 -27.5t-134.5 -70.5l12 739h717v-111h-598l-7 -460q47 25 102.5 33t108.5 8q104 0 187.5 -38t142 -103.5 t90 -152.5t31.5 -186q0 -117 -42 -205t-109.5 -145t-149.5 -86t-162 -29q-160 0 -267.5 65.5t-166.5 180.5z" />
<glyph unicode="6" horiz-adv-x="1064" d="M57 426q0 57 12.5 108.5t33 97.5t43 87t44.5 78l394 653h155l-395 -639h4q37 31 99.5 46t115.5 15q96 0 178 -34.5t141.5 -95t92.5 -141.5t33 -175q0 -98 -36 -181t-99.5 -142.5t-150.5 -93.5t-190 -34q-102 0 -189 34t-150.5 93.5t-99.5 142.5t-36 181zM193 426 q0 -76 24.5 -138.5t69.5 -107.5t107.5 -69.5t137.5 -24.5q76 0 138.5 24.5t107.5 69.5t69.5 107.5t24.5 138.5q0 70 -26.5 132.5t-72.5 108.5t-108.5 72.5t-132.5 26.5q-72 0 -133 -26.5t-107 -72.5t-72.5 -108.5t-26.5 -132.5z" />
<glyph unicode="7" horiz-adv-x="1064" d="M84 1339v111h823v-111l-577 -1339h-137l587 1339h-696z" />
<glyph unicode="8" horiz-adv-x="1064" d="M84 403q0 66 18.5 126.5t54.5 110.5t88 86t122 50v2q-53 14 -96.5 47t-73 77t-46 94.5t-16.5 101.5q0 84 31 153.5t84 118.5t126 77t156 28q84 0 157 -28t126 -77t84 -118.5t31 -153.5q0 -51 -16.5 -101.5t-46 -94.5t-72.5 -76.5t-97 -47.5v-2q70 -14 122 -50t88 -86 t54.5 -110.5t18.5 -126.5q0 -98 -34 -177t-94 -134t-142 -86t-179 -31q-96 0 -178 31t-142 86t-94 134t-34 177zM219 403q0 -66 22.5 -123t63.5 -100t98.5 -68.5t128.5 -25.5q72 0 129.5 25.5t98.5 68.5t63.5 100.5t22.5 122.5q0 72 -24.5 130.5t-66.5 100.5t-99.5 64.5 t-123.5 22.5t-123 -22.5t-99 -64.5t-66.5 -100.5t-24.5 -130.5zM270 1098q0 -55 19.5 -103.5t53.5 -84.5t82 -57.5t107 -21.5q57 0 106.5 21.5t83.5 57.5t53.5 84t19.5 104q0 121 -75 193.5t-188 72.5t-187.5 -72.5t-74.5 -193.5z" />
<glyph unicode="9" horiz-adv-x="1064" d="M57 1024q0 98 36 181t99.5 142.5t150.5 93.5t189 34t189.5 -34t151 -93.5t99.5 -142.5t36 -181q0 -57 -12.5 -108.5t-33 -97.5t-44 -87t-44.5 -78l-393 -653h-155l395 639h-4q-37 -31 -99.5 -46t-115.5 -15q-96 0 -178 34.5t-141.5 95t-92.5 141.5t-33 175zM193 1024 q0 -72 26.5 -133.5t72.5 -107.5t107 -72.5t133 -26.5q70 0 132.5 26.5t108.5 72.5t72.5 107.5t26.5 133.5q0 76 -24.5 138.5t-69.5 107.5t-107.5 69.5t-138.5 24.5t-138 -24.5t-107 -69.5t-69.5 -107.5t-24.5 -138.5z" />
<glyph unicode=":" horiz-adv-x="532" d="M168 86q0 41 28.5 69.5t69.5 28.5t70 -28.5t29 -69.5t-29 -69.5t-70 -28.5t-69.5 28.5t-28.5 69.5zM168 860q0 41 28.5 69.5t69.5 28.5t70 -28.5t29 -69.5t-29 -69.5t-70 -28.5t-69.5 28.5t-28.5 69.5z" />
<glyph unicode=";" horiz-adv-x="532" d="M102 -283l136 467h143l-158 -467h-121zM168 860q0 41 28.5 69.5t69.5 28.5t70 -28.5t29 -69.5t-29 -69.5t-70 -28.5t-69.5 28.5t-28.5 69.5z" />
<glyph unicode="&#x3c;" horiz-adv-x="1363" d="M168 571v99l1028 479v-102l-917 -426l917 -426v-103z" />
<glyph unicode="=" horiz-adv-x="1363" d="M160 424v98h1044v-98h-1044zM160 719v98h1044v-98h-1044z" />
<glyph unicode="&#x3e;" horiz-adv-x="1363" d="M168 92v103l917 426l-917 426v102l1028 -479v-99z" />
<glyph unicode="?" horiz-adv-x="948" d="M96 1155q29 158 137.5 245t262.5 87q80 0 149.5 -23.5t119.5 -68.5t78.5 -110.5t28.5 -149.5q0 -86 -24.5 -145.5t-61 -104.5t-79.5 -83t-80 -78t-61.5 -90t-24.5 -122v-131h-123v172q0 68 23.5 119t59.5 92t76.5 78t76.5 79t59.5 91t23.5 116q0 111 -63.5 179.5 t-175.5 68.5q-109 0 -177.5 -65.5t-91.5 -171.5zM383 86q0 41 28.5 69.5t69.5 28.5t70 -28.5t29 -69.5t-29 -69.5t-70 -28.5t-69.5 28.5t-28.5 69.5z" />
<glyph unicode="@" horiz-adv-x="1638" d="M90 727q0 160 59.5 298t162 241.5t240.5 162t296 58.5q150 0 277.5 -47t222 -129t147.5 -194.5t53 -244.5q0 -127 -42 -237.5t-110.5 -192.5t-154.5 -128t-172 -46q-53 0 -90 34t-37 104h-4q-41 -51 -112.5 -94.5t-151.5 -43.5q-70 0 -121 23.5t-86 65.5t-52.5 96.5 t-17.5 115.5q0 106 34 213t96.5 191t151.5 137t202 53q68 0 128 -38t89 -132h4l49 131h123l-199 -594q-10 -33 -16 -59.5t-6 -38.5q0 -16 9 -34.5t44 -18.5q53 0 111.5 45t107.5 115.5t81 158.5t32 174q0 115 -48.5 210.5t-129 163t-187 105.5t-221.5 38q-139 0 -259 -54.5 t-207 -145.5t-136 -211t-49 -251q0 -137 51 -258t140 -212t209 -143.5t255 -52.5q76 0 151.5 20.5t144.5 56.5t126 85t98 109h119q-47 -86 -116.5 -153.5t-153.5 -116t-178.5 -74t-190.5 -25.5q-166 0 -307 59.5t-242.5 163t-159 242.5t-57.5 299zM520 573q0 -86 46 -140 t126 -54q72 0 135.5 47t110.5 117.5t73.5 151.5t26.5 149q0 98 -40 153.5t-126 55.5q-78 0 -142 -47.5t-111.5 -119t-73 -155.5t-25.5 -158z" />
<glyph unicode="A" horiz-adv-x="1402" d="M10 0l633 1450h139l611 -1450h-152l-158 385h-768l-163 -385h-142zM369 508h665l-327 795z" />
<glyph unicode="B" horiz-adv-x="1290" d="M199 0v1450h417q82 0 166 -13.5t150.5 -55.5t108.5 -116.5t42 -197.5q0 -111 -65.5 -192.5t-194.5 -108.5v-4q72 -6 131.5 -34t102.5 -74t66.5 -109.5t23.5 -138.5q0 -125 -48 -204t-121 -124t-158 -61.5t-158 -16.5h-463zM334 123h309q119 0 191.5 28.5t111.5 71.5 t52.5 91t13.5 87q0 80 -31 137.5t-80 93.5t-111.5 52t-125.5 16h-330v-577zM334 823h280q104 0 170 25.5t103 62.5t49 79t12 77q0 76 -25.5 126t-68.5 80t-100.5 42t-120.5 12h-299v-504z" />
<glyph unicode="C" horiz-adv-x="1441" d="M104 725q0 166 55.5 305t154 240.5t236.5 159t304 57.5q147 0 275 -52.5t225 -174.5l-111 -93q-68 102 -173 149.5t-216 47.5q-141 0 -255 -49t-193.5 -135t-122.5 -203t-43 -252t43 -252t122.5 -203t193.5 -135t255 -49q55 0 114.5 13.5t116 41t107.5 69.5t90 101 l111 -84q-104 -141 -241.5 -202.5t-297.5 -61.5q-166 0 -304 56.5t-236.5 158t-154 241.5t-55.5 306z" />
<glyph unicode="D" horiz-adv-x="1517" d="M180 0v1450h449q188 0 319 -46t218 -118t137.5 -159t74 -166.5t29.5 -144t6 -91.5t-6 -91.5t-29.5 -144t-74 -166.5t-137.5 -159t-218 -118t-319 -46h-449zM315 123h279q143 0 268 36t217 109.5t145.5 187t53.5 269.5t-53.5 269.5t-145.5 187t-217 109.5t-268 36h-279 v-1204z" />
<glyph unicode="E" horiz-adv-x="1214" d="M199 0v1450h886v-123h-751v-516h704v-123h-704v-565h784v-123h-919z" />
<glyph unicode="F" d="M199 0v1450h868v-123h-733v-516h682v-123h-682v-688h-135z" />
<glyph unicode="G" horiz-adv-x="1593" d="M104 725q0 166 55.5 305t154 240.5t236.5 159t304 57.5q324 0 522 -201l-98 -102q-33 39 -81 72.5t-104.5 57t-118 37t-120.5 13.5q-141 0 -255 -49t-193.5 -135t-122.5 -203t-43 -252t43 -252t122.5 -203t193.5 -135t255 -49q117 0 219.5 18.5t186.5 67.5v487h-349v123 h484v-688q-127 -72 -263.5 -101.5t-277.5 -29.5q-166 0 -304 56.5t-236.5 158t-154 241.5t-55.5 306z" />
<glyph unicode="H" horiz-adv-x="1478" d="M199 0v1450h135v-639h811v639h135v-1450h-135v688h-811v-688h-135z" />
<glyph unicode="I" horiz-adv-x="532" d="M199 0v1450h135v-1450h-135z" />
<glyph unicode="J" horiz-adv-x="987" d="M14 260l136 25q49 -199 241 -199q72 0 122 23.5t81 64.5t45 97.5t14 121.5v1057h135v-1024q0 -66 -9 -145.5t-49 -150.5t-119 -119t-220 -48q-160 0 -253 81t-124 216z" />
<glyph unicode="K" horiz-adv-x="1251" d="M199 0v1450h135v-639h12l703 639h186l-733 -664l774 -786h-195l-735 750h-12v-750h-135z" />
<glyph unicode="L" horiz-adv-x="1024" d="M199 0v1450h135v-1327h676v-123h-811z" />
<glyph unicode="M" horiz-adv-x="1820" d="M184 0v1450h203l528 -1217l529 1217h192v-1450h-135v1278h-4l-553 -1278h-59l-561 1278h-5v-1278h-135z" />
<glyph unicode="N" horiz-adv-x="1593" d="M199 0v1450h174l882 -1270h5v1270h135v-1450h-174l-883 1270h-4v-1270h-135z" />
<glyph unicode="O" horiz-adv-x="1708" d="M104 725q0 166 55.5 305t154 240.5t236.5 159t304 57.5t304 -57.5t236.5 -159t154 -240.5t55.5 -305t-55.5 -306t-154 -241.5t-236.5 -158t-304 -56.5t-304 56.5t-236.5 158t-154 241.5t-55.5 306zM240 725q0 -135 43 -252t122.5 -203t193.5 -135t255 -49t255 49 t193.5 135t122.5 203t43 252t-43 252t-122.5 203t-193.5 135t-255 49t-255 -49t-193.5 -135t-122.5 -203t-43 -252z" />
<glyph unicode="P" horiz-adv-x="1175" d="M199 0v1450h417q76 0 159 -17.5t151.5 -60.5t112.5 -117.5t44 -187.5q0 -98 -35.5 -170t-96 -118t-139.5 -68.5t-165 -22.5h-313v-688h-135zM334 811h307q57 0 112.5 13.5t98.5 43t69.5 78.5t26.5 121q0 70 -27.5 119t-71.5 80.5t-101.5 46t-114.5 14.5h-299v-516z" />
<glyph unicode="Q" horiz-adv-x="1708" d="M104 743q0 158 52.5 294.5t147.5 235.5t231.5 156.5t304.5 57.5t304 -57.5t231 -156.5t147.5 -235.5t52.5 -294.5q0 -96 -24.5 -191t-71.5 -179t-115 -148.5t-152 -97.5v-4h453v-123h-799q-152 0 -290 53t-242.5 150.5t-167 234.5t-62.5 305zM240 743q0 -127 46 -240.5 t129 -197.5t196.5 -133t250.5 -49q139 0 247 52t181.5 138t111.5 198t38 232q0 131 -41 245t-118 198t-188.5 131t-252.5 47t-253 -47t-188.5 -131t-117.5 -198t-41 -245z" />
<glyph unicode="R" horiz-adv-x="1214" d="M199 0v1450h381q29 0 78 -2t106 -12.5t116.5 -33t106.5 -65.5t78 -108.5t31 -159.5q0 -104 -36 -172t-90.5 -110t-120 -62t-124.5 -29l422 -696h-154l-407 688h-252v-688h-135zM334 811h287q106 0 172.5 26.5t103.5 65.5t50.5 84t13.5 82t-13.5 82t-50.5 84t-103.5 65.5 t-172.5 26.5h-287v-516z" />
<glyph unicode="S" d="M109 182l129 86q53 -92 138 -137t193 -45q68 0 127.5 20.5t103.5 57.5t69.5 89t25.5 118q0 76 -32 125t-85 80.5t-119.5 54t-137 45t-137.5 51.5t-120 75t-85 115.5t-32 172.5q0 96 38 170.5t102.5 125t148.5 76t176 25.5q119 0 220.5 -42t175.5 -140l-117 -84 q-51 72 -120 107.5t-163 35.5q-66 0 -125 -17.5t-103 -51t-70.5 -85t-26.5 -120.5q0 -109 55 -167.5t138 -92t180.5 -59.5t180.5 -69t138 -119.5t55 -211.5q0 -98 -37 -174t-99.5 -128.5t-144 -79t-169.5 -26.5q-143 0 -264 50t-207 169z" />
<glyph unicode="T" horiz-adv-x="1175" d="M25 1327v123h1126v-123h-496v-1327h-135v1327h-495z" />
<glyph unicode="U" horiz-adv-x="1400" d="M172 555v895h135v-860q0 -78 14.5 -166t56.5 -164t118.5 -125t203.5 -49t204 49t119 125t56.5 164t14.5 166v860h135v-895q0 -117 -26.5 -223.5t-89 -188.5t-164 -131t-249.5 -49q-147 0 -248.5 49t-164 131t-89 188.5t-26.5 223.5z" />
<glyph unicode="V" horiz-adv-x="1214" d="M-6 1450h145l467 -1272l471 1272h144l-551 -1450h-135z" />
<glyph unicode="W" horiz-adv-x="1933" d="M10 1450h140l360 -1284h4l367 1284h172l366 -1284h4l361 1284h139l-422 -1450h-166l-366 1290h-4l-367 -1290h-166z" />
<glyph unicode="X" horiz-adv-x="1251" d="M2 0l545 762l-496 688h160l418 -590l411 590h162l-491 -688l538 -762h-168l-458 655l-459 -655h-162z" />
<glyph unicode="Y" horiz-adv-x="1175" d="M-12 1450h162l438 -688l448 688h152l-533 -825v-625h-135v625z" />
<glyph unicode="Z" d="M47 0v106l848 1221h-836v123h1010v-111l-854 -1216h877v-123h-1045z" />
<glyph unicode="[" horiz-adv-x="532" d="M152 -319v1818h307v-98h-185v-1622h185v-98h-307z" />
<glyph unicode="\" horiz-adv-x="757" d="M10 1487l107 37l622 -1561l-108 -37z" />
<glyph unicode="]" horiz-adv-x="532" d="M74 -221h184v1622h-184v98h307v-1818h-307v98z" />
<glyph unicode="^" horiz-adv-x="1363" d="M168 524l467 926h94l467 -926h-115l-399 815l-397 -815h-117z" />
<glyph unicode="_" horiz-adv-x="1024" d="M0 -154h1024v-102h-1024v102z" />
<glyph unicode="`" horiz-adv-x="491" d="M-12 1450h164l213 -295h-103z" />
<glyph unicode="a" horiz-adv-x="1062" d="M121 256q0 109 55 172.5t136 95t172 40.5t161 9h143v58q0 123 -75.5 176t-190.5 53q-164 0 -289 -106l-71 84q68 66 168 99.5t192 33.5q172 0 274.5 -81t102.5 -261v-232q0 -70 1 -125t3 -102t5 -88t10 -82h-115q-12 70 -12 154h-5q-53 -92 -132 -135.5t-199 -43.5 q-61 0 -121 15.5t-107 49.5t-76.5 87t-29.5 129zM244 262q0 -43 19.5 -76.5t50 -55t68.5 -33t77 -11.5q98 0 161.5 28.5t101.5 75t52 104.5t14 118v63h-135q-78 0 -150.5 -10t-131 -34.5t-93 -65.5t-34.5 -103z" />
<glyph unicode="b" horiz-adv-x="1251" d="M137 0v1548h123v-768h4q29 49 72 85t93 59.5t105.5 35t108.5 11.5q109 0 200 -37t157.5 -103.5t103.5 -157.5t37 -200t-37 -200t-103.5 -157.5t-157.5 -103.5t-200 -37q-53 0 -108.5 11.5t-105.5 35t-93 59.5t-72 85h-4v-166h-123zM248 473q0 -80 30.5 -150.5t84 -123 t125 -83t155.5 -30.5q86 0 155.5 30.5t119 83t75 123t25.5 150.5t-25.5 150.5t-75 123t-119 83t-155.5 30.5q-84 0 -155.5 -30.5t-125 -83t-84 -123t-30.5 -150.5z" />
<glyph unicode="c" horiz-adv-x="985" d="M111 473q0 109 36.5 200t102 157.5t158 103.5t200.5 37q104 0 193.5 -43t159.5 -121l-99 -74q-53 59 -116.5 93t-137.5 34q-86 0 -155.5 -30.5t-118.5 -83t-75 -123t-26 -150.5t26 -150.5t75 -123t118.5 -83t155.5 -30.5q78 0 142.5 36t111.5 95l94 -78 q-70 -84 -157.5 -124t-190.5 -40q-109 0 -201 37t-157.5 103.5t-102 158t-36.5 199.5z" />
<glyph unicode="d" horiz-adv-x="1251" d="M111 473q0 109 36.5 200t102 157.5t158 103.5t200.5 37q53 0 108.5 -11.5t105.5 -35t93 -59.5t72 -85h4v768h123v-1548h-123v166h-4q-29 -49 -72 -85t-93 -59.5t-105 -35t-109 -11.5q-109 0 -201 37t-157.5 103.5t-102 158t-36.5 199.5zM233 473q0 -80 26 -150.5t75 -123 t118.5 -83t155.5 -30.5q84 0 156 30.5t125 83t84 123t31 150.5t-31 150.5t-84 123t-125 83t-156 30.5q-86 0 -155.5 -30.5t-118.5 -83t-75 -123t-26 -150.5z" />
<glyph unicode="e" d="M111 475q0 106 34.5 196.5t98 157t149.5 104.5t191 38q109 0 191.5 -38t139 -100.5t85 -142.5t28.5 -162v-86h-795q0 -39 15.5 -99t56.5 -117.5t109.5 -98.5t177.5 -41q94 0 182 45t135 123l90 -76q-72 -109 -177 -156t-232 -47q-109 0 -197 37t-151.5 103.5t-97 158 t-33.5 201.5zM233 553h672q0 63 -25.5 118.5t-69.5 97.5t-104.5 66.5t-127.5 24.5q-100 0 -167 -41t-106 -94t-55.5 -103.5t-16.5 -68.5z" />
<glyph unicode="f" horiz-adv-x="606" d="M37 836v110h196v309q0 92 28 152.5t69 97.5t91 52.5t95 15.5q86 0 141 -25l-24 -106q-41 20 -111 20q-166 0 -166 -252v-264h222v-110h-222v-836h-123v836h-196z" />
<glyph unicode="g" horiz-adv-x="1251" d="M123 485q0 100 40 188.5t108.5 154t160.5 104.5t197 39q123 0 214 -49.5t144 -135.5h4v160h123v-885q0 -176 -51 -284.5t-128 -168t-165 -80t-160 -20.5t-140.5 13.5t-129.5 39t-111.5 62.5t-87.5 84l97 90q66 -92 164 -135t208 -43q94 0 159 24.5t107 64.5t65.5 88 t34.5 96.5t13 91.5t2 69v131h-4q-53 -86 -144 -135t-214 -49q-104 0 -196.5 38t-161 104.5t-108.5 154.5t-40 188zM246 485q0 -78 29.5 -146.5t80 -118.5t119 -79.5t146.5 -29.5t146.5 29.5t118.5 79.5t79.5 118.5t29.5 146.5t-29.5 146.5t-79.5 119t-119 80t-146 29.5 q-78 0 -146.5 -29.5t-119 -80t-80 -119t-29.5 -146.5z" />
<glyph unicode="h" d="M164 0v1548h123v-768h4q37 78 123 134.5t200 56.5q111 0 180.5 -35t109.5 -91.5t55.5 -130t15.5 -151.5v-563h-123v557q0 57 -10.5 111.5t-36 97.5t-71.5 68.5t-120 25.5q-68 0 -128 -23.5t-104 -71.5t-69.5 -121t-25.5 -171v-473h-123z" />
<glyph unicode="i" horiz-adv-x="491" d="M154 1321q0 39 26.5 65.5t65.5 26.5t65.5 -26.5t26.5 -65.5t-26.5 -65.5t-65.5 -26.5t-65.5 26.5t-26.5 65.5zM184 0v946h123v-946h-123z" />
<glyph unicode="j" horiz-adv-x="491" d="M-61 -473l18 108q43 -16 78 -16q49 0 78.5 17.5t45 45t20.5 64.5t5 78v1122h123v-1112q0 -74 -11 -133t-42 -102t-83 -67t-134 -24q-49 0 -98 19zM154 1321q0 39 26.5 65.5t65.5 26.5t65.5 -26.5t26.5 -65.5t-26.5 -65.5t-65.5 -26.5t-65.5 26.5t-26.5 65.5z" />
<glyph unicode="k" horiz-adv-x="985" d="M164 0v1548h123v-1032l467 428h180l-488 -432l545 -512h-186l-518 500v-500h-123z" />
<glyph unicode="l" horiz-adv-x="491" d="M184 0v1548h123v-1548h-123z" />
<glyph unicode="m" horiz-adv-x="1744" d="M154 946h122q2 -53 3.5 -102t5.5 -64h6q37 78 123 134.5t200 56.5q94 0 172 -48.5t113 -156.5q45 106 134 155.5t188 49.5q111 0 180 -35t109 -91.5t55.5 -130t15.5 -151.5v-563h-123v557q0 57 -10 111.5t-36 97.5t-72 68.5t-119 25.5q-86 0 -141.5 -31.5t-87 -81 t-45 -106.5t-13.5 -109v-532h-123v569q0 131 -48 211t-149 80q-68 0 -128 -23.5t-104 -71.5t-69.5 -121t-25.5 -171v-473h-123v680q0 27 -2 64.5t-3 76.5t-3 73t-2 52z" />
<glyph unicode="n" d="M154 946h122q2 -53 3.5 -102t5.5 -64h6q37 78 123 134.5t200 56.5q111 0 180.5 -35t109.5 -91.5t55.5 -130t15.5 -151.5v-563h-123v557q0 57 -10.5 111.5t-36 97.5t-71.5 68.5t-120 25.5q-68 0 -128 -23.5t-104 -71.5t-69.5 -121t-25.5 -171v-473h-123v680q0 27 -2 64.5 t-3 76.5t-3 73t-2 52z" />
<glyph unicode="o" horiz-adv-x="1216" d="M111 473q0 109 36.5 200t102 157.5t158 103.5t200.5 37q109 0 200 -37t157.5 -103.5t103.5 -157.5t37 -200t-37 -200t-103.5 -157.5t-157.5 -103.5t-200 -37t-201 37t-157.5 103.5t-102 157.5t-36.5 200zM233 473q0 -80 26 -150.5t75 -123t118.5 -83t155.5 -30.5 t156 30.5t119 83t74.5 123t25.5 150.5t-25.5 150.5t-74.5 123t-119 83t-156 30.5t-155.5 -30.5t-118.5 -83t-75 -123t-26 -150.5z" />
<glyph unicode="p" horiz-adv-x="1251" d="M137 -467v1413h123v-166h4q29 49 72 85t93 59.5t105.5 35t108.5 11.5q109 0 200 -37t157.5 -103.5t103.5 -157.5t37 -200t-37 -200t-103.5 -157.5t-157.5 -103.5t-200 -37q-53 0 -108.5 11.5t-105.5 35t-93 59.5t-72 85h-4v-633h-123zM248 473q0 -80 30.5 -150.5t84 -123 t125 -83t155.5 -30.5q86 0 155.5 30.5t119 83t75 123t25.5 150.5t-25.5 150.5t-75 123t-119 83t-155.5 30.5q-84 0 -155.5 -30.5t-125 -83t-84 -123t-30.5 -150.5z" />
<glyph unicode="q" horiz-adv-x="1251" d="M111 473q0 109 36.5 200t102 157.5t158 103.5t200.5 37q53 0 108.5 -11.5t105.5 -35t93 -59.5t72 -85h4v166h123v-1413h-123v633h-4q-29 -49 -72 -85t-93 -59.5t-105 -35t-109 -11.5q-109 0 -201 37t-157.5 103.5t-102 158t-36.5 199.5zM233 473q0 -80 26 -150.5t75 -123 t118.5 -83t155.5 -30.5q84 0 156 30.5t125 83t84 123t31 150.5t-31 150.5t-84 123t-125 83t-156 30.5q-86 0 -155.5 -30.5t-118.5 -83t-75 -123t-26 -150.5z" />
<glyph unicode="r" horiz-adv-x="681" d="M154 946h122q2 -53 3.5 -102t5.5 -64q47 84 120.5 137.5t180.5 53.5q18 0 35.5 -3t35.5 -7l-14 -121q-25 8 -47 8q-80 0 -138.5 -25.5t-96 -70.5t-56 -105.5t-18.5 -130.5v-516h-123v680q0 27 -2 64.5t-3 76.5t-3 73t-2 52z" />
<glyph unicode="s" horiz-adv-x="872" d="M57 168l109 74q39 -76 114.5 -116t159.5 -40q39 0 78 12.5t69.5 35t50 54t19.5 72.5q0 66 -42 98.5t-103 51t-135 32t-135.5 41t-103.5 76.5t-42 139q0 70 29 121t75 85t103 50.5t117 16.5q117 0 202 -43t132 -135l-111 -66q-35 66 -87 99.5t-136 33.5q-33 0 -69 -10 t-64.5 -28.5t-48 -47.5t-19.5 -65q0 -63 42 -94t103.5 -48.5t135 -30t135 -40t103.5 -79.5t42 -149q0 -74 -27.5 -128t-75.5 -91t-109.5 -55.5t-129.5 -18.5q-123 0 -224 47.5t-157 145.5z" />
<glyph unicode="t" horiz-adv-x="681" d="M29 836v110h204v273h123v-273h271v-110h-271v-617q0 -63 35 -98t96 -35q35 0 71 9t69 24l10 -111q-35 -12 -80 -22.5t-80 -10.5q-66 0 -113 19.5t-75.5 52.5t-42 77t-13.5 95v617h-204z" />
<glyph unicode="u" d="M154 383v563h122v-557q0 -57 10.5 -111.5t36 -97.5t71.5 -68.5t120 -25.5q68 0 128 23.5t104.5 71.5t70 121t25.5 171v473h123v-680q0 -27 2 -64.5t3 -76.5t3 -73t2 -52h-123q-2 53 -3 102.5t-5 63.5h-6q-37 -78 -123 -134.5t-201 -56.5q-111 0 -181.5 35t-110.5 91.5 t-54 130t-14 151.5z" />
<glyph unicode="v" horiz-adv-x="948" d="M31 946h139l315 -813l308 813h125l-373 -946h-127z" />
<glyph unicode="w" horiz-adv-x="1441" d="M31 946h135l229 -792h4l265 792h116l281 -792h4l223 792h123l-278 -946h-127l-283 774h-4l-264 -774h-127z" />
<glyph unicode="x" horiz-adv-x="985" d="M12 0l394 512l-338 434h157l262 -358l261 358h153l-334 -434l406 -512h-160l-330 428l-323 -428h-148z" />
<glyph unicode="y" horiz-adv-x="948" d="M31 946h137l313 -796l305 796h132l-488 -1239q-35 -92 -96.5 -145.5t-163.5 -53.5q-31 0 -61.5 5.5t-59.5 13.5l12 115q27 -8 54.5 -15.5t56.5 -7.5q33 0 58.5 14.5t44 37t31.5 50t24 56.5l86 219z" />
<glyph unicode="z" horiz-adv-x="872" d="M55 0v74l568 762h-539v110h709v-74l-566 -761h590v-111h-762z" />
<glyph unicode="{" horiz-adv-x="681" d="M135 541v98q43 0 70.5 26.5t44 70.5t23 101.5t6.5 116.5v297q0 117 47 182.5t133 65.5h102v-98h-47q-31 0 -52.5 -17.5t-34.5 -45t-19.5 -63.5t-6.5 -75v-289q0 -80 -18 -138t-43 -97t-48.5 -59.5t-33.5 -24.5v-4q10 -6 33.5 -26.5t48.5 -58.5t43 -96.5t18 -138.5v-291 q0 -37 6.5 -72.5t19.5 -63t34.5 -45t52.5 -17.5h47v-98h-102q-86 0 -133 66.5t-47 180.5v299q0 59 -6.5 115.5t-23 100.5t-44 71t-70.5 27z" />
<glyph unicode="|" horiz-adv-x="454" d="M178 -512v2048h98v-2048h-98z" />
<glyph unicode="}" horiz-adv-x="681" d="M121 -221h47q31 0 52.5 17.5t34.5 45t19.5 63.5t6.5 75v288q0 80 18 138.5t43 97.5t48.5 59.5t33.5 24.5v4q-10 6 -33.5 26.5t-48.5 58.5t-43 96t-18 138v291q0 37 -6.5 73t-19.5 63.5t-34.5 45t-52.5 17.5h-47v98h102q86 0 133 -66.5t47 -181.5v-299q0 -59 6.5 -115.5 t23 -100.5t44 -70.5t70.5 -26.5v-98q-43 0 -70.5 -27t-44 -71t-23 -101t-6.5 -117v-297q0 -117 -47 -182t-133 -65h-102v98z" />
<glyph unicode="~" horiz-adv-x="1363" d="M211 561q16 33 39.5 65.5t54.5 59.5t71 43t91 16q57 0 117.5 -24.5t117.5 -48.5q59 -27 110.5 -46.5t90.5 -19.5q61 0 103.5 43t76.5 96l70 -65q-16 -35 -39.5 -68.5t-54.5 -59.5t-71 -41t-91 -15q-57 0 -117.5 24.5t-117.5 48.5q-59 27 -110.5 46.5t-90.5 19.5 q-61 0 -103.5 -43t-76.5 -96z" />
<glyph unicode="&#xa1;" horiz-adv-x="757" d="M281 909q0 41 28.5 70t69.5 29t69.5 -29t28.5 -70t-28.5 -69.5t-69.5 -28.5t-69.5 28.5t-28.5 69.5zM317 -455v1069h123v-1069h-123z" />
<glyph unicode="&#xa2;" horiz-adv-x="1064" d="M106 477q0 96 31 179t86.5 147.5t132 106.5t168.5 55v147h99v-145q100 -2 185 -44t150 -116l-98 -74q-47 53 -104.5 85t-132.5 38v-770q72 4 132 40t105 91l94 -78q-129 -158 -331 -164v-141h-99v148q-94 12 -171 55t-132 109.5t-85 150.5t-30 180zM229 477 q0 -68 20.5 -130t59.5 -113.5t93.5 -87t121.5 -50.5v758q-72 -10 -126 -45t-92 -86t-57.5 -114.5t-19.5 -131.5z" />
<glyph unicode="&#xa3;" horiz-adv-x="1064" d="M119 0v111h215v589h-195v111h195v240q0 70 22.5 144.5t73.5 137t133 102.5t201 40q162 0 293 -115l-82 -98q-43 43 -97.5 72.5t-119.5 29.5q-78 0 -132.5 -29.5t-89 -73.5t-51 -97.5t-16.5 -98.5v-254h338v-111h-338v-589h502v-111h-852z" />
<glyph unicode="&#xa4;" horiz-adv-x="1064" d="M23 725q0 188 122 322l-116 112l69 76l117 -115q68 53 149.5 81t167.5 28t168 -27.5t150 -81.5l117 115l69 -76l-116 -112q123 -133 122 -322q0 -188 -122 -322l116 -112l-69 -76l-117 115q-68 -53 -150 -81t-168 -28t-167.5 27.5t-149.5 81.5l-117 -115l-69 76l116 112 q-123 133 -122 322zM145 725q0 -82 31 -153.5t84 -125t123 -84t149 -30.5q80 0 150 30.5t123 84t84 125t31 153.5t-31 153.5t-84 125t-123 84t-150 30.5t-149.5 -30.5t-122.5 -84t-84 -125t-31 -153.5z" />
<glyph unicode="&#xa5;" horiz-adv-x="1064" d="M0 1450h139l393 -705l400 705h133l-391 -694h274v-99h-330l-18 -32v-158h348v-98h-348v-369h-135v369h-348v98h348v158l-19 32h-329v99h274z" />
<glyph unicode="&#xa6;" horiz-adv-x="454" d="M178 -358v716h98v-716h-98zM178 666v716h98v-716h-98z" />
<glyph unicode="&#xa7;" horiz-adv-x="1064" d="M131 -49l125 61q35 -92 102.5 -138t163.5 -46q45 0 90 12.5t80 38t56.5 62t21.5 86.5q0 70 -45 115.5t-112.5 81.5t-147.5 70t-147.5 80t-112.5 108.5t-45 158.5q0 51 17.5 92t48 74t69.5 56.5t82 41.5q-74 45 -121 106.5t-47 153.5q0 80 32.5 139.5t87 100.5t122 61.5 t139.5 20.5q51 0 101 -11.5t94 -34t78 -59t55 -88.5l-119 -69q-29 70 -85.5 104.5t-129.5 34.5q-47 0 -90 -12.5t-76 -37t-53.5 -62.5t-20.5 -87q0 -66 44 -109.5t109.5 -79.5t141.5 -70t141.5 -79t109.5 -106.5t44 -151.5q0 -94 -52.5 -160.5t-129.5 -109.5 q68 -41 110.5 -105.5t42.5 -146.5t-31.5 -145.5t-85 -107.5t-122 -66.5t-142.5 -22.5q-63 0 -123.5 14.5t-111.5 45t-92 76.5t-66 110zM295 645q0 -78 41 -114.5t98 -65.5l209 -107q27 14 54.5 35t50 45.5t37 54t14.5 62.5q0 37 -14.5 67.5t-37 56.5t-49 45t-51.5 32 l-153 84q-33 -10 -68 -26.5t-64.5 -40t-48 -55.5t-18.5 -73z" />
<glyph unicode="&#xa8;" horiz-adv-x="491" d="M-47 1335q0 41 28.5 70t69.5 29t70 -29t29 -70t-29 -69.5t-70 -28.5t-69.5 28.5t-28.5 69.5zM342 1335q0 41 28.5 70t69.5 29t70 -29t29 -70t-29 -69.5t-70 -28.5t-69.5 28.5t-28.5 69.5z" />
<glyph unicode="&#xa9;" horiz-adv-x="1638" d="M57 725q0 158 60.5 296t164 241.5t242 164t295.5 60.5q158 0 296 -60.5t241.5 -164t164 -241.5t60.5 -296t-60.5 -296t-164 -241.5t-241.5 -164t-296 -60.5t-296 60.5t-241.5 164t-164 241.5t-60.5 296zM168 725q0 -135 51 -254t139 -207t207 -139t254 -51t254 51 t207 139t139 207t51 254t-51 254t-139 207t-207 139t-254 51t-254 -51t-207 -139t-139 -207t-51 -254zM399 725q0 100 30 186t85 149.5t137 98.5t187 35q72 0 136 -20.5t115.5 -60.5t84 -97.5t43.5 -132.5h-111q-18 84 -86 147.5t-180 65.5q-78 0 -139.5 -30t-103.5 -81 t-64.5 -117.5t-22.5 -142.5t22.5 -143.5t64.5 -117.5t103.5 -80t139.5 -30q55 0 101 17.5t80 47.5t55.5 67.5t29.5 80.5h111q-10 -76 -43 -133t-84.5 -97t-116 -60.5t-135.5 -20.5q-104 0 -186.5 35t-137.5 98.5t-85 148.5t-30 187z" />
<glyph unicode="&#xaa;" horiz-adv-x="690" d="M70 1034q0 59 27.5 98t72.5 62t100.5 31t110.5 8h131v18q-2 33 -10 58.5t-27.5 43t-51.5 27t-81 9.5q-61 0 -105 -18.5t-87 -53.5l-54 78q98 80 269 80q123 0 184 -49.5t61 -174.5v-164q0 -53 1 -105t10 -101h-101q-6 23 -6 45t-2 49h-4q-35 -57 -88 -82t-125 -25 q-43 0 -84 9.5t-73 29t-50 51t-18 76.5zM168 1038q0 -37 46 -60.5t101 -23.5q53 0 91 17.5t62 44t34 58.5t10 59v14h-78q-43 0 -90 -4t-86 -16.5t-64.5 -34t-25.5 -54.5z" />
<glyph unicode="&#xab;" horiz-adv-x="985" d="M129 485l281 416l86 -59l-238 -357l242 -360l-90 -55zM469 485l281 416l86 -59l-238 -357l242 -360l-90 -55z" />
<glyph unicode="&#xac;" horiz-adv-x="1363" d="M160 719v98h1044v-543h-98v445h-946z" />
<glyph unicode="&#xad;" horiz-adv-x="681" d="M88 430v111h506v-111h-506z" />
<glyph unicode="&#xae;" horiz-adv-x="1638" d="M57 725q0 158 60.5 296t164 241.5t242 164t295.5 60.5q158 0 296 -60.5t241.5 -164t164 -241.5t60.5 -296t-60.5 -296t-164 -241.5t-241.5 -164t-296 -60.5t-296 60.5t-241.5 164t-164 241.5t-60.5 296zM168 725q0 -135 51 -254t139 -207t207 -139t254 -51t254 51 t207 139t139 207t51 254t-51 254t-139 207t-207 139t-254 51t-254 -51t-207 -139t-139 -207t-51 -254zM543 289v878h338q150 0 213 -62.5t63 -180.5q0 -61 -17.5 -104.5t-48 -73t-70.5 -47t-85 -25.5l262 -385h-125l-262 385h-158v-385h-110zM653 772h142q45 0 90 3 t80.5 18.5t58.5 45t23 85.5q0 43 -17.5 70.5t-45.5 44t-63.5 23.5t-70.5 7h-197v-297z" />
<glyph unicode="&#xaf;" horiz-adv-x="491" d="M-25 1241v98h541v-98h-541z" />
<glyph unicode="&#xb0;" horiz-adv-x="819" d="M115 1182q0 61 22.5 114.5t62.5 93.5t94 62.5t116 22.5q61 0 114.5 -22.5t93 -62.5t63.5 -93.5t24 -114.5t-24 -115.5t-63.5 -94.5t-93 -63.5t-114.5 -23.5t-115.5 23.5t-94.5 63.5t-62.5 94t-22.5 116zM213 1180q0 -82 57.5 -139.5t139.5 -57.5t139 57.5t57 139.5 t-57 139t-139 57t-139.5 -57t-57.5 -139z" />
<glyph unicode="&#xb1;" horiz-adv-x="1363" d="M160 670v98h467v375h98v-375h479v-98h-479v-375h-98v375h-467zM168 98v99h1028v-99h-1028z" />
<glyph unicode="&#xb2;" horiz-adv-x="692" d="M47 592v88l352 344q55 53 94 102.5t39 120.5q0 57 -45 93t-127 36q-78 0 -118.5 -36.5t-57.5 -84.5l-104 9q14 59 46 99t72 64.5t84 36t83 11.5q119 0 198.5 -58.5t79.5 -165.5q0 -49 -16.5 -92t-42 -80t-59 -71.5t-70.5 -69.5l-260 -248h450v-98h-598z" />
<glyph unicode="&#xb3;" horiz-adv-x="692" d="M55 762l97 37q23 -55 65.5 -88t122.5 -33q35 0 68.5 12t59.5 33.5t42 50.5t16 60q0 49 -19.5 80.5t-51 50t-73.5 26.5t-87 8h-35v99h47q31 0 66 8t63.5 25.5t47 47t18.5 72.5q0 53 -43 89t-115 36q-59 0 -105 -27.5t-75 -74.5l-80 51q41 66 106.5 108t153.5 42 q55 0 104.5 -15.5t86 -44.5t57 -69.5t20.5 -92.5q0 -72 -48 -126t-120 -76v-4q90 -12 141.5 -74t51.5 -146q0 -57 -22.5 -103t-62.5 -78t-94.5 -49t-117.5 -17q-100 0 -174 42t-111 140z" />
<glyph unicode="&#xb4;" horiz-adv-x="491" d="M127 1155l213 295h164l-275 -295h-102z" />
<glyph unicode="&#xb5;" d="M154 -467v1413h122v-557q0 -57 10.5 -111.5t36 -97.5t71.5 -68.5t120 -25.5q68 0 128 23.5t104.5 71.5t70 121t25.5 171v473h123v-680q0 -27 2 -64.5t3 -76.5t3 -73t2 -52h-123q-2 53 -3 102.5t-5 63.5h-6q-37 -78 -123 -134.5t-201 -56.5q-84 0 -141.5 20.5t-98.5 57.5 v-520h-120z" />
<glyph unicode="&#xb6;" horiz-adv-x="1228" d="M123 1049q0 195 119.5 298t337.5 103h464v-1708h-122v1610h-252v-1610h-123v920q-90 0 -168 30.5t-134.5 83.5t-89 123t-32.5 150z" />
<glyph unicode="&#xb7;" horiz-adv-x="532" d="M168 651q0 41 28.5 70t69.5 29t70 -29t29 -70t-29 -69.5t-70 -28.5t-69.5 28.5t-28.5 69.5z" />
<glyph unicode="&#xb8;" horiz-adv-x="491" d="M68 -399l28 65q68 -35 156 -35q20 0 42.5 5.5t42 15.5t32 26.5t12.5 40.5q0 47 -37 66.5t-78 19.5q-47 0 -90 -16l-33 31l129 180h78l-96 -131l4 -4q27 14 64 14q66 0 118 -37t52 -110q0 -47 -20.5 -80t-54.5 -53.5t-75 -30.5t-80 -10q-102 0 -194 43z" />
<glyph unicode="&#xb9;" horiz-adv-x="692" d="M137 1286l225 176h111v-870h-111v760l-174 -135z" />
<glyph unicode="&#xba;" horiz-adv-x="790" d="M70 1171q0 68 22.5 123.5t65.5 95.5t102 62.5t133 22.5q70 0 130.5 -21.5t104.5 -61.5t68.5 -95.5t24.5 -125.5q0 -68 -24.5 -123t-68.5 -95t-104.5 -62.5t-130.5 -22.5q-74 0 -133 22.5t-102 62.5t-65.5 95t-22.5 123zM168 1171q0 -43 16.5 -81.5t46 -69.5t71.5 -48.5 t91 -17.5t91 17.5t73 47.5t48.5 68.5t17.5 83.5q0 92 -62.5 155t-167.5 63q-49 0 -90 -17.5t-71.5 -48.5t-47 -70t-16.5 -82z" />
<glyph unicode="&#xbb;" horiz-adv-x="985" d="M145 846l91 55l280 -416l-280 -415l-86 59l237 356zM485 846l90 55l281 -416l-281 -415l-86 59l238 356z" />
<glyph unicode="&#xbc;" horiz-adv-x="1593" d="M74 1286l225 176h111v-870h-111v760l-174 -135zM236 -12l933 1532l95 -58l-936 -1532zM889 209v92l379 567h121v-561h131v-98h-131v-209h-111v209h-389zM999 307h279v414h-4z" />
<glyph unicode="&#xbd;" horiz-adv-x="1593" d="M57 1286l226 176h110v-870h-110v760l-174 -135zM217 -12l934 1532l94 -58l-936 -1532zM938 0v88l352 344q55 53 94 102.5t39 120.5q0 57 -45 93t-127 36q-78 0 -118.5 -36.5t-57.5 -83.5l-104 8q14 59 46 99t71.5 64.5t84 36t82.5 11.5q119 0 199 -58.5t80 -165.5 q0 -49 -16.5 -92t-42 -79.5t-59.5 -71.5t-70 -70l-261 -248h451v-98h-598z" />
<glyph unicode="&#xbe;" horiz-adv-x="1593" d="M41 762l98 37q23 -55 66 -88t123 -33q35 0 68.5 12t59 33.5t42 50.5t16.5 60q0 49 -19.5 80.5t-51 50t-73.5 26.5t-87 8h-35v99h47q31 2 65.5 10t63.5 25.5t47 46t18 71.5q0 53 -43 89t-114 36q-59 0 -105.5 -27.5t-74.5 -74.5l-80 51q41 66 106.5 108t153.5 42 q55 0 104 -15.5t86 -44.5t57.5 -69.5t20.5 -92.5q0 -72 -48 -126t-120 -76v-4q90 -12 141.5 -74t51.5 -146q0 -57 -22.5 -103t-62.5 -78t-94.5 -49t-117.5 -17q-100 0 -174 42t-113 140zM340 -12l934 1532l94 -58l-936 -1532zM922 209v92l378 567h121v-561h131v-98h-131 v-209h-110v209h-389zM1028 307h279v414h-4z" />
<glyph unicode="&#xbf;" horiz-adv-x="948" d="M76 -139q0 86 24.5 145.5t61.5 104.5t80 82.5t79.5 77.5t61.5 90.5t25 121.5v131h122v-172q0 -68 -23.5 -119t-59 -92t-76.5 -77.5t-77 -78.5t-59.5 -91.5t-23.5 -116.5q0 -111 63.5 -179.5t176.5 -68.5q109 0 177 65.5t91 172.5l133 -17q-29 -158 -137.5 -245 t-261.5 -87q-80 0 -150 24t-120 69t-78.5 110.5t-28.5 149.5zM369 909q0 41 28.5 70t69.5 29t69.5 -29t28.5 -70t-28.5 -69.5t-69.5 -28.5t-69.5 28.5t-28.5 69.5z" />
<glyph unicode="&#xc0;" horiz-adv-x="1402" d="M10 0l633 1450h139l611 -1450h-152l-158 385h-768l-163 -385h-142zM369 508h665l-327 795zM445 1835h164l213 -295h-103z" />
<glyph unicode="&#xc1;" horiz-adv-x="1402" d="M10 0l633 1450h139l611 -1450h-152l-158 385h-768l-163 -385h-142zM369 508h665l-327 795zM584 1540l213 295h164l-275 -295h-102z" />
<glyph unicode="&#xc2;" horiz-adv-x="1402" d="M10 0l633 1450h139l611 -1450h-152l-158 385h-768l-163 -385h-142zM369 508h665l-327 795zM410 1540l221 295h143l222 -295h-133l-166 221l-166 -221h-121z" />
<glyph unicode="&#xc3;" horiz-adv-x="1402" d="M10 0l633 1450h139l611 -1450h-152l-158 385h-768l-163 -385h-142zM369 508h665l-327 795zM383 1575q4 35 18.5 73t37.5 66q23 31 55.5 50.5t73.5 19.5t79.5 -16.5t73.5 -34.5q35 -16 68 -31.5t61 -15.5q45 0 67.5 30.5t31.5 67.5h73q-4 -37 -16 -75t-33.5 -67.5 t-52.5 -48t-70 -18.5q-41 0 -79 16.5t-74 32.5q-37 16 -71 32.5t-65 16.5q-47 0 -70.5 -30.5t-33.5 -67.5h-74z" />
<glyph unicode="&#xc4;" horiz-adv-x="1402" d="M10 0l633 1450h139l611 -1450h-152l-158 385h-768l-163 -385h-142zM369 508h665l-327 795zM410 1720q0 41 28.5 70t69.5 29t70 -29t29 -70t-29 -69.5t-70 -28.5t-69.5 28.5t-28.5 69.5zM799 1720q0 41 28.5 70t69.5 29t70 -29t29 -70t-29 -69.5t-70 -28.5t-69.5 28.5 t-28.5 69.5z" />
<glyph unicode="&#xc5;" horiz-adv-x="1402" d="M10 0l633 1450h139l611 -1450h-152l-158 385h-768l-163 -385h-142zM369 508h665l-327 795zM512 1714q0 39 15.5 75t41 62.5t60.5 42t76 15.5q39 0 73.5 -16.5t60.5 -44t40 -62.5t14 -74q0 -37 -14 -71.5t-40 -61.5t-60.5 -43t-73.5 -16q-41 0 -76 15t-60.5 42t-41 61.5 t-15.5 75.5zM586 1712q0 -51 34 -85t83 -34q51 0 83.5 35t32.5 86t-32.5 86t-83.5 35t-84 -36t-33 -87z" />
<glyph unicode="&#xc6;" horiz-adv-x="1896" d="M-10 0l944 1450h825v-123h-600v-516h565v-123h-565v-565h617v-123h-752v385h-639l-252 -385h-143zM465 508h559v819h-25z" />
<glyph unicode="&#xc7;" horiz-adv-x="1441" d="M104 725q0 166 55.5 305t154 240.5t236.5 159t304 57.5q147 0 275 -52.5t225 -174.5l-111 -93q-68 102 -173 149.5t-216 47.5q-141 0 -255 -49t-193.5 -135t-122.5 -203t-43 -252t43 -252t122.5 -203t193.5 -135t255 -49q55 0 114.5 13.5t116 41t107.5 69.5t90 101 l111 -84q-104 -141 -241.5 -202.5t-297.5 -61.5h-27.5t-27.5 2l-70 -96l4 -4q27 14 64 14q66 0 118 -37t52 -110q0 -47 -20.5 -80t-54.5 -53.5t-75 -30.5t-80 -10q-102 0 -194 43l28 65q68 -35 156 -35q20 0 43 5.5t42 15.5t31.5 26.5t12.5 40.5q0 47 -37 66.5t-78 19.5 q-47 0 -90 -16l-33 31l111 153q-139 18 -255 83t-197.5 163t-127 227t-45.5 279z" />
<glyph unicode="&#xc8;" horiz-adv-x="1214" d="M199 0v1450h886v-123h-751v-516h704v-123h-704v-565h784v-123h-919zM350 1835h164l213 -295h-103z" />
<glyph unicode="&#xc9;" horiz-adv-x="1214" d="M199 0v1450h886v-123h-751v-516h704v-123h-704v-565h784v-123h-919zM489 1540l213 295h164l-275 -295h-102z" />
<glyph unicode="&#xca;" horiz-adv-x="1214" d="M199 0v1450h886v-123h-751v-516h704v-123h-704v-565h784v-123h-919zM315 1540l221 295h143l222 -295h-133l-166 221l-166 -221h-121z" />
<glyph unicode="&#xcb;" horiz-adv-x="1214" d="M199 0v1450h886v-123h-751v-516h704v-123h-704v-565h784v-123h-919zM315 1720q0 41 28.5 70t69.5 29t70 -29t29 -70t-29 -69.5t-70 -28.5t-69.5 28.5t-28.5 69.5zM704 1720q0 41 28.5 70t69.5 29t70 -29t29 -70t-29 -69.5t-70 -28.5t-69.5 28.5t-28.5 69.5z" />
<glyph unicode="&#xcc;" horiz-adv-x="532" d="M8 1835h164l213 -295h-103zM199 0v1450h135v-1450h-135z" />
<glyph unicode="&#xcd;" horiz-adv-x="532" d="M147 1540l213 295h164l-275 -295h-102zM199 0v1450h135v-1450h-135z" />
<glyph unicode="&#xce;" horiz-adv-x="532" d="M-27 1540l221 295h143l222 -295h-133l-166 221l-166 -221h-121zM199 0v1450h135v-1450h-135z" />
<glyph unicode="&#xcf;" horiz-adv-x="532" d="M-27 1720q0 41 28.5 70t69.5 29t70 -29t29 -70t-29 -69.5t-70 -28.5t-69.5 28.5t-28.5 69.5zM199 0v1450h135v-1450h-135zM362 1720q0 41 28.5 70t69.5 29t70 -29t29 -70t-29 -69.5t-70 -28.5t-69.5 28.5t-28.5 69.5z" />
<glyph unicode="&#xd0;" horiz-adv-x="1517" d="M20 700v111h160v639h449q188 0 319 -46t218 -118t137.5 -159t74 -166.5t29.5 -144t6 -91.5t-6 -91.5t-29.5 -144t-74 -166.5t-137.5 -159t-218 -118t-319 -46h-449v700h-160zM315 123h279q143 0 268 36t217 109.5t145.5 187t53.5 269.5t-53.5 269.5t-145.5 187 t-217 109.5t-268 36h-279v-516h529v-111h-529v-577z" />
<glyph unicode="&#xd1;" horiz-adv-x="1593" d="M199 0v1450h174l882 -1270h5v1270h135v-1450h-174l-883 1270h-4v-1270h-135zM477 1575q4 35 18.5 73t37.5 66q23 31 55.5 50.5t73.5 19.5t79.5 -16.5t73.5 -34.5q35 -16 68 -31.5t61 -15.5q45 0 67.5 30.5t31.5 67.5h73q-4 -37 -16 -75t-33.5 -67.5t-52.5 -48t-70 -18.5 q-41 0 -79 16.5t-74 32.5q-37 16 -71 32.5t-65 16.5q-47 0 -70.5 -30.5t-33.5 -67.5h-74z" />
<glyph unicode="&#xd2;" horiz-adv-x="1708" d="M104 725q0 166 55.5 305t154 240.5t236.5 159t304 57.5t304 -57.5t236.5 -159t154 -240.5t55.5 -305t-55.5 -306t-154 -241.5t-236.5 -158t-304 -56.5t-304 56.5t-236.5 158t-154 241.5t-55.5 306zM240 725q0 -135 43 -252t122.5 -203t193.5 -135t255 -49t255 49 t193.5 135t122.5 203t43 252t-43 252t-122.5 203t-193.5 135t-255 49t-255 -49t-193.5 -135t-122.5 -203t-43 -252zM596 1835h164l213 -295h-103z" />
<glyph unicode="&#xd3;" horiz-adv-x="1708" d="M104 725q0 166 55.5 305t154 240.5t236.5 159t304 57.5t304 -57.5t236.5 -159t154 -240.5t55.5 -305t-55.5 -306t-154 -241.5t-236.5 -158t-304 -56.5t-304 56.5t-236.5 158t-154 241.5t-55.5 306zM240 725q0 -135 43 -252t122.5 -203t193.5 -135t255 -49t255 49 t193.5 135t122.5 203t43 252t-43 252t-122.5 203t-193.5 135t-255 49t-255 -49t-193.5 -135t-122.5 -203t-43 -252zM735 1540l213 295h164l-275 -295h-102z" />
<glyph unicode="&#xd4;" horiz-adv-x="1708" d="M104 725q0 166 55.5 305t154 240.5t236.5 159t304 57.5t304 -57.5t236.5 -159t154 -240.5t55.5 -305t-55.5 -306t-154 -241.5t-236.5 -158t-304 -56.5t-304 56.5t-236.5 158t-154 241.5t-55.5 306zM240 725q0 -135 43 -252t122.5 -203t193.5 -135t255 -49t255 49 t193.5 135t122.5 203t43 252t-43 252t-122.5 203t-193.5 135t-255 49t-255 -49t-193.5 -135t-122.5 -203t-43 -252zM561 1540l221 295h143l222 -295h-133l-166 221l-166 -221h-121z" />
<glyph unicode="&#xd5;" horiz-adv-x="1708" d="M104 725q0 166 55.5 305t154 240.5t236.5 159t304 57.5t304 -57.5t236.5 -159t154 -240.5t55.5 -305t-55.5 -306t-154 -241.5t-236.5 -158t-304 -56.5t-304 56.5t-236.5 158t-154 241.5t-55.5 306zM240 725q0 -135 43 -252t122.5 -203t193.5 -135t255 -49t255 49 t193.5 135t122.5 203t43 252t-43 252t-122.5 203t-193.5 135t-255 49t-255 -49t-193.5 -135t-122.5 -203t-43 -252zM534 1575q4 35 18.5 73t37.5 66q23 31 55.5 50.5t73.5 19.5t79.5 -16.5t73.5 -34.5q35 -16 68 -31.5t61 -15.5q45 0 67.5 30.5t31.5 67.5h73q-4 -37 -16 -75 t-33.5 -67.5t-52.5 -48t-70 -18.5q-41 0 -79 16.5t-74 32.5q-37 16 -71 32.5t-65 16.5q-47 0 -70.5 -30.5t-33.5 -67.5h-74z" />
<glyph unicode="&#xd6;" horiz-adv-x="1708" d="M104 725q0 166 55.5 305t154 240.5t236.5 159t304 57.5t304 -57.5t236.5 -159t154 -240.5t55.5 -305t-55.5 -306t-154 -241.5t-236.5 -158t-304 -56.5t-304 56.5t-236.5 158t-154 241.5t-55.5 306zM240 725q0 -135 43 -252t122.5 -203t193.5 -135t255 -49t255 49 t193.5 135t122.5 203t43 252t-43 252t-122.5 203t-193.5 135t-255 49t-255 -49t-193.5 -135t-122.5 -203t-43 -252zM561 1720q0 41 28.5 70t69.5 29t70 -29t29 -70t-29 -69.5t-70 -28.5t-69.5 28.5t-28.5 69.5zM950 1720q0 41 28.5 70t69.5 29t70 -29t29 -70t-29 -69.5 t-70 -28.5t-69.5 28.5t-28.5 69.5z" />
<glyph unicode="&#xd7;" horiz-adv-x="1363" d="M205 215l409 406l-405 405l70 70l405 -406l408 406l67 -70l-407 -405l405 -406l-70 -70l-403 408l-408 -408z" />
<glyph unicode="&#xd8;" horiz-adv-x="1708" d="M104 725q0 166 55.5 305t154 240.5t236.5 159t304 57.5q143 0 264 -42t217 -120l152 166l69 -64l-153 -165q96 -100 148.5 -236.5t52.5 -300.5q0 -166 -55.5 -306t-154 -241.5t-236.5 -158t-304 -56.5q-147 0 -270 44t-219 126l-154 -166l-72 64l156 168 q-92 100 -141.5 233t-49.5 293zM240 725q0 -260 145 -430l862 936q-78 63 -176 98t-217 35q-141 0 -255 -49t-193.5 -135t-122.5 -203t-43 -252zM451 227q78 -68 179 -104.5t224 -36.5q141 0 255 49t193.5 135t122.5 203t43 252q0 131 -39.5 243.5t-113.5 196.5z" />
<glyph unicode="&#xd9;" horiz-adv-x="1400" d="M172 555v895h135v-860q0 -78 14.5 -166t56.5 -164t118.5 -125t203.5 -49t204 49t119 125t56.5 164t14.5 166v860h135v-895q0 -117 -26.5 -223.5t-89 -188.5t-164 -131t-249.5 -49q-147 0 -248.5 49t-164 131t-89 188.5t-26.5 223.5zM443 1835h164l213 -295h-103z" />
<glyph unicode="&#xda;" horiz-adv-x="1400" d="M172 555v895h135v-860q0 -78 14.5 -166t56.5 -164t118.5 -125t203.5 -49t204 49t119 125t56.5 164t14.5 166v860h135v-895q0 -117 -26.5 -223.5t-89 -188.5t-164 -131t-249.5 -49q-147 0 -248.5 49t-164 131t-89 188.5t-26.5 223.5zM582 1540l213 295h164l-275 -295h-102 z" />
<glyph unicode="&#xdb;" horiz-adv-x="1400" d="M172 555v895h135v-860q0 -78 14.5 -166t56.5 -164t118.5 -125t203.5 -49t204 49t119 125t56.5 164t14.5 166v860h135v-895q0 -117 -26.5 -223.5t-89 -188.5t-164 -131t-249.5 -49q-147 0 -248.5 49t-164 131t-89 188.5t-26.5 223.5zM408 1540l221 295h143l222 -295h-133 l-166 221l-166 -221h-121z" />
<glyph unicode="&#xdc;" horiz-adv-x="1400" d="M172 555v895h135v-860q0 -78 14.5 -166t56.5 -164t118.5 -125t203.5 -49t204 49t119 125t56.5 164t14.5 166v860h135v-895q0 -117 -26.5 -223.5t-89 -188.5t-164 -131t-249.5 -49q-147 0 -248.5 49t-164 131t-89 188.5t-26.5 223.5zM408 1720q0 41 28.5 70t69.5 29 t70 -29t29 -70t-29 -69.5t-70 -28.5t-69.5 28.5t-28.5 69.5zM797 1720q0 41 28.5 70t69.5 29t70 -29t29 -70t-29 -69.5t-70 -28.5t-69.5 28.5t-28.5 69.5z" />
<glyph unicode="&#xdd;" horiz-adv-x="1175" d="M-12 1450h162l438 -688l448 688h152l-533 -825v-625h-135v625zM469 1540l213 295h164l-275 -295h-102z" />
<glyph unicode="&#xde;" horiz-adv-x="1175" d="M199 0v1450h133v-320h284q76 0 159 -17t151.5 -60t112.5 -118t44 -187q0 -98 -35.5 -170t-96 -118t-139.5 -68.5t-165 -22.5h-313v-369h-135zM334 492h307q57 0 112.5 13t98.5 43t69.5 79t26.5 121q0 70 -27.5 118.5t-71.5 80.5t-101.5 46.5t-114.5 14.5h-299v-516z" />
<glyph unicode="&#xdf;" horiz-adv-x="1214" d="M164 0v1094q0 104 27.5 192t83 151.5t136.5 99.5t185 36q80 0 149.5 -24.5t119.5 -70.5t80 -115t30 -157q0 -121 -55.5 -203.5t-147.5 -111.5v-4q57 -10 114.5 -35t104.5 -74t77 -128t30 -197q0 -111 -38 -198t-105.5 -146.5t-160 -90t-202.5 -30.5q-25 0 -48.5 2 t-47.5 8v119q27 -10 53 -14.5t55 -4.5q82 0 150.5 24.5t118 71t76 112t26.5 145.5q0 96 -32 167.5t-86 117.5t-123.5 68.5t-145.5 22.5h-43v111h30q123 0 200 70.5t77 193.5q0 129 -75 194.5t-191 65.5q-84 0 -141.5 -30.5t-92.5 -84t-50 -124t-15 -148.5v-1075h-123z" />
<glyph unicode="&#xe0;" horiz-adv-x="1062" d="M121 256q0 109 55 172.5t136 95t172 40.5t161 9h143v58q0 123 -75.5 176t-190.5 53q-164 0 -289 -106l-71 84q68 66 168 99.5t192 33.5q172 0 274.5 -81t102.5 -261v-232q0 -70 1 -125t3 -102t5 -88t10 -82h-115q-12 70 -12 154h-5q-53 -92 -132 -135.5t-199 -43.5 q-61 0 -121 15.5t-107 49.5t-76.5 87t-29.5 129zM244 262q0 -43 19.5 -76.5t50 -55t68.5 -33t77 -11.5q98 0 161.5 28.5t101.5 75t52 104.5t14 118v63h-135q-78 0 -150.5 -10t-131 -34.5t-93 -65.5t-34.5 -103zM275 1450h164l213 -295h-103z" />
<glyph unicode="&#xe1;" horiz-adv-x="1062" d="M121 256q0 109 55 172.5t136 95t172 40.5t161 9h143v58q0 123 -75.5 176t-190.5 53q-164 0 -289 -106l-71 84q68 66 168 99.5t192 33.5q172 0 274.5 -81t102.5 -261v-232q0 -70 1 -125t3 -102t5 -88t10 -82h-115q-12 70 -12 154h-5q-53 -92 -132 -135.5t-199 -43.5 q-61 0 -121 15.5t-107 49.5t-76.5 87t-29.5 129zM244 262q0 -43 19.5 -76.5t50 -55t68.5 -33t77 -11.5q98 0 161.5 28.5t101.5 75t52 104.5t14 118v63h-135q-78 0 -150.5 -10t-131 -34.5t-93 -65.5t-34.5 -103zM414 1155l213 295h164l-275 -295h-102z" />
<glyph unicode="&#xe2;" horiz-adv-x="1062" d="M121 256q0 109 55 172.5t136 95t172 40.5t161 9h143v58q0 123 -75.5 176t-190.5 53q-164 0 -289 -106l-71 84q68 66 168 99.5t192 33.5q172 0 274.5 -81t102.5 -261v-232q0 -70 1 -125t3 -102t5 -88t10 -82h-115q-12 70 -12 154h-5q-53 -92 -132 -135.5t-199 -43.5 q-61 0 -121 15.5t-107 49.5t-76.5 87t-29.5 129zM240 1155l221 295h143l222 -295h-133l-166 221l-166 -221h-121zM244 262q0 -43 19.5 -76.5t50 -55t68.5 -33t77 -11.5q98 0 161.5 28.5t101.5 75t52 104.5t14 118v63h-135q-78 0 -150.5 -10t-131 -34.5t-93 -65.5t-34.5 -103 z" />
<glyph unicode="&#xe3;" horiz-adv-x="1062" d="M121 256q0 109 55 172.5t136 95t172 40.5t161 9h143v58q0 123 -75.5 176t-190.5 53q-164 0 -289 -106l-71 84q68 66 168 99.5t192 33.5q172 0 274.5 -81t102.5 -261v-232q0 -70 1 -125t3 -102t5 -88t10 -82h-115q-12 70 -12 154h-5q-53 -92 -132 -135.5t-199 -43.5 q-61 0 -121 15.5t-107 49.5t-76.5 87t-29.5 129zM213 1190q4 35 18.5 72.5t37.5 66.5q23 31 55.5 50.5t73.5 19.5t79.5 -16.5t73.5 -34.5q35 -16 68 -32t61 -16q45 0 67.5 31t31.5 68h73q-4 -37 -16 -75t-33.5 -67.5t-51.5 -48t-71 -18.5t-79 16.5t-74 32.5q-37 16 -71 32.5 t-65 16.5q-47 0 -70.5 -30.5t-33.5 -67.5h-74zM244 262q0 -43 19.5 -76.5t50 -55t68.5 -33t77 -11.5q98 0 161.5 28.5t101.5 75t52 104.5t14 118v63h-135q-78 0 -150.5 -10t-131 -34.5t-93 -65.5t-34.5 -103z" />
<glyph unicode="&#xe4;" horiz-adv-x="1062" d="M121 256q0 109 55 172.5t136 95t172 40.5t161 9h143v58q0 123 -75.5 176t-190.5 53q-164 0 -289 -106l-71 84q68 66 168 99.5t192 33.5q172 0 274.5 -81t102.5 -261v-232q0 -70 1 -125t3 -102t5 -88t10 -82h-115q-12 70 -12 154h-5q-53 -92 -132 -135.5t-199 -43.5 q-61 0 -121 15.5t-107 49.5t-76.5 87t-29.5 129zM240 1335q0 41 28.5 70t69.5 29t70 -29t29 -70t-29 -69.5t-70 -28.5t-69.5 28.5t-28.5 69.5zM244 262q0 -43 19.5 -76.5t50 -55t68.5 -33t77 -11.5q98 0 161.5 28.5t101.5 75t52 104.5t14 118v63h-135q-78 0 -150.5 -10 t-131 -34.5t-93 -65.5t-34.5 -103zM629 1335q0 41 28.5 70t69.5 29t70 -29t29 -70t-29 -69.5t-70 -28.5t-69.5 28.5t-28.5 69.5z" />
<glyph unicode="&#xe5;" horiz-adv-x="1062" d="M121 256q0 109 55 172.5t136 95t172 40.5t161 9h143v58q0 123 -75.5 176t-190.5 53q-164 0 -289 -106l-71 84q68 66 168 99.5t192 33.5q172 0 274.5 -81t102.5 -261v-232q0 -70 1 -125t3 -102t5 -88t10 -82h-115q-12 70 -12 154h-5q-53 -92 -132 -135.5t-199 -43.5 q-61 0 -121 15.5t-107 49.5t-76.5 87t-29.5 129zM244 262q0 -43 19.5 -76.5t50 -55t68.5 -33t77 -11.5q98 0 161.5 28.5t101.5 75t52 104.5t14 118v63h-135q-78 0 -150.5 -10t-131 -34.5t-93 -65.5t-34.5 -103zM342 1329q0 39 15.5 75t41 62.5t60.5 42t76 15.5 q39 0 73.5 -16.5t60.5 -44t40 -62.5t14 -74q0 -37 -14 -71.5t-40 -61.5t-60.5 -43t-73.5 -16q-41 0 -76 15t-60.5 42t-41 62.5t-15.5 74.5zM416 1327q0 -51 34 -85t83 -34q51 0 83.5 35t32.5 86t-32.5 86t-83.5 35t-84 -36t-33 -87z" />
<glyph unicode="&#xe6;" horiz-adv-x="1744" d="M111 256q0 45 17 97.5t66.5 96.5t138.5 73.5t234 29.5h236v18q0 139 -68.5 214t-222.5 75q-164 0 -289 -106l-71 84q68 66 168 99.5t192 33.5q129 0 222 -42t147 -155q27 49 65.5 86t84.5 61.5t96.5 37t99.5 12.5q86 0 163.5 -25.5t136 -81t93.5 -142.5t35 -208v-72h-729 q-4 -74 16.5 -138t61 -112.5t103 -77t146.5 -28.5q88 0 158 40t115 112l96 -70q-80 -104 -169 -148.5t-220 -44.5q-125 0 -223.5 55.5t-149.5 178.5q-59 -127 -169.5 -180.5t-246.5 -53.5q-61 0 -120.5 15.5t-106.5 49.5t-76.5 87t-29.5 129zM233 262q0 -43 19.5 -76.5 t50.5 -55t69 -33t77 -11.5q94 0 161.5 28.5t110.5 77t62.5 113t19.5 137.5h-240q-109 0 -173 -20.5t-99 -48t-46.5 -59t-11.5 -52.5zM926 553h606q0 63 -18.5 119.5t-55.5 97.5t-93 65.5t-134 24.5q-72 0 -128 -24.5t-95 -66.5t-60.5 -97.5t-21.5 -118.5z" />
<glyph unicode="&#xe7;" horiz-adv-x="985" d="M111 473q0 109 36.5 200t102 157.5t158 103.5t200.5 37q104 0 193.5 -43t159.5 -121l-99 -74q-53 59 -116.5 93t-137.5 34q-86 0 -155.5 -30.5t-118.5 -83t-75 -123t-26 -150.5t26 -150.5t75 -123t118.5 -83t155.5 -30.5q78 0 142.5 36t111.5 95l94 -78 q-70 -84 -157.5 -124t-190.5 -40q-18 0 -28 2l-78 -108l4 -4q27 14 63 14q66 0 118 -37t52 -110q0 -47 -20.5 -80t-54 -53.5t-74.5 -30.5t-80 -10q-102 0 -195 43l29 65q68 -35 156 -35q20 0 42.5 5.5t42 15.5t32 26.5t12.5 40.5q0 47 -37 66.5t-78 19.5q-47 0 -90 -16 l-33 31l117 166q-88 14 -162 56t-126 105.5t-80.5 146.5t-28.5 179z" />
<glyph unicode="&#xe8;" d="M111 475q0 106 34.5 196.5t98 157t149.5 104.5t191 38q109 0 191.5 -38t139 -100.5t85 -142.5t28.5 -162v-86h-795q0 -39 15.5 -99t56.5 -117.5t109.5 -98.5t177.5 -41q94 0 182 45t135 123l90 -76q-72 -109 -177 -156t-232 -47q-109 0 -197 37t-151.5 103.5t-97 158 t-33.5 201.5zM233 553h672q0 63 -25.5 118.5t-69.5 97.5t-104.5 66.5t-127.5 24.5q-100 0 -167 -41t-106 -94t-55.5 -103.5t-16.5 -68.5zM312 1450h164l213 -295h-103z" />
<glyph unicode="&#xe9;" d="M111 475q0 106 34.5 196.5t98 157t149.5 104.5t191 38q109 0 191.5 -38t139 -100.5t85 -142.5t28.5 -162v-86h-795q0 -39 15.5 -99t56.5 -117.5t109.5 -98.5t177.5 -41q94 0 182 45t135 123l90 -76q-72 -109 -177 -156t-232 -47q-109 0 -197 37t-151.5 103.5t-97 158 t-33.5 201.5zM233 553h672q0 63 -25.5 118.5t-69.5 97.5t-104.5 66.5t-127.5 24.5q-100 0 -167 -41t-106 -94t-55.5 -103.5t-16.5 -68.5zM451 1155l213 295h164l-275 -295h-102z" />
<glyph unicode="&#xea;" d="M111 475q0 106 34.5 196.5t98 157t149.5 104.5t191 38q109 0 191.5 -38t139 -100.5t85 -142.5t28.5 -162v-86h-795q0 -39 15.5 -99t56.5 -117.5t109.5 -98.5t177.5 -41q94 0 182 45t135 123l90 -76q-72 -109 -177 -156t-232 -47q-109 0 -197 37t-151.5 103.5t-97 158 t-33.5 201.5zM233 553h672q0 63 -25.5 118.5t-69.5 97.5t-104.5 66.5t-127.5 24.5q-100 0 -167 -41t-106 -94t-55.5 -103.5t-16.5 -68.5zM277 1155l221 295h143l222 -295h-133l-166 221l-166 -221h-121z" />
<glyph unicode="&#xeb;" d="M111 475q0 106 34.5 196.5t98 157t149.5 104.5t191 38q109 0 191.5 -38t139 -100.5t85 -142.5t28.5 -162v-86h-795q0 -39 15.5 -99t56.5 -117.5t109.5 -98.5t177.5 -41q94 0 182 45t135 123l90 -76q-72 -109 -177 -156t-232 -47q-109 0 -197 37t-151.5 103.5t-97 158 t-33.5 201.5zM233 553h672q0 63 -25.5 118.5t-69.5 97.5t-104.5 66.5t-127.5 24.5q-100 0 -167 -41t-106 -94t-55.5 -103.5t-16.5 -68.5zM277 1335q0 41 28.5 70t69.5 29t70 -29t29 -70t-29 -69.5t-70 -28.5t-69.5 28.5t-28.5 69.5zM666 1335q0 41 28.5 70t69.5 29t70 -29 t29 -70t-29 -69.5t-70 -28.5t-69.5 28.5t-28.5 69.5z" />
<glyph unicode="&#xec;" horiz-adv-x="491" d="M-12 1450h164l213 -295h-103zM184 0v946h123v-946h-123z" />
<glyph unicode="&#xed;" horiz-adv-x="491" d="M127 1155l213 295h164l-275 -295h-102zM184 0v946h123v-946h-123z" />
<glyph unicode="&#xee;" horiz-adv-x="491" d="M-47 1155l221 295h143l222 -295h-133l-166 221l-166 -221h-121zM184 0v946h123v-946h-123z" />
<glyph unicode="&#xef;" horiz-adv-x="491" d="M-47 1335q0 41 28.5 70t69.5 29t70 -29t29 -70t-29 -69.5t-70 -28.5t-69.5 28.5t-28.5 69.5zM184 0v946h123v-946h-123zM342 1335q0 41 28.5 70t69.5 29t70 -29t29 -70t-29 -69.5t-70 -28.5t-69.5 28.5t-28.5 69.5z" />
<glyph unicode="&#xf0;" horiz-adv-x="1216" d="M111 473q0 109 36.5 200t102 157.5t158 103.5t200.5 37q86 0 163 -26.5t142 -86.5l5 4q-78 137 -166 247t-164 177l-219 -117l-64 68l213 115q-47 43 -100 87t-92 72l106 62q47 -35 100.5 -79t94.5 -85l213 115l73 -62l-217 -116q45 -41 115 -115t135.5 -177.5 t112.5 -236.5t47 -293q0 -127 -37 -229t-103.5 -173t-157.5 -109t-200 -38t-201 37t-157.5 103.5t-102 158t-36.5 199.5zM233 473q0 -80 26 -150.5t75 -123t118.5 -83t155.5 -30.5t156 30.5t119 83t74.5 123t25.5 150.5t-25.5 150.5t-74.5 123t-119 83t-156 30.5 t-155.5 -30.5t-118.5 -83t-75 -123t-26 -150.5z" />
<glyph unicode="&#xf1;" d="M154 946h122q2 -53 3.5 -102t5.5 -64h6q37 78 123 134.5t200 56.5q111 0 180.5 -35t109.5 -91.5t55.5 -130t15.5 -151.5v-563h-123v557q0 57 -10.5 111.5t-36 97.5t-71.5 68.5t-120 25.5q-68 0 -128 -23.5t-104 -71.5t-69.5 -121t-25.5 -171v-473h-123v680q0 27 -2 64.5 t-3 76.5t-3 73t-2 52zM250 1190q4 35 18.5 72.5t37.5 66.5q23 31 55.5 50.5t73.5 19.5t79.5 -16.5t73.5 -34.5q35 -16 68 -32t61 -16q45 0 67.5 31t31.5 68h73q-4 -37 -16 -75t-33.5 -67.5t-51.5 -48t-71 -18.5t-79 16.5t-74 32.5q-37 16 -71 32.5t-65 16.5 q-47 0 -70.5 -30.5t-33.5 -67.5h-74z" />
<glyph unicode="&#xf2;" horiz-adv-x="1216" d="M111 473q0 109 36.5 200t102 157.5t158 103.5t200.5 37q109 0 200 -37t157.5 -103.5t103.5 -157.5t37 -200t-37 -200t-103.5 -157.5t-157.5 -103.5t-200 -37t-201 37t-157.5 103.5t-102 157.5t-36.5 200zM233 473q0 -80 26 -150.5t75 -123t118.5 -83t155.5 -30.5 t156 30.5t119 83t74.5 123t25.5 150.5t-25.5 150.5t-74.5 123t-119 83t-156 30.5t-155.5 -30.5t-118.5 -83t-75 -123t-26 -150.5zM350 1450h164l213 -295h-103z" />
<glyph unicode="&#xf3;" horiz-adv-x="1216" d="M111 473q0 109 36.5 200t102 157.5t158 103.5t200.5 37q109 0 200 -37t157.5 -103.5t103.5 -157.5t37 -200t-37 -200t-103.5 -157.5t-157.5 -103.5t-200 -37t-201 37t-157.5 103.5t-102 157.5t-36.5 200zM233 473q0 -80 26 -150.5t75 -123t118.5 -83t155.5 -30.5 t156 30.5t119 83t74.5 123t25.5 150.5t-25.5 150.5t-74.5 123t-119 83t-156 30.5t-155.5 -30.5t-118.5 -83t-75 -123t-26 -150.5zM489 1155l213 295h164l-275 -295h-102z" />
<glyph unicode="&#xf4;" horiz-adv-x="1216" d="M111 473q0 109 36.5 200t102 157.5t158 103.5t200.5 37q109 0 200 -37t157.5 -103.5t103.5 -157.5t37 -200t-37 -200t-103.5 -157.5t-157.5 -103.5t-200 -37t-201 37t-157.5 103.5t-102 157.5t-36.5 200zM233 473q0 -80 26 -150.5t75 -123t118.5 -83t155.5 -30.5 t156 30.5t119 83t74.5 123t25.5 150.5t-25.5 150.5t-74.5 123t-119 83t-156 30.5t-155.5 -30.5t-118.5 -83t-75 -123t-26 -150.5zM315 1155l221 295h143l222 -295h-133l-166 221l-166 -221h-121z" />
<glyph unicode="&#xf5;" horiz-adv-x="1216" d="M111 473q0 109 36.5 200t102 157.5t158 103.5t200.5 37q109 0 200 -37t157.5 -103.5t103.5 -157.5t37 -200t-37 -200t-103.5 -157.5t-157.5 -103.5t-200 -37t-201 37t-157.5 103.5t-102 157.5t-36.5 200zM233 473q0 -80 26 -150.5t75 -123t118.5 -83t155.5 -30.5 t156 30.5t119 83t74.5 123t25.5 150.5t-25.5 150.5t-74.5 123t-119 83t-156 30.5t-155.5 -30.5t-118.5 -83t-75 -123t-26 -150.5zM288 1190q4 35 18.5 72.5t37.5 66.5q23 31 55.5 50.5t73.5 19.5t79.5 -16.5t73.5 -34.5q35 -16 68 -32t61 -16q45 0 67.5 31t31.5 68h73 q-4 -37 -16 -75t-33.5 -67.5t-51.5 -48t-71 -18.5t-79 16.5t-74 32.5q-37 16 -71 32.5t-65 16.5q-47 0 -70.5 -30.5t-33.5 -67.5h-74z" />
<glyph unicode="&#xf6;" horiz-adv-x="1216" d="M111 473q0 109 36.5 200t102 157.5t158 103.5t200.5 37q109 0 200 -37t157.5 -103.5t103.5 -157.5t37 -200t-37 -200t-103.5 -157.5t-157.5 -103.5t-200 -37t-201 37t-157.5 103.5t-102 157.5t-36.5 200zM233 473q0 -80 26 -150.5t75 -123t118.5 -83t155.5 -30.5 t156 30.5t119 83t74.5 123t25.5 150.5t-25.5 150.5t-74.5 123t-119 83t-156 30.5t-155.5 -30.5t-118.5 -83t-75 -123t-26 -150.5zM315 1335q0 41 28.5 70t69.5 29t70 -29t29 -70t-29 -69.5t-70 -28.5t-69.5 28.5t-28.5 69.5zM704 1335q0 41 28.5 70t69.5 29t70 -29t29 -70 t-29 -69.5t-70 -28.5t-69.5 28.5t-28.5 69.5z" />
<glyph unicode="&#xf7;" horiz-adv-x="1363" d="M160 571v99h1044v-99h-1044zM578 305q0 45 30.5 74t73.5 31q43 0 73.5 -31t30.5 -74t-30.5 -73.5t-73.5 -30.5t-73.5 30.5t-30.5 73.5zM578 936q0 43 30.5 73.5t73.5 30.5t73.5 -30.5t30.5 -73.5t-30.5 -74t-73.5 -31t-73.5 31t-30.5 74z" />
<glyph unicode="&#xf8;" horiz-adv-x="1216" d="M80 4l143 146q-113 131 -112 323q0 109 36.5 200t102 157.5t158 103.5t200.5 37q96 0 177 -29t145 -80l141 144l66 -60l-146 -145q55 -63 85 -146.5t30 -181.5q0 -109 -37 -200t-103.5 -157.5t-157.5 -103.5t-200 -37q-98 0 -180 29t-143 82l-140 -141zM233 473 q0 -68 18.5 -129t55.5 -108l539 542q-47 39 -106.5 60.5t-131.5 21.5q-86 0 -155.5 -30.5t-118.5 -83t-75 -123t-26 -150.5zM369 170q45 -41 105.5 -62.5t133.5 -21.5q86 0 156 30.5t119 83t74.5 123t25.5 150.5q0 72 -19.5 133.5t-56.5 108.5z" />
<glyph unicode="&#xf9;" d="M154 383v563h122v-557q0 -57 10.5 -111.5t36 -97.5t71.5 -68.5t120 -25.5q68 0 128 23.5t104.5 71.5t70 121t25.5 171v473h123v-680q0 -27 2 -64.5t3 -76.5t3 -73t2 -52h-123q-2 53 -3 102.5t-5 63.5h-6q-37 -78 -123 -134.5t-201 -56.5q-111 0 -181.5 35t-110.5 91.5 t-54 130t-14 151.5zM312 1450h164l213 -295h-103z" />
<glyph unicode="&#xfa;" d="M154 383v563h122v-557q0 -57 10.5 -111.5t36 -97.5t71.5 -68.5t120 -25.5q68 0 128 23.5t104.5 71.5t70 121t25.5 171v473h123v-680q0 -27 2 -64.5t3 -76.5t3 -73t2 -52h-123q-2 53 -3 102.5t-5 63.5h-6q-37 -78 -123 -134.5t-201 -56.5q-111 0 -181.5 35t-110.5 91.5 t-54 130t-14 151.5zM451 1155l213 295h164l-275 -295h-102z" />
<glyph unicode="&#xfb;" d="M154 383v563h122v-557q0 -57 10.5 -111.5t36 -97.5t71.5 -68.5t120 -25.5q68 0 128 23.5t104.5 71.5t70 121t25.5 171v473h123v-680q0 -27 2 -64.5t3 -76.5t3 -73t2 -52h-123q-2 53 -3 102.5t-5 63.5h-6q-37 -78 -123 -134.5t-201 -56.5q-111 0 -181.5 35t-110.5 91.5 t-54 130t-14 151.5zM277 1155l221 295h143l222 -295h-133l-166 221l-166 -221h-121z" />
<glyph unicode="&#xfc;" d="M154 383v563h122v-557q0 -57 10.5 -111.5t36 -97.5t71.5 -68.5t120 -25.5q68 0 128 23.5t104.5 71.5t70 121t25.5 171v473h123v-680q0 -27 2 -64.5t3 -76.5t3 -73t2 -52h-123q-2 53 -3 102.5t-5 63.5h-6q-37 -78 -123 -134.5t-201 -56.5q-111 0 -181.5 35t-110.5 91.5 t-54 130t-14 151.5zM277 1335q0 41 28.5 70t69.5 29t70 -29t29 -70t-29 -69.5t-70 -28.5t-69.5 28.5t-28.5 69.5zM666 1335q0 41 28.5 70t69.5 29t70 -29t29 -70t-29 -69.5t-70 -28.5t-69.5 28.5t-28.5 69.5z" />
<glyph unicode="&#xfd;" horiz-adv-x="948" d="M31 946h137l313 -796l305 796h132l-488 -1239q-35 -92 -96.5 -145.5t-163.5 -53.5q-31 0 -61.5 5.5t-59.5 13.5l12 115q27 -8 54.5 -15.5t56.5 -7.5q33 0 58.5 14.5t44 37t31.5 50t24 56.5l86 219zM356 1155l213 295h164l-275 -295h-102z" />
<glyph unicode="&#xfe;" horiz-adv-x="1251" d="M137 -467v2015h123v-768h4q29 49 72 85t93 59.5t105.5 35t108.5 11.5q109 0 200 -37t157.5 -103.5t103.5 -157.5t37 -200t-37 -200t-103.5 -157.5t-157.5 -103.5t-200 -37q-53 0 -108.5 11.5t-105.5 35t-93 59.5t-72 85h-4v-633h-123zM248 473q0 -80 30.5 -150.5t84 -123 t125 -83t155.5 -30.5q86 0 155.5 30.5t119 83t75 123t25.5 150.5t-25.5 150.5t-75 123t-119 83t-155.5 30.5q-84 0 -155.5 -30.5t-125 -83t-84 -123t-30.5 -150.5z" />
<glyph unicode="&#xff;" horiz-adv-x="948" d="M31 946h137l313 -796l305 796h132l-488 -1239q-35 -92 -96.5 -145.5t-163.5 -53.5q-31 0 -61.5 5.5t-59.5 13.5l12 115q27 -8 54.5 -15.5t56.5 -7.5q33 0 58.5 14.5t44 37t31.5 50t24 56.5l86 219zM182 1335q0 41 28.5 70t69.5 29t70 -29t29 -70t-29 -69.5t-70 -28.5 t-69.5 28.5t-28.5 69.5zM571 1335q0 41 28.5 70t69.5 29t70 -29t29 -70t-29 -69.5t-70 -28.5t-69.5 28.5t-28.5 69.5z" />
<glyph unicode="&#x100;" horiz-adv-x="1402" d="M10 0l633 1450h139l611 -1450h-152l-158 385h-768l-163 -385h-142zM369 508h665l-327 795zM436 1636v99h541v-99h-541z" />
<glyph unicode="&#x101;" horiz-adv-x="1062" d="M121 256q0 109 55 172.5t136 95t172 40.5t161 9h143v58q0 123 -75.5 176t-190.5 53q-164 0 -289 -106l-71 84q68 66 168 99.5t192 33.5q172 0 274.5 -81t102.5 -261v-232q0 -70 1 -125t3 -102t5 -88t10 -82h-115q-12 70 -12 154h-5q-53 -92 -132 -135.5t-199 -43.5 q-61 0 -121 15.5t-107 49.5t-76.5 87t-29.5 129zM244 262q0 -43 19.5 -76.5t50 -55t68.5 -33t77 -11.5q98 0 161.5 28.5t101.5 75t52 104.5t14 118v63h-135q-78 0 -150.5 -10t-131 -34.5t-93 -65.5t-34.5 -103zM286 1241v98h541v-98h-541z" />
<glyph unicode="&#x102;" horiz-adv-x="1402" d="M10 0l633 1450h139l611 -1450h-152l-158 385h-768l-163 -385h-142zM369 508h665l-327 795zM451 1804h86q12 -82 68.5 -120.5t136.5 -38.5q92 0 142 33.5t71 125.5h86q-14 -123 -95 -190.5t-204 -67.5t-204 67.5t-87 190.5z" />
<glyph unicode="&#x103;" horiz-adv-x="1062" d="M121 256q0 109 55 172.5t136 95t172 40.5t161 9h143v58q0 123 -75.5 176t-190.5 53q-164 0 -289 -106l-71 84q68 66 168 99.5t192 33.5q172 0 274.5 -81t102.5 -261v-232q0 -70 1 -125t3 -102t5 -88t10 -82h-115q-12 70 -12 154h-5q-53 -92 -132 -135.5t-199 -43.5 q-61 0 -121 15.5t-107 49.5t-76.5 87t-29.5 129zM244 262q0 -43 19.5 -76.5t50 -55t68.5 -33t77 -11.5q98 0 161.5 28.5t101.5 75t52 104.5t14 118v63h-135q-78 0 -150.5 -10t-131 -34.5t-93 -65.5t-34.5 -103zM262 1450h86q12 -82 68.5 -121t136.5 -39q92 0 142 35t71 125 h86q-14 -123 -95 -190.5t-204 -67.5q-121 0 -203 67.5t-88 190.5z" />
<glyph unicode="&#x104;" horiz-adv-x="1402" d="M10 0l633 1450h139l611 -1450h-60q-23 -16 -48 -43t-48 -59.5t-38 -69.5t-15 -76q0 -96 88 -96q43 0 70.5 15.5t41.5 31.5l39 -78q-33 -29 -74.5 -48t-99.5 -19q-82 0 -135 45t-53 123q0 43 16.5 81.5t42 72.5t58 64.5t63.5 55.5l-158 385h-768l-163 -385h-142zM369 508 h665l-327 795z" />
<glyph unicode="&#x105;" horiz-adv-x="1062" d="M121 256q0 109 55 172.5t136 95t171 40.5t162 9h143v58q0 123 -74.5 176t-191.5 53q-164 0 -289 -106l-71 84q68 66 168 99.5t192 33.5q172 0 274.5 -81t102.5 -261v-232q0 -70 1 -125t2 -102t5 -88t11 -82h-23q-23 -16 -48.5 -43t-48 -59.5t-38 -69.5t-15.5 -76 q0 -96 89 -96q43 0 70.5 15.5t41.5 31.5l39 -78q-33 -29 -75 -48t-99 -19q-82 0 -135 45t-53 123q0 43 16 81.5t42 72.5t58.5 64.5t63.5 55.5q-12 70 -12 154h-5q-53 -92 -130.5 -135.5t-200.5 -43.5q-61 0 -121 15.5t-107 49.5t-76.5 87t-29.5 129zM244 262 q0 -43 19.5 -76.5t50 -55t68.5 -33t77 -11.5q98 0 161.5 28.5t101.5 75t52 104.5t14 118v63h-135q-78 0 -150.5 -10t-131 -34.5t-93 -65.5t-34.5 -103z" />
<glyph unicode="&#x106;" horiz-adv-x="1441" d="M104 725q0 166 55.5 305t154 240.5t236.5 159t304 57.5q147 0 275 -52.5t225 -174.5l-111 -93q-68 102 -173 149.5t-216 47.5q-141 0 -255 -49t-193.5 -135t-122.5 -203t-43 -252t43 -252t122.5 -203t193.5 -135t255 -49q55 0 114.5 13.5t116 41t107.5 69.5t90 101 l111 -84q-104 -141 -241.5 -202.5t-297.5 -61.5q-166 0 -304 56.5t-236.5 158t-154 241.5t-55.5 306zM698 1540l213 295h164l-275 -295h-102z" />
<glyph unicode="&#x107;" horiz-adv-x="985" d="M111 473q0 109 36.5 200t102 157.5t158 103.5t200.5 37q104 0 193.5 -43t159.5 -121l-99 -74q-53 59 -116.5 93t-137.5 34q-86 0 -155.5 -30.5t-118.5 -83t-75 -123t-26 -150.5t26 -150.5t75 -123t118.5 -83t155.5 -30.5q78 0 142.5 36t111.5 95l94 -78 q-70 -84 -157.5 -124t-190.5 -40q-109 0 -201 37t-157.5 103.5t-102 158t-36.5 199.5zM485 1155l213 295h164l-275 -295h-102z" />
<glyph unicode="&#x108;" horiz-adv-x="1441" d="M104 725q0 166 55.5 305t154 240.5t236.5 159t304 57.5q147 0 275 -52.5t225 -174.5l-111 -93q-68 102 -173 149.5t-216 47.5q-141 0 -255 -49t-193.5 -135t-122.5 -203t-43 -252t43 -252t122.5 -203t193.5 -135t255 -49q55 0 114.5 13.5t116 41t107.5 69.5t90 101 l111 -84q-104 -141 -241.5 -202.5t-297.5 -61.5q-166 0 -304 56.5t-236.5 158t-154 241.5t-55.5 306zM561 1540l221 295h143l222 -295h-133l-166 221l-166 -221h-121z" />
<glyph unicode="&#x109;" horiz-adv-x="985" d="M111 473q0 109 36.5 200t102 157.5t158 103.5t200.5 37q104 0 193.5 -43t159.5 -121l-99 -74q-53 59 -116.5 93t-137.5 34q-86 0 -155.5 -30.5t-118.5 -83t-75 -123t-26 -150.5t26 -150.5t75 -123t118.5 -83t155.5 -30.5q78 0 142.5 36t111.5 95l94 -78 q-70 -84 -157.5 -124t-190.5 -40q-109 0 -201 37t-157.5 103.5t-102 158t-36.5 199.5zM309 1155l221 295h143l222 -295h-133l-166 221l-166 -221h-121z" />
<glyph unicode="&#x10a;" horiz-adv-x="1441" d="M104 725q0 166 55.5 305t154 240.5t236.5 159t304 57.5q147 0 275 -52.5t225 -174.5l-111 -93q-68 102 -173 149.5t-216 47.5q-141 0 -255 -49t-193.5 -135t-122.5 -203t-43 -252t43 -252t122.5 -203t193.5 -135t255 -49q55 0 114.5 13.5t116 41t107.5 69.5t90 101 l111 -84q-104 -141 -241.5 -202.5t-297.5 -61.5q-166 0 -304 56.5t-236.5 158t-154 241.5t-55.5 306zM762 1720q0 41 28.5 70t69.5 29t69.5 -29t28.5 -70t-28.5 -69.5t-69.5 -28.5t-69.5 28.5t-28.5 69.5z" />
<glyph unicode="&#x10b;" horiz-adv-x="985" d="M111 473q0 109 36.5 200t102 157.5t158 103.5t200.5 37q104 0 193.5 -43t159.5 -121l-99 -74q-53 59 -116.5 93t-137.5 34q-86 0 -155.5 -30.5t-118.5 -83t-75 -123t-26 -150.5t26 -150.5t75 -123t118.5 -83t155.5 -30.5q78 0 142.5 36t111.5 95l94 -78 q-70 -84 -157.5 -124t-190.5 -40q-109 0 -201 37t-157.5 103.5t-102 158t-36.5 199.5zM510 1335q0 41 28.5 70t69.5 29t69.5 -29t28.5 -70t-28.5 -69.5t-69.5 -28.5t-69.5 28.5t-28.5 69.5z" />
<glyph unicode="&#x10c;" horiz-adv-x="1441" d="M104 725q0 166 55.5 305t154 240.5t236.5 159t304 57.5q147 0 275 -52.5t225 -174.5l-111 -93q-68 102 -173 149.5t-216 47.5q-141 0 -255 -49t-193.5 -135t-122.5 -203t-43 -252t43 -252t122.5 -203t193.5 -135t255 -49q55 0 114.5 13.5t116 41t107.5 69.5t90 101 l111 -84q-104 -141 -241.5 -202.5t-297.5 -61.5q-166 0 -304 56.5t-236.5 158t-154 241.5t-55.5 306zM555 1835h127l170 -233l176 233h110l-217 -295h-143z" />
<glyph unicode="&#x10d;" horiz-adv-x="985" d="M111 473q0 109 36.5 200t102 157.5t158 103.5t200.5 37q104 0 193.5 -43t159.5 -121l-99 -74q-53 59 -116.5 93t-137.5 34q-86 0 -155.5 -30.5t-118.5 -83t-75 -123t-26 -150.5t26 -150.5t75 -123t118.5 -83t155.5 -30.5q78 0 142.5 36t111.5 95l94 -78 q-70 -84 -157.5 -124t-190.5 -40q-109 0 -201 37t-157.5 103.5t-102 158t-36.5 199.5zM303 1450h127l170 -233l176 233h110l-217 -295h-143z" />
<glyph unicode="&#x10e;" horiz-adv-x="1517" d="M180 0v1450h449q188 0 319 -46t218 -118t137.5 -159t74 -166.5t29.5 -144t6 -91.5t-6 -91.5t-29.5 -144t-74 -166.5t-137.5 -159t-218 -118t-319 -46h-449zM315 123h279q143 0 268 36t217 109.5t145.5 187t53.5 269.5t-53.5 269.5t-145.5 187t-217 109.5t-268 36h-279 v-1204zM371 1835h127l170 -233l176 233h110l-217 -295h-143z" />
<glyph unicode="&#x10f;" horiz-adv-x="1251" d="M111 473q0 109 36.5 200t102 157.5t158 103.5t200.5 37q53 0 108.5 -11.5t105.5 -35t93 -59.5t72 -85h4v768h123v-1548h-123v166h-4q-29 -49 -72 -85t-93 -59.5t-105 -35t-109 -11.5q-109 0 -201 37t-157.5 103.5t-102 158t-36.5 199.5zM233 473q0 -80 26 -150.5t75 -123 t118.5 -83t155.5 -30.5q84 0 156 30.5t125 83t84 123t31 150.5t-31 150.5t-84 123t-125 83t-156 30.5q-86 0 -155.5 -30.5t-118.5 -83t-75 -123t-26 -150.5zM1264 1071l104 379h134l-129 -379h-109z" />
<glyph unicode="&#x110;" horiz-adv-x="1517" d="M20 700v111h160v639h449q188 0 319 -46t218 -118t137.5 -159t74 -166.5t29.5 -144t6 -91.5t-6 -91.5t-29.5 -144t-74 -166.5t-137.5 -159t-218 -118t-319 -46h-449v700h-160zM315 123h279q143 0 268 36t217 109.5t145.5 187t53.5 269.5t-53.5 269.5t-145.5 187 t-217 109.5t-268 36h-279v-516h529v-111h-529v-577z" />
<glyph unicode="&#x111;" horiz-adv-x="1251" d="M111 473q0 109 36.5 200t102 157.5t158 103.5t200.5 37q53 0 108.5 -11.5t105.5 -35t93 -59.5t72 -85h4v410h-332v108h332v250h123v-250h148v-108h-148v-1190h-123v166h-4q-29 -49 -72 -85t-93 -59.5t-105 -35t-109 -11.5q-109 0 -201 37t-157.5 103.5t-102 158 t-36.5 199.5zM233 473q0 -80 26 -150.5t75 -123t118.5 -83t155.5 -30.5q82 0 155 30.5t126 83t84 123t31 150.5t-31 150.5t-84 123t-126 83t-155 30.5q-86 0 -155.5 -30.5t-118.5 -83t-75 -123t-26 -150.5z" />
<glyph unicode="&#x112;" horiz-adv-x="1214" d="M199 0v1450h886v-123h-751v-516h704v-123h-704v-565h784v-123h-919zM387 1636v99h541v-99h-541z" />
<glyph unicode="&#x113;" d="M111 475q0 106 34.5 196.5t98 157t149.5 104.5t191 38q109 0 191.5 -38t139 -100.5t85 -142.5t28.5 -162v-86h-795q0 -39 15.5 -99t56.5 -117.5t109.5 -98.5t177.5 -41q94 0 182 45t135 123l90 -76q-72 -109 -177 -156t-232 -47q-109 0 -197 37t-151.5 103.5t-97 158 t-33.5 201.5zM233 553h672q0 63 -25.5 118.5t-69.5 97.5t-104.5 66.5t-127.5 24.5q-100 0 -167 -41t-106 -94t-55.5 -103.5t-16.5 -68.5zM331 1241v98h541v-98h-541z" />
<glyph unicode="&#x114;" horiz-adv-x="1214" d="M199 0v1450h886v-123h-751v-516h704v-123h-704v-565h784v-123h-919zM363 1804h86q12 -82 68.5 -120.5t136.5 -38.5q92 0 142 33.5t71 125.5h86q-14 -123 -95 -190.5t-204 -67.5t-204 67.5t-87 190.5z" />
<glyph unicode="&#x115;" d="M111 475q0 106 34.5 196.5t98 157t149.5 104.5t191 38q109 0 191.5 -38t139 -100.5t85 -142.5t28.5 -162v-86h-795q0 -39 15.5 -99t56.5 -117.5t109.5 -98.5t177.5 -41q94 0 182 45t135 123l90 -76q-72 -109 -177 -156t-232 -47q-109 0 -197 37t-151.5 103.5t-97 158 t-33.5 201.5zM233 553h672q0 63 -25.5 118.5t-69.5 97.5t-104.5 66.5t-127.5 24.5q-100 0 -167 -41t-106 -94t-55.5 -103.5t-16.5 -68.5zM307 1450h86q12 -82 68.5 -121t136.5 -39q92 0 142 35t71 125h86q-14 -123 -95 -190.5t-204 -67.5q-121 0 -203 67.5t-88 190.5z" />
<glyph unicode="&#x116;" horiz-adv-x="1214" d="M199 0v1450h886v-123h-751v-516h704v-123h-704v-565h784v-123h-919zM566 1720q0 41 28.5 70t69.5 29t69.5 -29t28.5 -70t-28.5 -69.5t-69.5 -28.5t-69.5 28.5t-28.5 69.5z" />
<glyph unicode="&#x117;" d="M111 475q0 106 34.5 196.5t98 157t149.5 104.5t191 38q109 0 191.5 -38t139 -100.5t85 -142.5t28.5 -162v-86h-795q0 -39 15.5 -99t56.5 -117.5t109.5 -98.5t177.5 -41q94 0 182 45t135 123l90 -76q-72 -109 -177 -156t-232 -47q-109 0 -197 37t-151.5 103.5t-97 158 t-33.5 201.5zM233 553h672q0 63 -25.5 118.5t-69.5 97.5t-104.5 66.5t-127.5 24.5q-100 0 -167 -41t-106 -94t-55.5 -103.5t-16.5 -68.5zM510 1335q0 41 28.5 70t69.5 29t69.5 -29t28.5 -70t-28.5 -69.5t-69.5 -28.5t-69.5 28.5t-28.5 69.5z" />
<glyph unicode="&#x118;" horiz-adv-x="1214" d="M199 0v1450h886v-123h-751v-516h704v-123h-704v-565h784v-123h-106q-23 -16 -48.5 -43t-48 -59.5t-38 -69.5t-15.5 -76q0 -96 88 -96q43 0 71 15.5t42 31.5l39 -78q-33 -29 -75 -48t-99 -19q-82 0 -135.5 45t-53.5 123q0 43 16.5 81.5t42 72.5t58.5 64.5t64 55.5h-721z " />
<glyph unicode="&#x119;" d="M111 475q0 106 34.5 196.5t98 157t149.5 104.5t191 38q109 0 191.5 -38t139 -100.5t85 -142.5t28.5 -162v-86h-795q0 -39 15.5 -99t56.5 -117.5t109.5 -98.5t177.5 -41q47 0 93 11.5t88 33t77 53t59 70.5l90 -76q-59 -88 -139 -135t-178 -61q-43 -37 -85 -98.5 t-42 -131.5q0 -96 88 -96q43 0 70.5 15.5t42.5 31.5l39 -78q-33 -29 -75 -48t-99 -19q-82 0 -135.5 45t-53.5 123q0 76 46 139t104 110q-106 2 -193.5 40t-149 103.5t-95 157t-33.5 199.5zM233 553h672q0 63 -25.5 118.5t-69.5 97.5t-104.5 66.5t-127.5 24.5 q-100 0 -167 -41t-106 -94t-55.5 -103.5t-16.5 -68.5z" />
<glyph unicode="&#x11a;" horiz-adv-x="1214" d="M199 0v1450h886v-123h-751v-516h704v-123h-704v-565h784v-123h-919zM359 1835h127l170 -233l176 233h110l-217 -295h-143z" />
<glyph unicode="&#x11b;" d="M111 475q0 106 34.5 196.5t98 157t149.5 104.5t191 38q109 0 191.5 -38t139 -100.5t85 -142.5t28.5 -162v-86h-795q0 -39 15.5 -99t56.5 -117.5t109.5 -98.5t177.5 -41q94 0 182 45t135 123l90 -76q-72 -109 -177 -156t-232 -47q-109 0 -197 37t-151.5 103.5t-97 158 t-33.5 201.5zM233 553h672q0 63 -25.5 118.5t-69.5 97.5t-104.5 66.5t-127.5 24.5q-100 0 -167 -41t-106 -94t-55.5 -103.5t-16.5 -68.5zM303 1450h127l170 -233l176 233h110l-217 -295h-143z" />
<glyph unicode="&#x11c;" horiz-adv-x="1593" d="M104 725q0 166 55.5 305t154 240.5t236.5 159t304 57.5q324 0 522 -201l-98 -102q-33 39 -81 72.5t-104.5 57t-118 37t-120.5 13.5q-141 0 -255 -49t-193.5 -135t-122.5 -203t-43 -252t43 -252t122.5 -203t193.5 -135t255 -49q117 0 219.5 18.5t186.5 67.5v487h-349v123 h484v-688q-127 -72 -263.5 -101.5t-277.5 -29.5q-166 0 -304 56.5t-236.5 158t-154 241.5t-55.5 306zM557 1540l221 295h143l222 -295h-133l-166 221l-166 -221h-121z" />
<glyph unicode="&#x11d;" horiz-adv-x="1251" d="M123 485q0 100 40 188.5t108.5 154t160.5 104.5t197 39q123 0 214 -49.5t144 -135.5h4v160h123v-885q0 -176 -51 -284.5t-128 -168t-165 -80t-160 -20.5t-140.5 13.5t-129.5 39t-111.5 62.5t-87.5 84l97 90q66 -92 164 -135t208 -43q94 0 159 24.5t107 64.5t65.5 88 t34.5 96.5t13 91.5t2 69v131h-4q-53 -86 -144 -135t-214 -49q-104 0 -196.5 38t-161 104.5t-108.5 154.5t-40 188zM246 485q0 -78 29.5 -146.5t80 -118.5t119 -79.5t146.5 -29.5t146.5 29.5t118.5 79.5t79.5 118.5t29.5 146.5t-29.5 146.5t-79.5 119t-119 80t-146 29.5 q-78 0 -146.5 -29.5t-119 -80t-80 -119t-29.5 -146.5zM381 1155l221 295h143l222 -295h-133l-166 221l-166 -221h-121z" />
<glyph unicode="&#x11e;" horiz-adv-x="1593" d="M104 725q0 166 55.5 305t154 240.5t236.5 159t304 57.5q324 0 522 -201l-98 -102q-33 39 -81 72.5t-104.5 57t-118 37t-120.5 13.5q-141 0 -255 -49t-193.5 -135t-122.5 -203t-43 -252t43 -252t122.5 -203t193.5 -135t255 -49q117 0 219.5 18.5t186.5 67.5v487h-349v123 h484v-688q-127 -72 -263.5 -101.5t-277.5 -29.5q-166 0 -304 56.5t-236.5 158t-154 241.5t-55.5 306zM555 1804h86q12 -82 68.5 -120.5t136.5 -38.5q92 0 142 33.5t71 125.5h86q-14 -123 -95 -190.5t-204 -67.5t-204 67.5t-87 190.5z" />
<glyph unicode="&#x11f;" horiz-adv-x="1251" d="M123 485q0 100 40 188.5t108.5 154t160.5 104.5t197 39q123 0 214 -49.5t144 -135.5h4v160h123v-885q0 -176 -51 -284.5t-128 -168t-165 -80t-160 -20.5t-140.5 13.5t-129.5 39t-111.5 62.5t-87.5 84l97 90q66 -92 164 -135t208 -43q94 0 159 24.5t107 64.5t65.5 88 t34.5 96.5t13 91.5t2 69v131h-4q-53 -86 -144 -135t-214 -49q-104 0 -196.5 38t-161 104.5t-108.5 154.5t-40 188zM246 485q0 -78 29.5 -146.5t80 -118.5t119 -79.5t146.5 -29.5t146.5 29.5t118.5 79.5t79.5 118.5t29.5 146.5t-29.5 146.5t-79.5 119t-119 80t-146 29.5 q-78 0 -146.5 -29.5t-119 -80t-80 -119t-29.5 -146.5zM379 1450h86q12 -82 68.5 -121t136.5 -39q92 0 142 35t71 125h86q-14 -123 -95 -190.5t-204 -67.5q-121 0 -203 67.5t-88 190.5z" />
<glyph unicode="&#x120;" horiz-adv-x="1593" d="M104 725q0 166 55.5 305t154 240.5t236.5 159t304 57.5q324 0 522 -201l-98 -102q-33 39 -81 72.5t-104.5 57t-118 37t-120.5 13.5q-141 0 -255 -49t-193.5 -135t-122.5 -203t-43 -252t43 -252t122.5 -203t193.5 -135t255 -49q117 0 219.5 18.5t186.5 67.5v487h-349v123 h484v-688q-127 -72 -263.5 -101.5t-277.5 -29.5q-166 0 -304 56.5t-236.5 158t-154 241.5t-55.5 306zM758 1720q0 41 28.5 70t69.5 29t69.5 -29t28.5 -70t-28.5 -69.5t-69.5 -28.5t-69.5 28.5t-28.5 69.5z" />
<glyph unicode="&#x121;" horiz-adv-x="1251" d="M123 485q0 100 40 188.5t108.5 154t160.5 104.5t197 39q123 0 214 -49.5t144 -135.5h4v160h123v-885q0 -176 -51 -284.5t-128 -168t-165 -80t-160 -20.5t-140.5 13.5t-129.5 39t-111.5 62.5t-87.5 84l97 90q66 -92 164 -135t208 -43q94 0 159 24.5t107 64.5t65.5 88 t34.5 96.5t13 91.5t2 69v131h-4q-53 -86 -144 -135t-214 -49q-104 0 -196.5 38t-161 104.5t-108.5 154.5t-40 188zM246 485q0 -78 29.5 -146.5t80 -118.5t119 -79.5t146.5 -29.5t146.5 29.5t118.5 79.5t79.5 118.5t29.5 146.5t-29.5 146.5t-79.5 119t-119 80t-146 29.5 q-78 0 -146.5 -29.5t-119 -80t-80 -119t-29.5 -146.5zM582 1335q0 41 28.5 70t69.5 29t69.5 -29t28.5 -70t-28.5 -69.5t-69.5 -28.5t-69.5 28.5t-28.5 69.5z" />
<glyph unicode="&#x122;" horiz-adv-x="1593" d="M104 725q0 166 55.5 305t154 240.5t236.5 159t304 57.5q324 0 522 -201l-98 -102q-33 39 -81 72.5t-104.5 57t-118 37t-120.5 13.5q-141 0 -255 -49t-193.5 -135t-122.5 -203t-43 -252t43 -252t122.5 -203t193.5 -135t255 -49q117 0 219.5 18.5t186.5 67.5v487h-349v123 h484v-688q-127 -72 -263.5 -101.5t-277.5 -29.5q-166 0 -304 56.5t-236.5 158t-154 241.5t-55.5 306zM690 -473l102 338h134l-127 -338h-109z" />
<glyph unicode="&#x123;" horiz-adv-x="1251" d="M123 485q0 100 40 188.5t108.5 154t160.5 104.5t197 39q123 0 214 -49.5t144 -135.5h4v160h123v-885q0 -176 -51 -284.5t-128 -168t-165 -80t-160 -20.5t-140.5 13.5t-129.5 39t-111.5 62.5t-87.5 84l97 90q66 -92 164 -135t208 -43q94 0 159 24.5t107 64.5t65.5 88 t34.5 96.5t13 91.5t2 69v131h-4q-53 -86 -144 -135t-214 -49q-104 0 -196.5 38t-161 104.5t-108.5 154.5t-40 188zM246 485q0 -78 29.5 -146.5t80 -118.5t119 -79.5t146.5 -29.5t146.5 29.5t118.5 79.5t79.5 118.5t29.5 146.5t-29.5 146.5t-79.5 119t-119 80t-146 29.5 q-78 0 -146.5 -29.5t-119 -80t-80 -119t-29.5 -146.5zM583 1217l129 337h109l-105 -337h-133z" />
<glyph unicode="&#x124;" horiz-adv-x="1478" d="M199 0v1450h135v-639h811v639h135v-1450h-135v688h-811v-688h-135zM445 1540l221 295h143l222 -295h-133l-166 221l-166 -221h-121z" />
<glyph unicode="&#x125;" d="M164 0v1548h123v-768h4q37 78 123 134.5t200 56.5q111 0 180.5 -35t109.5 -91.5t55.5 -130t15.5 -151.5v-563h-123v557q0 57 -10.5 111.5t-36 97.5t-71.5 68.5t-120 25.5q-68 0 -128 -23.5t-104 -71.5t-69.5 -121t-25.5 -171v-473h-123zM221 1622l221 295h143l222 -295 h-133l-166 221l-166 -221h-121z" />
<glyph unicode="&#x126;" horiz-adv-x="1478" d="M199 0v1450h135v-227h811v227h135v-1450h-135v688h-811v-688h-135zM334 811h811v313h-811v-313z" />
<glyph unicode="&#x127;" d="M16 1190v108h148v250h123v-250h331v-108h-331v-410h4q37 78 123 134.5t200 56.5q111 0 180.5 -35t109.5 -91.5t55.5 -130t15.5 -151.5v-563h-123v557q0 57 -10.5 111.5t-36 97.5t-71.5 68.5t-120 25.5q-68 0 -128 -23.5t-104 -71.5t-69.5 -121t-25.5 -171v-473h-123v1190 h-148z" />
<glyph unicode="&#x128;" horiz-adv-x="532" d="M-51 1575q4 35 18.5 73t37.5 66q23 31 55.5 50.5t73.5 19.5t79.5 -16.5t73.5 -34.5q35 -16 68 -31.5t61 -15.5q45 0 67.5 30.5t31.5 67.5h73q-4 -37 -16 -75t-33.5 -67.5t-52.5 -48t-70 -18.5q-41 0 -79 16.5t-74 32.5q-37 16 -71 32.5t-65 16.5q-47 0 -70.5 -30.5 t-33.5 -67.5h-74zM199 0v1450h135v-1450h-135z" />
<glyph unicode="&#x129;" horiz-adv-x="491" d="M-70 1190q4 35 18.5 72.5t37.5 66.5q23 31 55.5 50.5t73.5 19.5t79.5 -16.5t73.5 -34.5q35 -16 68 -32t61 -16q45 0 67.5 31t31.5 68h73q-4 -37 -16 -75t-33.5 -67.5t-51.5 -48t-71 -18.5t-79 16.5t-74 32.5q-37 16 -71 32.5t-65 16.5q-47 0 -70.5 -30.5t-33.5 -67.5h-74 zM184 0v946h123v-946h-123z" />
<glyph unicode="&#x12a;" horiz-adv-x="532" d="M-7 1636v99h541v-99h-541zM199 0v1450h135v-1450h-135z" />
<glyph unicode="&#x12b;" horiz-adv-x="491" d="M-23 1241v98h541v-98h-541zM184 0v946h123v-946h-123z" />
<glyph unicode="&#x12e;" horiz-adv-x="532" d="M35 -274q0 43 16.5 81.5t42 72.5t58 64.5t63.5 55.5h-16v1450h135v-1450h-27q-23 -16 -48.5 -43t-48 -59.5t-37.5 -69.5t-15 -76q0 -96 88 -96q43 0 70.5 15.5t41.5 31.5l39 -78q-33 -29 -74.5 -48t-99.5 -19q-82 0 -135 45t-53 123z" />
<glyph unicode="&#x12f;" horiz-adv-x="491" d="M14 -274q0 43 16.5 81.5t42 72.5t58.5 64.5t64 55.5h-11v946h123v-946h-20q-23 -16 -48.5 -43t-48 -59.5t-38 -69.5t-15.5 -76q0 -96 88 -96q43 0 71 15.5t42 31.5l39 -78q-33 -29 -75 -48t-99 -19q-82 0 -135.5 45t-53.5 123zM154 1321q0 39 26.5 65.5t65.5 26.5 t65.5 -26.5t26.5 -65.5t-26.5 -65.5t-65.5 -26.5t-65.5 26.5t-26.5 65.5z" />
<glyph unicode="&#x130;" horiz-adv-x="532" d="M177 1720q0 41 28.5 70t69.5 29t69.5 -29t28.5 -70t-28.5 -69.5t-69.5 -28.5t-69.5 28.5t-28.5 69.5zM199 0v1450h135v-1450h-135z" />
<glyph unicode="&#x131;" horiz-adv-x="491" d="M184 0v946h123v-946h-123z" />
<glyph unicode="&#x132;" horiz-adv-x="1449" d="M199 0v1450h135v-1450h-135zM477 260l136 25q49 -199 241 -199q72 0 122 23.5t81 64.5t45 97.5t14 121.5v1057h135v-1024q0 -66 -9 -145.5t-49 -150.5t-119 -119t-220 -48q-160 0 -253 81t-124 216z" />
<glyph unicode="&#x133;" horiz-adv-x="931" d="M154 1321q0 39 26.5 65.5t65.5 26.5t65.5 -26.5t26.5 -65.5t-26.5 -65.5t-65.5 -26.5t-65.5 26.5t-26.5 65.5zM184 0v946h123v-946h-123zM379 -473l18 108q43 -16 78 -16q49 0 78.5 17.5t45 45t20.5 64.5t5 78v1122h123v-1112q0 -74 -11 -133t-42 -102t-83 -67t-134 -24 q-49 0 -98 19zM594 1321q0 39 26.5 65.5t65.5 26.5t65.5 -26.5t26.5 -65.5t-26.5 -65.5t-65.5 -26.5t-65.5 26.5t-26.5 65.5z" />
<glyph unicode="&#x134;" horiz-adv-x="987" d="M14 260l136 25q49 -199 241 -199q72 0 122 23.5t81 64.5t45 97.5t14 121.5v1057h135v-1024q0 -66 -9 -145.5t-49 -150.5t-119 -119t-220 -48q-160 0 -253 81t-124 216zM424 1540l221 295h143l222 -295h-133l-166 221l-166 -221h-121z" />
<glyph unicode="&#x135;" horiz-adv-x="491" d="M-61 -473l18 108q45 -16 78 -16q49 0 78.5 17.5t45 45t20.5 64.5t5 78v1122h123v-1112q0 -74 -11 -133t-42 -102t-83 -67t-134 -24q-49 0 -98 19zM-47 1155l221 295h143l222 -295h-133l-166 221l-166 -221h-121z" />
<glyph unicode="&#x136;" horiz-adv-x="1251" d="M199 0v1450h135v-639h12l703 639h186l-733 -664l774 -786h-195l-735 750h-12v-750h-135zM535 -473l102 338h134l-127 -338h-109z" />
<glyph unicode="&#x137;" horiz-adv-x="985" d="M164 0v1548h123v-1032l467 428h180l-488 -432l545 -512h-186l-518 500v-500h-123zM330 -473l102 338h134l-127 -338h-109z" />
<glyph unicode="&#x139;" horiz-adv-x="1024" d="M147 1540l213 295h164l-275 -295h-102zM199 0v1450h135v-1327h676v-123h-811z" />
<glyph unicode="&#x13a;" horiz-adv-x="491" d="M143 1622l213 295h164l-275 -295h-102zM184 0v1548h123v-1548h-123z" />
<glyph unicode="&#x13b;" horiz-adv-x="1024" d="M199 0v1450h135v-1327h676v-123h-811zM451 -473l102 338h134l-127 -338h-109z" />
<glyph unicode="&#x13c;" horiz-adv-x="491" d="M129 -473l102 338h134l-127 -338h-109zM184 0v1548h123v-1548h-123z" />
<glyph unicode="&#x13d;" horiz-adv-x="1024" d="M199 0v1450h135v-1327h676v-123h-811zM475 1071l104 379h134l-129 -379h-109z" />
<glyph unicode="&#x13e;" horiz-adv-x="491" d="M184 0v1548h123v-1548h-123zM449 1071l104 379h134l-129 -379h-109z" />
<glyph unicode="&#x13f;" horiz-adv-x="1024" d="M199 0v1450h135v-1327h676v-123h-811zM693 708q0 41 28.5 70t69.5 29t69.5 -29t28.5 -70t-28.5 -69.5t-69.5 -28.5t-69.5 28.5t-28.5 69.5z" />
<glyph unicode="&#x140;" horiz-adv-x="688" d="M184 0v1548h123v-1548h-123zM480 770q0 41 28.5 70t69.5 29t69.5 -29t28.5 -70t-28.5 -69.5t-69.5 -28.5t-69.5 28.5t-28.5 69.5z" />
<glyph unicode="&#x141;" horiz-adv-x="1024" d="M51 342v133l148 129v846h135v-733l442 387v-127l-442 -387v-467h676v-123h-811v473z" />
<glyph unicode="&#x142;" horiz-adv-x="491" d="M12 489v138l172 174v747h123v-624l172 176v-137l-172 -175v-788h-123v664z" />
<glyph unicode="&#x143;" horiz-adv-x="1593" d="M199 0v1450h174l882 -1270h5v1270h135v-1450h-174l-883 1270h-4v-1270h-135zM700 1540l213 295h164l-275 -295h-102z" />
<glyph unicode="&#x144;" d="M154 946h122q2 -53 3.5 -102t5.5 -64h6q37 78 123 134.5t200 56.5q111 0 180.5 -35t109.5 -91.5t55.5 -130t15.5 -151.5v-563h-123v557q0 57 -10.5 111.5t-36 97.5t-71.5 68.5t-120 25.5q-68 0 -128 -23.5t-104 -71.5t-69.5 -121t-25.5 -171v-473h-123v680q0 27 -2 64.5 t-3 76.5t-3 73t-2 52zM426 1155l213 295h164l-275 -295h-102z" />
<glyph unicode="&#x145;" horiz-adv-x="1593" d="M199 0v1450h174l882 -1270h5v1270h135v-1450h-174l-883 1270h-4v-1270h-135zM641 -473l102 338h134l-127 -338h-109z" />
<glyph unicode="&#x146;" d="M154 946h122q2 -53 3.5 -102t5.5 -64h6q37 78 123 134.5t200 56.5q111 0 180.5 -35t109.5 -91.5t55.5 -130t15.5 -151.5v-563h-123v557q0 57 -10.5 111.5t-36 97.5t-71.5 68.5t-120 25.5q-68 0 -128 -23.5t-104 -71.5t-69.5 -121t-25.5 -171v-473h-123v680q0 27 -2 64.5 t-3 76.5t-3 73t-2 52zM420 -473l102 338h134l-127 -338h-109z" />
<glyph unicode="&#x147;" horiz-adv-x="1593" d="M199 0v1450h174l882 -1270h5v1270h135v-1450h-174l-883 1270h-4v-1270h-135zM504 1835h127l170 -233l176 233h110l-217 -295h-143z" />
<glyph unicode="&#x148;" d="M154 946h122q2 -53 3.5 -102t5.5 -64h6q37 78 123 134.5t200 56.5q111 0 180.5 -35t109.5 -91.5t55.5 -130t15.5 -151.5v-563h-123v557q0 57 -10.5 111.5t-36 97.5t-71.5 68.5t-120 25.5q-68 0 -128 -23.5t-104 -71.5t-69.5 -121t-25.5 -171v-473h-123v680q0 27 -2 64.5 t-3 76.5t-3 73t-2 52zM285 1450h127l170 -233l176 233h110l-217 -295h-143z" />
<glyph unicode="&#x149;" d="M31 1071l104 379h134l-129 -379h-109zM154 946h122q2 -53 3.5 -102t5.5 -64h6q37 78 123 134.5t200 56.5q111 0 180.5 -35t109.5 -91.5t55.5 -130t15.5 -151.5v-563h-123v557q0 57 -10.5 111.5t-36 97.5t-71.5 68.5t-120 25.5q-68 0 -128 -23.5t-104 -71.5t-69.5 -121 t-25.5 -171v-473h-123v680q0 27 -2 64.5t-3 76.5t-3 73t-2 52z" />
<glyph unicode="&#x14c;" horiz-adv-x="1708" d="M104 725q0 166 55.5 305t154 240.5t236.5 159t304 57.5t304 -57.5t236.5 -159t154 -240.5t55.5 -305t-55.5 -306t-154 -241.5t-236.5 -158t-304 -56.5t-304 56.5t-236.5 158t-154 241.5t-55.5 306zM240 725q0 -135 43 -252t122.5 -203t193.5 -135t255 -49t255 49 t193.5 135t122.5 203t43 252t-43 252t-122.5 203t-193.5 135t-255 49t-255 -49t-193.5 -135t-122.5 -203t-43 -252zM585 1636v99h541v-99h-541z" />
<glyph unicode="&#x14d;" horiz-adv-x="1216" d="M111 473q0 109 36.5 200t102 157.5t158 103.5t200.5 37q109 0 200 -37t157.5 -103.5t103.5 -157.5t37 -200t-37 -200t-103.5 -157.5t-157.5 -103.5t-200 -37t-201 37t-157.5 103.5t-102 157.5t-36.5 200zM233 473q0 -80 26 -150.5t75 -123t118.5 -83t155.5 -30.5 t156 30.5t119 83t74.5 123t25.5 150.5t-25.5 150.5t-74.5 123t-119 83t-156 30.5t-155.5 -30.5t-118.5 -83t-75 -123t-26 -150.5zM340 1241v98h541v-98h-541z" />
<glyph unicode="&#x14e;" horiz-adv-x="1708" d="M104 725q0 166 55.5 305t154 240.5t236.5 159t304 57.5t304 -57.5t236.5 -159t154 -240.5t55.5 -305t-55.5 -306t-154 -241.5t-236.5 -158t-304 -56.5t-304 56.5t-236.5 158t-154 241.5t-55.5 306zM240 725q0 -135 43 -252t122.5 -203t193.5 -135t255 -49t255 49 t193.5 135t122.5 203t43 252t-43 252t-122.5 203t-193.5 135t-255 49t-255 -49t-193.5 -135t-122.5 -203t-43 -252zM561 1804h86q12 -82 68.5 -120.5t136.5 -38.5q92 0 142 33.5t71 125.5h86q-14 -123 -95 -190.5t-204 -67.5t-204 67.5t-87 190.5z" />
<glyph unicode="&#x14f;" horiz-adv-x="1216" d="M111 473q0 109 36.5 200t102 157.5t158 103.5t200.5 37q109 0 200 -37t157.5 -103.5t103.5 -157.5t37 -200t-37 -200t-103.5 -157.5t-157.5 -103.5t-200 -37t-201 37t-157.5 103.5t-102 157.5t-36.5 200zM233 473q0 -80 26 -150.5t75 -123t118.5 -83t155.5 -30.5 t156 30.5t119 83t74.5 123t25.5 150.5t-25.5 150.5t-74.5 123t-119 83t-156 30.5t-155.5 -30.5t-118.5 -83t-75 -123t-26 -150.5zM316 1450h86q12 -82 68.5 -121t136.5 -39q92 0 142 35t71 125h86q-14 -123 -95 -190.5t-204 -67.5q-121 0 -203 67.5t-88 190.5z" />
<glyph unicode="&#x150;" horiz-adv-x="1708" d="M104 725q0 166 55.5 305t154 240.5t236.5 159t304 57.5t304 -57.5t236.5 -159t154 -240.5t55.5 -305t-55.5 -306t-154 -241.5t-236.5 -158t-304 -56.5t-304 56.5t-236.5 158t-154 241.5t-55.5 306zM240 725q0 -135 43 -252t122.5 -203t193.5 -135t255 -49t255 49 t193.5 135t122.5 203t43 252t-43 252t-122.5 203t-193.5 135t-255 49t-255 -49t-193.5 -135t-122.5 -203t-43 -252zM630 1540l213 295h164l-274 -295h-103zM929 1540l213 295h164l-274 -295h-103z" />
<glyph unicode="&#x151;" horiz-adv-x="1216" d="M111 473q0 109 36.5 200t102 157.5t158 103.5t200.5 37q109 0 200 -37t157.5 -103.5t103.5 -157.5t37 -200t-37 -200t-103.5 -157.5t-157.5 -103.5t-200 -37t-201 37t-157.5 103.5t-102 157.5t-36.5 200zM233 473q0 -80 26 -150.5t75 -123t118.5 -83t155.5 -30.5 t156 30.5t119 83t74.5 123t25.5 150.5t-25.5 150.5t-74.5 123t-119 83t-156 30.5t-155.5 -30.5t-118.5 -83t-75 -123t-26 -150.5zM391 1155l213 295h164l-274 -295h-103zM690 1155l213 295h164l-274 -295h-103z" />
<glyph unicode="&#x152;" horiz-adv-x="1933" d="M121 725q0 180 66.5 315.5t177 226.5t253 137t293.5 46h885v-123h-606v-516h571v-123h-571v-565h622v-123h-966q-145 0 -277.5 51t-231.5 146.5t-157.5 229.5t-58.5 298zM256 725q0 -170 64.5 -284.5t159.5 -185.5t204 -101.5t199 -30.5h172v1204h-160q-109 0 -221.5 -35 t-205.5 -108.5t-152.5 -187t-59.5 -271.5z" />
<glyph unicode="&#x153;" horiz-adv-x="1857" d="M90 473q0 109 36 200t98.5 157.5t148.5 103.5t188 37t174 -28t119 -65.5t74.5 -77.5t40.5 -65q18 41 49 83t76 76t106.5 55.5t138.5 21.5q86 0 164 -25.5t136.5 -81t93 -142.5t34.5 -208v-72h-729q-4 -74 16.5 -138t61.5 -112.5t103.5 -77t146.5 -28.5q88 0 157.5 40 t114.5 112l97 -70q-80 -104 -169 -148.5t-220 -44.5q-125 0 -223.5 55.5t-149.5 178.5h-4q-59 -115 -166 -174.5t-242 -59.5q-102 0 -188 37t-148.5 103.5t-98.5 158t-36 199.5zM213 473q0 -76 24.5 -145.5t70.5 -123.5t110.5 -86t146.5 -32t146.5 30.5t109.5 83t69.5 123 t24.5 150.5t-24.5 150.5t-69.5 123t-109.5 83t-146.5 30.5t-146.5 -31.5t-110.5 -86t-70.5 -124t-24.5 -145.5zM1038 553h607q0 63 -18.5 119.5t-55.5 97.5t-93.5 65.5t-134.5 24.5q-72 0 -128 -24.5t-95 -66.5t-60.5 -97.5t-21.5 -118.5z" />
<glyph unicode="&#x154;" horiz-adv-x="1214" d="M199 0v1450h381q29 0 78 -2t106 -12.5t116.5 -33t106.5 -65.5t78 -108.5t31 -159.5q0 -104 -36 -172t-90.5 -110t-120 -62t-124.5 -29l422 -696h-154l-407 688h-252v-688h-135zM334 811h287q106 0 172.5 26.5t103.5 65.5t50.5 84t13.5 82t-13.5 82t-50.5 84t-103.5 65.5 t-172.5 26.5h-287v-516zM467 1540l213 295h164l-275 -295h-102z" />
<glyph unicode="&#x155;" horiz-adv-x="681" d="M154 946h122q2 -53 3.5 -102t5.5 -64q47 84 120.5 137.5t180.5 53.5q18 0 35.5 -3t35.5 -7l-14 -121q-25 8 -47 8q-80 0 -138.5 -25.5t-96 -70.5t-56 -105.5t-18.5 -130.5v-516h-123v680q0 27 -2 64.5t-3 76.5t-3 73t-2 52zM264 1155l213 295h164l-275 -295h-102z" />
<glyph unicode="&#x156;" horiz-adv-x="1214" d="M199 0v1450h381q29 0 78 -2t106 -12.5t116.5 -33t106.5 -65.5t78 -108.5t31 -159.5q0 -104 -36 -172t-90.5 -110t-120 -62t-124.5 -29l422 -696h-154l-407 688h-252v-688h-135zM334 811h287q106 0 172.5 26.5t103.5 65.5t50.5 84t13.5 82t-13.5 82t-50.5 84t-103.5 65.5 t-172.5 26.5h-287v-516zM448 -473l102 338h134l-127 -338h-109z" />
<glyph unicode="&#x157;" horiz-adv-x="681" d="M154 946h122q2 -53 3.5 -102t5.5 -64q47 84 120.5 137.5t180.5 53.5q18 0 35.5 -3t35.5 -7l-14 -121q-25 8 -47 8q-80 0 -138.5 -25.5t-96 -70.5t-56 -105.5t-18.5 -130.5v-516h-123v680q0 27 -2 64.5t-3 76.5t-3 73t-2 52zM160 -473l102 338h134l-127 -338h-109z" />
<glyph unicode="&#x158;" horiz-adv-x="1214" d="M199 0v1450h381q29 0 78 -2t106 -12.5t116.5 -33t106.5 -65.5t78 -108.5t31 -159.5q0 -104 -36 -172t-90.5 -110t-120 -62t-124.5 -29l422 -696h-154l-407 688h-252v-688h-135zM307 1835h127l170 -233l176 233h110l-217 -295h-143zM334 811h287q106 0 172.5 26.5 t103.5 65.5t50.5 84t13.5 82t-13.5 82t-50.5 84t-103.5 65.5t-172.5 26.5h-287v-516z" />
<glyph unicode="&#x159;" horiz-adv-x="681" d="M88 1450h127l170 -233l176 233h110l-217 -295h-143zM154 946h122q2 -53 3.5 -102t5.5 -64q47 84 120.5 137.5t180.5 53.5q18 0 35.5 -3t35.5 -7l-14 -121q-25 8 -47 8q-80 0 -138.5 -25.5t-96 -70.5t-56 -105.5t-18.5 -130.5v-516h-123v680q0 27 -2 64.5t-3 76.5t-3 73 t-2 52z" />
<glyph unicode="&#x15a;" d="M109 182l129 86q53 -92 138 -137t193 -45q68 0 127.5 20.5t103.5 57.5t69.5 89t25.5 118q0 76 -32 125t-85 80.5t-119.5 54t-137 45t-137.5 51.5t-120 75t-85 115.5t-32 172.5q0 96 38 170.5t102.5 125t148.5 76t176 25.5q119 0 220.5 -42t175.5 -140l-117 -84 q-51 72 -120 107.5t-163 35.5q-66 0 -125 -17.5t-103 -51t-70.5 -85t-26.5 -120.5q0 -109 55 -167.5t138 -92t180.5 -59.5t180.5 -69t138 -119.5t55 -211.5q0 -98 -37 -174t-99.5 -128.5t-144 -79t-169.5 -26.5q-143 0 -264 50t-207 169zM487 1540l213 295h164l-275 -295 h-102z" />
<glyph unicode="&#x15b;" horiz-adv-x="872" d="M57 168l109 74q39 -76 114.5 -116t159.5 -40q39 0 78 12.5t69.5 35t50 54t19.5 72.5q0 66 -42 98.5t-103 51t-135 32t-135.5 41t-103.5 76.5t-42 139q0 70 29 121t75 85t103 50.5t117 16.5q117 0 202 -43t132 -135l-111 -66q-35 66 -87 99.5t-136 33.5q-33 0 -69 -10 t-64.5 -28.5t-48 -47.5t-19.5 -65q0 -63 42 -94t103.5 -48.5t135 -30t135 -40t103.5 -79.5t42 -149q0 -74 -27.5 -128t-75.5 -91t-109.5 -55.5t-129.5 -18.5q-123 0 -224 47.5t-157 145.5zM332 1155l213 295h164l-275 -295h-102z" />
<glyph unicode="&#x15c;" d="M109 182l129 86q53 -92 138 -137t193 -45q68 0 127.5 20.5t103.5 57.5t69.5 89t25.5 118q0 76 -32 125t-85 80.5t-119.5 54t-137 45t-137.5 51.5t-120 75t-85 115.5t-32 172.5q0 96 38 170.5t102.5 125t148.5 76t176 25.5q119 0 220.5 -42t175.5 -140l-117 -84 q-51 72 -120 107.5t-163 35.5q-66 0 -125 -17.5t-103 -51t-70.5 -85t-26.5 -120.5q0 -109 55 -167.5t138 -92t180.5 -59.5t180.5 -69t138 -119.5t55 -211.5q0 -98 -37 -174t-99.5 -128.5t-144 -79t-169.5 -26.5q-143 0 -264 50t-207 169zM318 1540l221 295h143l222 -295 h-133l-166 221l-166 -221h-121z" />
<glyph unicode="&#x15d;" horiz-adv-x="872" d="M57 168l109 74q39 -76 114.5 -116t159.5 -40q39 0 78 12.5t69.5 35t50 54t19.5 72.5q0 66 -42 98.5t-103 51t-135 32t-135.5 41t-103.5 76.5t-42 139q0 70 29 121t75 85t103 50.5t117 16.5q117 0 202 -43t132 -135l-111 -66q-35 66 -87 99.5t-136 33.5q-33 0 -69 -10 t-64.5 -28.5t-48 -47.5t-19.5 -65q0 -63 42 -94t103.5 -48.5t135 -30t135 -40t103.5 -79.5t42 -149q0 -74 -27.5 -128t-75.5 -91t-109.5 -55.5t-129.5 -18.5q-123 0 -224 47.5t-157 145.5zM152 1155l221 295h143l222 -295h-133l-166 221l-166 -221h-121z" />
<glyph unicode="&#x15e;" d="M109 182l129 86q53 -92 137 -137t194 -45q68 0 127.5 20.5t103.5 57.5t69.5 89t25.5 118q0 76 -32 125t-85 80.5t-119.5 54t-137 45t-137.5 51.5t-120 75t-85 115.5t-32 172.5q0 96 38 170.5t102.5 125t148.5 76t176 25.5q119 0 220.5 -42t175.5 -140l-117 -84 q-100 143 -283 143q-66 0 -125 -17.5t-103 -51t-70.5 -85t-26.5 -120.5q0 -109 55 -167.5t138 -92t180.5 -59.5t180.5 -69t138 -119.5t55 -211.5q0 -94 -34.5 -168t-93 -125t-135.5 -80t-159 -33l-69 -96l4 -4q27 14 63 14q66 0 118 -37t52 -110q0 -47 -20.5 -80t-54 -53.5 t-74.5 -30.5t-80 -10q-102 0 -195 43l29 65q70 -35 156 -35q20 0 42.5 5.5t42 15.5t32 26.5t12.5 40.5q0 47 -37 66.5t-78 19.5q-45 0 -90 -16l-33 31l102 145q-129 8 -236.5 57.5t-184.5 159.5z" />
<glyph unicode="&#x15f;" horiz-adv-x="872" d="M57 168l109 74q39 -76 113.5 -116t160.5 -40q39 0 78 12.5t69.5 35t50 54t19.5 72.5q0 66 -42 98.5t-103 51t-135 32t-135.5 41t-103.5 76.5t-42 139q0 70 29 121t75 85t103 50.5t117 16.5q117 0 202 -43t132 -135l-111 -66q-35 66 -86 99.5t-137 33.5q-33 0 -69 -10 t-64.5 -28.5t-48 -47.5t-19.5 -65q0 -63 42 -94t103.5 -48.5t135 -30t135 -40t103.5 -79.5t42 -149q0 -68 -24.5 -120t-66.5 -88.5t-97 -57t-117 -25.5l-80 -108l4 -4q27 14 64 14q66 0 118 -37t52 -110q0 -47 -20.5 -80t-54.5 -53.5t-75 -30.5t-80 -10q-102 0 -194 43 l29 65q70 -35 155 -35q20 0 43 5.5t42.5 15.5t31.5 26.5t12 40.5q0 47 -36.5 66.5t-77.5 19.5q-45 0 -91 -16l-32 31l112 157q-111 6 -199.5 52.5t-140.5 138.5z" />
<glyph unicode="&#x160;" d="M109 182l129 86q53 -92 138 -137t193 -45q68 0 127.5 20.5t103.5 57.5t69.5 89t25.5 118q0 76 -32 125t-85 80.5t-119.5 54t-137 45t-137.5 51.5t-120 75t-85 115.5t-32 172.5q0 96 38 170.5t102.5 125t148.5 76t176 25.5q119 0 220.5 -42t175.5 -140l-117 -84 q-51 72 -120 107.5t-163 35.5q-66 0 -125 -17.5t-103 -51t-70.5 -85t-26.5 -120.5q0 -109 55 -167.5t138 -92t180.5 -59.5t180.5 -69t138 -119.5t55 -211.5q0 -98 -37 -174t-99.5 -128.5t-144 -79t-169.5 -26.5q-143 0 -264 50t-207 169zM271 1835h127l170 -233l176 233h110 l-217 -295h-143z" />
<glyph unicode="&#x161;" horiz-adv-x="872" d="M57 168l109 74q39 -76 114.5 -116t159.5 -40q39 0 78 12.5t69.5 35t50 54t19.5 72.5q0 66 -42 98.5t-103 51t-135 32t-135.5 41t-103.5 76.5t-42 139q0 70 29 121t75 85t103 50.5t117 16.5q117 0 202 -43t132 -135l-111 -66q-35 66 -87 99.5t-136 33.5q-33 0 -69 -10 t-64.5 -28.5t-48 -47.5t-19.5 -65q0 -63 42 -94t103.5 -48.5t135 -30t135 -40t103.5 -79.5t42 -149q0 -74 -27.5 -128t-75.5 -91t-109.5 -55.5t-129.5 -18.5q-123 0 -224 47.5t-157 145.5zM137 1450h127l170 -233l176 233h110l-217 -295h-143z" />
<glyph unicode="&#x162;" horiz-adv-x="1175" d="M25 1327v123h1126v-123h-496v-1327h-135v1327h-495zM428 -473l102 338h134l-127 -338h-109z" />
<glyph unicode="&#x163;" horiz-adv-x="681" d="M29 836v110h204v273h123v-273h271v-110h-271v-617q0 -63 35 -98t96 -35q35 0 71 9t69 24l10 -111q-35 -12 -80 -22.5t-80 -10.5q-66 0 -113 19.5t-75.5 52.5t-42 77t-13.5 95v617h-204zM221 -473l102 338h134l-127 -338h-109z" />
<glyph unicode="&#x164;" horiz-adv-x="1175" d="M25 1327v123h1126v-123h-496v-1327h-135v1327h-495zM297 1835h127l170 -233l176 233h110l-217 -295h-143z" />
<glyph unicode="&#x165;" horiz-adv-x="681" d="M29 836v110h204v273h123v-273h271v-110h-271v-617q0 -63 35 -98t96 -35q35 0 71 9t69 24l10 -111q-35 -12 -80 -22.5t-80 -10.5q-66 0 -113 19.5t-75.5 52.5t-42 77t-13.5 95v617h-204zM465 1071l104 379h134l-129 -379h-109z" />
<glyph unicode="&#x166;" horiz-adv-x="1175" d="M25 1327v123h1126v-123h-496v-381h308v-98h-308v-848h-135v848h-303v98h303v381h-495z" />
<glyph unicode="&#x167;" horiz-adv-x="681" d="M29 836v110h204v273h123v-273h271v-110h-271v-170h240v-99h-240v-348q0 -63 35 -98t96 -35q35 0 71 9t69 24l10 -111q-35 -12 -80 -22.5t-80 -10.5q-66 0 -113 19.5t-75.5 52.5t-42 77t-13.5 95v348h-178v99h178v170h-204z" />
<glyph unicode="&#x168;" horiz-adv-x="1400" d="M172 555v895h135v-860q0 -78 14.5 -166t56.5 -164t118.5 -125t203.5 -49t204 49t119 125t56.5 164t14.5 166v860h135v-895q0 -117 -26.5 -223.5t-89 -188.5t-164 -131t-249.5 -49q-147 0 -248.5 49t-164 131t-89 188.5t-26.5 223.5zM383 1575q4 35 18.5 73t37.5 66 q23 31 55.5 50.5t73.5 19.5t79.5 -16.5t73.5 -34.5q35 -16 68 -31.5t61 -15.5q45 0 67.5 30.5t31.5 67.5h73q-4 -37 -16 -75t-33.5 -67.5t-52.5 -48t-70 -18.5q-41 0 -79 16.5t-74 32.5q-37 16 -71 32.5t-65 16.5q-47 0 -70.5 -30.5t-33.5 -67.5h-74z" />
<glyph unicode="&#x169;" d="M154 383v563h122v-557q0 -57 10.5 -111.5t36 -97.5t71.5 -68.5t120 -25.5q68 0 128 23.5t104.5 71.5t70 121t25.5 171v473h123v-680q0 -27 2 -64.5t3 -76.5t3 -73t2 -52h-123q-2 53 -3 102.5t-5 63.5h-6q-37 -78 -123 -134.5t-201 -56.5q-111 0 -181.5 35t-110.5 91.5 t-54 130t-14 151.5zM248 1190q4 35 18.5 72.5t37.5 66.5q23 31 55.5 50.5t73.5 19.5t79.5 -16.5t73.5 -34.5q35 -16 68 -32t61 -16q45 0 67.5 31t31.5 68h73q-4 -37 -16 -75t-33.5 -67.5t-51.5 -48t-71 -18.5t-79 16.5t-74 32.5q-37 16 -71 32.5t-65 16.5q-47 0 -70.5 -30.5 t-33.5 -67.5h-74z" />
<glyph unicode="&#x16a;" horiz-adv-x="1400" d="M172 555v895h135v-860q0 -78 14.5 -166t56.5 -164t118.5 -125t203.5 -49t204 49t119 125t56.5 164t14.5 166v860h135v-895q0 -117 -26.5 -223.5t-89 -188.5t-164 -131t-249.5 -49q-147 0 -248.5 49t-164 131t-89 188.5t-26.5 223.5zM432 1636v99h541v-99h-541z" />
<glyph unicode="&#x16b;" d="M154 383v563h122v-557q0 -57 10.5 -111.5t36 -97.5t71.5 -68.5t120 -25.5q68 0 128 23.5t104.5 71.5t70 121t25.5 171v473h123v-680q0 -27 2 -64.5t3 -76.5t3 -73t2 -52h-123q-2 53 -3 102.5t-5 63.5h-6q-37 -78 -123 -134.5t-201 -56.5q-111 0 -181.5 35t-110.5 91.5 t-54 130t-14 151.5zM297 1241v98h541v-98h-541z" />
<glyph unicode="&#x16c;" horiz-adv-x="1400" d="M172 555v895h135v-860q0 -78 14.5 -166t56.5 -164t118.5 -125t203.5 -49t204 49t119 125t56.5 164t14.5 166v860h135v-895q0 -117 -26.5 -223.5t-89 -188.5t-164 -131t-249.5 -49q-147 0 -248.5 49t-164 131t-89 188.5t-26.5 223.5zM408 1804h86q12 -82 68.5 -120.5 t136.5 -38.5q92 0 142 33.5t71 125.5h86q-14 -123 -95 -190.5t-204 -67.5t-204 67.5t-87 190.5z" />
<glyph unicode="&#x16d;" d="M154 383v563h122v-557q0 -57 10.5 -111.5t36 -97.5t71.5 -68.5t120 -25.5q68 0 128 23.5t104.5 71.5t70 121t25.5 171v473h123v-680q0 -27 2 -64.5t3 -76.5t3 -73t2 -52h-123q-2 53 -3 102.5t-5 63.5h-6q-37 -78 -123 -134.5t-201 -56.5q-111 0 -181.5 35t-110.5 91.5 t-54 130t-14 151.5zM273 1450h86q12 -82 68.5 -121t136.5 -39q92 0 142 35t71 125h86q-14 -123 -95 -190.5t-204 -67.5q-121 0 -203 67.5t-88 190.5z" />
<glyph unicode="&#x16e;" horiz-adv-x="1400" d="M172 555v895h135v-860q0 -78 14.5 -166t56.5 -164t118.5 -125t203.5 -49t204 49t119 125t56.5 164t14.5 166v860h135v-895q0 -117 -26.5 -223.5t-89 -188.5t-164 -131t-249.5 -49q-147 0 -248.5 49t-164 131t-89 188.5t-26.5 223.5zM512 1714q0 39 15.5 75t41 62.5 t60.5 42t76 15.5q39 0 73.5 -16.5t60.5 -44t40 -62.5t14 -74q0 -37 -14 -71.5t-40 -61.5t-60.5 -43t-73.5 -16q-41 0 -76 15t-60.5 42t-41 61.5t-15.5 75.5zM586 1712q0 -51 34 -85t83 -34q51 0 83.5 35t32.5 86t-32.5 86t-83.5 35t-84 -36t-33 -87z" />
<glyph unicode="&#x16f;" d="M154 383v563h122v-557q0 -57 10.5 -111.5t36 -97.5t71.5 -68.5t120 -25.5q68 0 128 23.5t104.5 71.5t70 121t25.5 171v473h123v-680q0 -27 2 -64.5t3 -76.5t3 -73t2 -52h-123q-2 53 -3 102.5t-5 63.5h-6q-37 -78 -123 -134.5t-201 -56.5q-111 0 -181.5 35t-110.5 91.5 t-54 130t-14 151.5zM377 1329q0 39 15.5 75t41 62.5t60.5 42t76 15.5q39 0 73.5 -16.5t60.5 -44t40 -62.5t14 -74q0 -37 -14 -71.5t-40 -61.5t-60.5 -43t-73.5 -16q-41 0 -76 15t-60.5 42t-41 62.5t-15.5 74.5zM451 1327q0 -51 34 -85t83 -34q51 0 83.5 35t32.5 86t-32.5 86 t-83.5 35t-84 -36t-33 -87z" />
<glyph unicode="&#x170;" horiz-adv-x="1400" d="M172 555v895h135v-860q0 -78 14.5 -166t56.5 -164t118.5 -125t203.5 -49t204 49t119 125t56.5 164t14.5 166v860h135v-895q0 -117 -26.5 -223.5t-89 -188.5t-164 -131t-249.5 -49q-147 0 -248.5 49t-164 131t-89 188.5t-26.5 223.5zM454 1540l213 295h164l-274 -295h-103 zM753 1540l213 295h164l-274 -295h-103z" />
<glyph unicode="&#x171;" d="M154 383v563h122v-557q0 -57 10.5 -111.5t36 -97.5t71.5 -68.5t120 -25.5q68 0 128 23.5t104.5 71.5t70 121t25.5 171v473h123v-680q0 -27 2 -64.5t3 -76.5t3 -73t2 -52h-123q-2 53 -3 102.5t-5 63.5h-6q-37 -78 -123 -134.5t-201 -56.5q-111 0 -181.5 35t-110.5 91.5 t-54 130t-14 151.5zM319 1155l213 295h164l-274 -295h-103zM618 1155l213 295h164l-274 -295h-103z" />
<glyph unicode="&#x172;" horiz-adv-x="1400" d="M172 555v895h135v-860q0 -78 14.5 -166t56.5 -164t118.5 -125t203.5 -49q125 0 203 49t120 125t56.5 164t14.5 166v860h135v-895q0 -109 -23.5 -209t-77 -180t-140.5 -133t-212 -66q-41 -39 -75.5 -95t-34.5 -120q0 -96 88 -96q43 0 70.5 15.5t41.5 31.5l39 -78 q-33 -29 -75 -48t-99 -19q-82 0 -135 45t-53 123q0 72 41 132t94 107q-141 4 -237.5 54.5t-157 131t-86 185t-25.5 219.5z" />
<glyph unicode="&#x173;" d="M154 383v563h122v-557q0 -57 10.5 -111.5t36 -97.5t71.5 -68.5t120 -25.5q68 0 128 23.5t104.5 71.5t70 121t25.5 171v473h123v-680q0 -27 2 -64.5t3 -76.5t3 -73t2 -52h-31q-23 -16 -48.5 -43t-48 -59.5t-37.5 -69.5t-15 -76q0 -96 88 -96q43 0 70.5 15.5t41.5 31.5 l39 -78q-33 -29 -74.5 -48t-99.5 -19q-82 0 -135 45t-53 123q0 43 16.5 81.5t42 72.5t58 64.5t63.5 55.5q-2 53 -3 102.5t-5 63.5h-6q-37 -78 -123 -134.5t-201 -56.5q-111 0 -181.5 35t-110.5 91.5t-54 130t-14 151.5z" />
<glyph unicode="&#x174;" horiz-adv-x="1933" d="M10 1450h140l360 -1284h4l367 1284h172l366 -1284h4l361 1284h139l-422 -1450h-166l-366 1290h-4l-367 -1290h-166zM674 1540l221 295h143l222 -295h-133l-166 221l-166 -221h-121z" />
<glyph unicode="&#x175;" horiz-adv-x="1441" d="M31 946h135l229 -792h4l265 792h116l281 -792h4l223 792h123l-278 -946h-127l-283 774h-4l-264 -774h-127zM430 1155l221 295h143l222 -295h-133l-166 221l-166 -221h-121z" />
<glyph unicode="&#x176;" horiz-adv-x="1175" d="M-12 1450h162l438 -688l448 688h152l-533 -825v-625h-135v625zM295 1540l221 295h143l222 -295h-133l-166 221l-166 -221h-121z" />
<glyph unicode="&#x177;" horiz-adv-x="948" d="M31 946h137l313 -796l305 796h132l-488 -1239q-35 -92 -96.5 -145.5t-163.5 -53.5q-31 0 -61.5 5.5t-59.5 13.5l12 115q27 -8 54.5 -15.5t56.5 -7.5q33 0 58.5 14.5t44 37t31.5 50t24 56.5l86 219zM193 1155l221 295h143l222 -295h-133l-166 221l-166 -221h-121z" />
<glyph unicode="&#x178;" horiz-adv-x="1175" d="M-12 1450h162l438 -688l448 688h152l-533 -825v-625h-135v625zM295 1720q0 41 28.5 70t69.5 29t70 -29t29 -70t-29 -69.5t-70 -28.5t-69.5 28.5t-28.5 69.5zM684 1720q0 41 28.5 70t69.5 29t70 -29t29 -70t-29 -69.5t-70 -28.5t-69.5 28.5t-28.5 69.5z" />
<glyph unicode="&#x179;" d="M47 0v106l848 1221h-836v123h1010v-111l-854 -1216h877v-123h-1045zM461 1540l213 295h164l-275 -295h-102z" />
<glyph unicode="&#x17a;" horiz-adv-x="872" d="M55 0v74l568 762h-539v110h709v-74l-566 -761h590v-111h-762zM332 1155l213 295h164l-275 -295h-102z" />
<glyph unicode="&#x17b;" d="M47 0v106l848 1221h-836v123h1010v-111l-854 -1216h877v-123h-1045zM504 1720q0 41 28.5 70t69.5 29t69.5 -29t28.5 -70t-28.5 -69.5t-69.5 -28.5t-69.5 28.5t-28.5 69.5z" />
<glyph unicode="&#x17c;" horiz-adv-x="872" d="M55 0v74l568 762h-539v110h709v-74l-566 -761h590v-111h-762zM377 1335q0 41 28.5 70t69.5 29t69.5 -29t28.5 -70t-28.5 -69.5t-69.5 -28.5t-69.5 28.5t-28.5 69.5z" />
<glyph unicode="&#x17d;" d="M47 0v106l848 1221h-836v123h1010v-111l-854 -1216h877v-123h-1045zM271 1835h127l170 -233l176 233h110l-217 -295h-143z" />
<glyph unicode="&#x17e;" horiz-adv-x="872" d="M55 0v74l568 762h-539v110h709v-74l-566 -761h590v-111h-762zM137 1450h127l170 -233l176 233h110l-217 -295h-143z" />
<glyph unicode="&#x192;" horiz-adv-x="1064" d="M-33 -246l62 96q23 -18 51.5 -26t56.5 -8q82 0 120 58t58 169l131 717h-221v98h240l59 316q10 53 29.5 107t54.5 97t86 70t123 27q100 0 184 -62l-65 -92q-27 18 -56.5 30.5t-62.5 12.5q-78 0 -116.5 -54.5t-53.5 -129.5l-59 -322h221v-98h-240l-147 -801 q-23 -119 -91.5 -186.5t-201.5 -67.5q-43 0 -85 10.5t-77 38.5z" />
<glyph unicode="&#x2c6;" horiz-adv-x="491" d="M-47 1155l221 295h143l222 -295h-133l-166 221l-166 -221h-121z" />
<glyph unicode="&#x2c7;" horiz-adv-x="491" d="M-53 1450h127l170 -233l176 233h110l-217 -295h-143z" />
<glyph unicode="&#x2d8;" horiz-adv-x="491" d="M-49 1450h86q12 -82 68.5 -121t136.5 -39q92 0 142 35t71 125h86q-14 -123 -95 -190.5t-204 -67.5q-121 0 -203 67.5t-88 190.5z" />
<glyph unicode="&#x2d9;" horiz-adv-x="491" d="M154 1335q0 41 28.5 70t69.5 29t69.5 -29t28.5 -70t-28.5 -69.5t-69.5 -28.5t-69.5 28.5t-28.5 69.5z" />
<glyph unicode="&#x2da;" horiz-adv-x="491" d="M55 1329q0 39 15.5 75t41 62.5t60.5 42t76 15.5q39 0 73.5 -16.5t60.5 -44t40 -62.5t14 -74q0 -37 -14 -71.5t-40 -61.5t-60.5 -43t-73.5 -16q-41 0 -76 15t-60.5 42t-41 62.5t-15.5 74.5zM129 1327q0 -51 34 -85t83 -34q51 0 83.5 35t32.5 86t-32.5 86t-83.5 35t-84 -36 t-33 -87z" />
<glyph unicode="&#x2db;" horiz-adv-x="491" d="M20 -274q0 43 16.5 81.5t42 73.5t58.5 64.5t64 54.5h92q-23 -16 -48.5 -43t-48 -58.5t-38 -69.5t-15.5 -77q0 -96 88 -96q43 0 71 15.5t42 31.5l39 -78q-33 -29 -75 -48t-99 -19q-82 0 -135.5 45t-53.5 123z" />
<glyph unicode="&#x2dc;" horiz-adv-x="491" d="M-74 1190q4 35 18.5 72.5t37.5 66.5q23 31 55.5 50.5t73.5 19.5t79.5 -16.5t73.5 -34.5q35 -16 68 -32t61 -16q45 0 67.5 31t31.5 68h73q-4 -37 -16 -75t-33.5 -67.5t-51.5 -48t-71 -18.5t-79 16.5t-74 32.5q-37 16 -71 32.5t-65 16.5q-47 0 -70.5 -30.5t-33.5 -67.5h-74 z" />
<glyph unicode="&#x2dd;" horiz-adv-x="491" d="M-23 1155l213 295h164l-274 -295h-103zM276 1155l213 295h164l-274 -295h-103z" />
<glyph unicode="&#x3a9;" horiz-adv-x="1523" d="M96 0v119h404v168q-96 27 -171 82t-127 129.5t-79 165t-27 188.5q0 137 52.5 252t142.5 197.5t208.5 129t252.5 46.5q131 0 249.5 -46.5t207.5 -129t141.5 -197.5t52.5 -250q0 -98 -26.5 -189.5t-78 -167t-126 -130t-173.5 -80.5v-168h404v-119h-514v371q92 16 162.5 58 t119 105.5t72 143.5t23.5 172q0 111 -40 203t-109.5 158.5t-164 103.5t-202.5 37q-109 0 -203 -38t-164 -104.5t-110 -159t-40 -200.5q0 -90 24 -171t72 -144.5t118.5 -106.5t162.5 -57v-371h-514z" />
<glyph unicode="&#x3c0;" horiz-adv-x="1153" d="M78 850v96h987v-96h-156v-649q0 -25 2 -47.5t11.5 -39t27 -26.5t49.5 -10q16 0 36 4t38 10v-74q-31 -14 -57.5 -22t-61.5 -8q-55 0 -85.5 18.5t-45 50t-17.5 72.5t-3 86v635h-475v-850h-107v850h-143z" />
<glyph unicode="&#x2000;" horiz-adv-x="958" />
<glyph unicode="&#x2001;" horiz-adv-x="1917" />
<glyph unicode="&#x2002;" horiz-adv-x="958" />
<glyph unicode="&#x2003;" horiz-adv-x="1917" />
<glyph unicode="&#x2004;" horiz-adv-x="639" />
<glyph unicode="&#x2005;" horiz-adv-x="479" />
<glyph unicode="&#x2006;" horiz-adv-x="319" />
<glyph unicode="&#x2007;" horiz-adv-x="319" />
<glyph unicode="&#x2008;" horiz-adv-x="239" />
<glyph unicode="&#x2009;" horiz-adv-x="383" />
<glyph unicode="&#x200a;" horiz-adv-x="106" />
<glyph unicode="&#x2010;" horiz-adv-x="681" d="M88 430v111h506v-111h-506z" />
<glyph unicode="&#x2011;" horiz-adv-x="681" d="M88 430v111h506v-111h-506z" />
<glyph unicode="&#x2012;" horiz-adv-x="681" d="M88 430v111h506v-111h-506z" />
<glyph unicode="&#x2013;" horiz-adv-x="1024" d="M0 430v111h1024v-111h-1024z" />
<glyph unicode="&#x2014;" horiz-adv-x="2048" d="M0 430v111h2048v-111h-2048z" />
<glyph unicode="&#x2018;" horiz-adv-x="532" d="M127 983l156 467h123l-132 -467h-147z" />
<glyph unicode="&#x2019;" horiz-adv-x="532" d="M127 983l129 467h150l-158 -467h-121z" />
<glyph unicode="&#x201a;" horiz-adv-x="532" d="M127 -283l129 467h150l-158 -467h-121z" />
<glyph unicode="&#x201c;" horiz-adv-x="1064" d="M215 983l158 467h121l-129 -467h-150zM571 983l158 467h121l-129 -467h-150z" />
<glyph unicode="&#x201d;" horiz-adv-x="1064" d="M215 983l129 467h150l-158 -467h-121zM571 983l129 467h150l-158 -467h-121z" />
<glyph unicode="&#x201e;" horiz-adv-x="1064" d="M215 -283l129 467h150l-158 -467h-121zM571 -283l129 467h150l-158 -467h-121z" />
<glyph unicode="&#x2020;" horiz-adv-x="1064" d="M78 944v98h393v408h123v-408h393v-98h-393v-1202h-123v1202h-393z" />
<glyph unicode="&#x2021;" horiz-adv-x="1064" d="M78 150v98h393v696h-393v98h393v408h123v-408h393v-98h-393v-696h393v-98h-393v-408h-123v408h-393z" />
<glyph unicode="&#x2022;" horiz-adv-x="1024" d="M150 725q0 76 28.5 141.5t77.5 114.5t114.5 77.5t141.5 28.5t141.5 -28.5t114.5 -77.5t77.5 -114.5t28.5 -141.5t-28.5 -141.5t-77.5 -114.5t-114.5 -78t-141.5 -29t-141.5 29t-114.5 78t-77.5 114.5t-28.5 141.5z" />
<glyph unicode="&#x2026;" horiz-adv-x="2048" d="M244 86q0 41 28.5 69.5t69.5 28.5t69.5 -28.5t28.5 -69.5t-28.5 -69.5t-69.5 -28.5t-69.5 28.5t-28.5 69.5zM926 86q0 41 28.5 69.5t69.5 28.5t69.5 -28.5t28.5 -69.5t-28.5 -69.5t-69.5 -28.5t-69.5 28.5t-28.5 69.5zM1608 86q0 41 28.5 69.5t69.5 28.5t69.5 -28.5 t28.5 -69.5t-28.5 -69.5t-69.5 -28.5t-69.5 28.5t-28.5 69.5z" />
<glyph unicode="&#x202f;" horiz-adv-x="383" />
<glyph unicode="&#x2030;" horiz-adv-x="2009" d="M53 1161q0 63 24.5 120.5t67.5 100.5t99.5 68t122.5 25q63 0 120.5 -25t100.5 -68t67.5 -100t24.5 -121q0 -66 -24.5 -122t-67.5 -99t-100.5 -67.5t-120.5 -24.5q-66 0 -122.5 24.5t-99.5 67.5t-67.5 99t-24.5 122zM135 -12l934 1532l94 -58l-936 -1532zM152 1161 q0 -45 16 -84t46 -68.5t69 -46t84 -16.5t83.5 16.5t67.5 46t46.5 68.5t17.5 84t-17.5 84t-46.5 67.5t-67.5 46t-83.5 17.5t-84 -17.5t-69 -46t-46 -67.5t-16 -84zM627 289q0 63 24.5 120.5t67.5 100.5t99 67.5t122 24.5q63 0 120.5 -24.5t100.5 -67.5t67.5 -100.5 t24.5 -120.5q0 -66 -24.5 -122t-67.5 -99t-100 -68t-121 -25q-66 0 -122 25t-99 68t-67.5 99t-24.5 122zM725 289q0 -45 16.5 -84t46 -69t68.5 -46t84 -16t84 16t67.5 46t46 69t17.5 84t-17.5 84t-46 67.5t-67.5 46t-84 17.5t-84 -17.5t-68.5 -46t-46 -67.5t-16.5 -84z M1329 289q0 63 24.5 120.5t67.5 100.5t99.5 67.5t121.5 24.5q63 0 121 -24.5t101 -67.5t67.5 -100.5t24.5 -120.5q0 -66 -24.5 -122t-67.5 -99t-100.5 -68t-121.5 -25q-66 0 -122 25t-99 68t-67.5 99t-24.5 122zM1427 289q0 -45 16.5 -84t46.5 -69t68.5 -46t83.5 -16t84 16 t68 46t46.5 69t17.5 84t-17.5 84t-46.5 67.5t-67.5 46t-84.5 17.5q-45 0 -83.5 -17.5t-68.5 -46t-46.5 -67.5t-16.5 -84z" />
<glyph unicode="&#x2039;" horiz-adv-x="645" d="M129 485l281 416l86 -59l-238 -357l242 -360l-90 -55z" />
<glyph unicode="&#x203a;" horiz-adv-x="645" d="M145 846l91 55l280 -416l-280 -415l-86 59l237 356z" />
<glyph unicode="&#x2044;" horiz-adv-x="344" d="M-342 -12l934 1532l94 -58l-936 -1532z" />
<glyph unicode="&#x205f;" horiz-adv-x="479" />
<glyph unicode="&#x20ac;" horiz-adv-x="962" d="M51 510l25 98h98q-4 23 -5 54.5t-1 54.5q0 29 2 64.5t6 64.5h-121l23 98h106q49 274 179.5 406.5t326.5 132.5q66 0 122 -12.5t91 -28.5l-33 -113q-27 14 -70.5 25.5t-105.5 11.5q-141 0 -236.5 -106.5t-129.5 -315.5h456l-26 -98h-447q-4 -27 -6 -62.5t-2 -66.5 q0 -23 1 -54.5t3 -54.5h410l-23 -98h-375q25 -199 121.5 -310.5t237.5 -111.5q66 0 114 16.5t87 38.5l24 -116q-35 -23 -94 -41.5t-145 -18.5q-104 0 -186.5 40t-143 113t-99 172t-55.5 218h-129z" />
<glyph unicode="&#x2122;" horiz-adv-x="2027" d="M172 1352v98h655v-98h-272v-746h-111v746h-272zM979 606v844h176l266 -672l265 672h169v-844h-110v740h-4l-291 -740h-66l-290 740h-4v-740h-111z" />
<glyph unicode="&#x2202;" horiz-adv-x="1015" d="M63 434q0 88 27 168t78 139.5t125 94t168 34.5q100 0 188 -47t152 -125q0 27 1 53.5t1 53.5q0 86 -17.5 183t-59.5 181t-112.5 139.5t-177.5 55.5q-72 0 -124 -26.5t-105 -67.5l-74 88q66 57 137.5 88t159.5 31q98 0 174 -32t131.5 -87t93 -128t60 -155t33 -167 t10.5 -165q0 -113 -16.5 -247t-65.5 -249.5t-140.5 -193.5t-238.5 -78q-96 0 -172 38t-128 101.5t-80 146.5t-28 173zM193 430q0 -61 17 -122.5t53 -112t88 -81t122 -30.5q88 0 147.5 49t96.5 123t53.5 157.5t20.5 155.5q-55 74 -137.5 130.5t-180.5 56.5q-70 0 -122 -27 t-88 -72t-53 -104t-17 -123z" />
<glyph unicode="&#x2206;" horiz-adv-x="1372" d="M31 0l575 1458h152l588 -1458h-1315zM217 127h932l-469 1194z" />
<glyph unicode="&#x220f;" horiz-adv-x="1456" d="M145 -438v2048h1168v-2048h-135v1921h-897v-1921h-136z" />
<glyph unicode="&#x2211;" horiz-adv-x="1236" d="M51 -326l674 918l-645 903v115h1079v-127h-905l633 -891l-672 -905h969v-125h-1133v112z" />
<glyph unicode="&#x221a;" horiz-adv-x="1009" d="M-16 315l204 99l324 -680l387 1876h129l-430 -2048h-135l-336 696l-94 -45z" />
<glyph unicode="&#x221e;" horiz-adv-x="1517" d="M84 510q0 61 19.5 116.5t56.5 97.5t89 65.5t118 23.5q59 0 113.5 -21.5t102.5 -55.5t92 -73.5t85 -78.5q41 39 83 80t88 74.5t98 55t114 21.5q66 0 119 -22.5t92 -62.5t59.5 -95.5t20.5 -118.5t-20.5 -118.5t-57.5 -96.5t-90.5 -64.5t-118.5 -23.5q-59 0 -112.5 19.5 t-101.5 51t-91 70.5t-82 78q-45 -37 -88 -76t-89 -70.5t-98.5 -52t-113.5 -20.5q-66 0 -118 22.5t-90 62.5t-58.5 94t-20.5 118zM201 512q0 -78 45 -129t127 -51q43 0 85 17.5t82 44t76.5 58t65.5 58.5q-31 27 -67.5 58.5t-78.5 60t-85 48t-86 19.5q-39 0 -70 -15t-51.5 -41 t-31.5 -58.5t-11 -69.5zM838 508q33 -29 68.5 -59.5t75.5 -57t82 -43t89 -16.5q78 0 121 51t43 127q0 78 -42 133t-128 55q-43 0 -85 -19.5t-81 -49t-76 -62t-67 -59.5z" />
<glyph unicode="&#x222b;" horiz-adv-x="1112" d="M207 -340q0 29 19.5 47.5t47.5 18.5q27 0 41.5 -12.5t23.5 -27t17.5 -26.5t20.5 -12q27 0 41 46t19 104.5t5 110.5v64l2 43v1014q0 47 -2 108.5t1 126t14.5 126t39 110.5t73.5 79t118 30q23 0 48.5 -5.5t47 -17.5t34.5 -31.5t13 -48.5q0 -35 -21.5 -52t-53.5 -17 q-29 0 -43.5 12t-23.5 27.5t-17 29t-23 13.5q-25 0 -39 -27t-21 -67t-10.5 -87t-2 -91t2.5 -76.5t1 -43.5v-1032q0 -66 -2.5 -157t-25 -174.5t-73.5 -142t-149 -58.5q-43 0 -83 22.5t-40 73.5z" />
<glyph unicode="&#x2248;" horiz-adv-x="1363" d="M160 190q8 51 24.5 98.5t44 84.5t68.5 58.5t100 21.5q63 0 138 -22.5t153 -51.5q74 -29 147.5 -52.5t135.5 -23.5q76 0 114.5 46t55.5 114h65q-6 -49 -23.5 -96.5t-46 -83t-70.5 -57t-99 -21.5q-63 0 -139 23.5t-152 52.5t-146.5 51t-130.5 22q-72 0 -114.5 -49 t-57.5 -115h-67zM160 541q8 51 24.5 98t44 84t68.5 58.5t100 21.5q63 0 138 -22.5t153 -51.5q74 -29 147.5 -52.5t135.5 -23.5q76 0 114.5 46t55.5 114h65q-6 -49 -23.5 -96t-46 -83t-70.5 -57.5t-99 -21.5q-63 0 -139 23.5t-152 52.5t-146.5 51.5t-130.5 22.5 q-72 0 -114.5 -49.5t-57.5 -114.5h-67z" />
<glyph unicode="&#x2260;" horiz-adv-x="1363" d="M180 258v98h365l153 291h-518v98h572l157 297l84 -45l-133 -252h324v-98h-375l-156 -291h531v-98h-582l-153 -291l-87 43l132 248h-314z" />
<glyph unicode="&#x2264;" horiz-adv-x="1363" d="M180 25v96h1004v-96h-1004zM180 616v115l1004 377v-107l-883 -329l883 -328v-104z" />
<glyph unicode="&#x2265;" horiz-adv-x="1363" d="M180 25v96h1004v-96h-1004zM180 240v104l883 328l-883 329v107l1004 -377v-115z" />
<glyph unicode="&#x25ca;" horiz-adv-x="1214" d="M195 729l346 801h129l350 -801l-350 -801h-129zM328 729l278 -666l281 666l-281 666z" />
<glyph unicode="&#x25fc;" horiz-adv-x="942" d="M0 0v942h942v-942h-942z" />
<glyph unicode="&#xf8ff;" horiz-adv-x="1048" d="M0 0v1470h1049v-1470h-1049zM102 102h844v1264h-844v-1264zM254 967q14 147 90 213.5t186 66.5q111 0 182.5 -72.5t71.5 -195.5q0 -66 -25.5 -120t-103.5 -126q-76 -68 -88 -106q-12 -41 -12 -148h-94l-4 35q0 115 26 166q14 27 37 56.5t58 64.5q66 61 84 97t18 73 q0 74 -46 124t-110 50q-63 0 -109 -45t-59 -150zM455 240v137h114v-137h-114z" />
<glyph unicode="&#xfb01;" horiz-adv-x="1062" d="M37 836v110h196v309q0 92 28 152.5t69 97.5t91 52.5t95 15.5q86 0 141 -25l-24 -106q-41 20 -111 20q-166 0 -166 -252v-264h222v-110h-222v-836h-123v836h-196zM725 1321q0 39 26.5 65.5t65.5 26.5t65.5 -26.5t26.5 -65.5t-26.5 -65.5t-65.5 -26.5t-65.5 26.5 t-26.5 65.5zM756 0v946h123v-946h-123z" />
<glyph unicode="&#xfb02;" horiz-adv-x="1062" d="M37 836v110h196v309q0 92 28 152.5t69 97.5t91 52.5t95 15.5q86 0 141 -25l-24 -106q-41 20 -111 20q-166 0 -166 -252v-264h222v-110h-222v-836h-123v836h-196zM756 0v1548h123v-1548h-123z" />
</font>
</defs>
</svg>
