<?xml version="1.0" standalone="no"?>
<!DOCTYPE svg PUBLIC "-//W3C//DTD SVG 1.1//EN" "http://www.w3.org/Graphics/SVG/1.1/DTD/svg11.dtd" >
<svg xmlns="http://www.w3.org/2000/svg">
<metadata></metadata>
<defs>
<font id="dhheavy_oblique" horiz-adv-x="1175" >
<font-face units-per-em="2048" ascent="1638" descent="-410" />
<missing-glyph horiz-adv-x="606" />
<glyph horiz-adv-x="0" />
<glyph unicode="&#xd;" horiz-adv-x="0" />
<glyph unicode=" "  horiz-adv-x="606" />
<glyph unicode="&#x09;" horiz-adv-x="606" />
<glyph unicode="&#xa0;" horiz-adv-x="606" />
<glyph unicode="!" horiz-adv-x="606" d="M158 143q10 66 64 113t122 47q66 0 109 -45t34 -111q-10 -66 -64 -112.5t-122 -46.5q-33 0 -60.5 12t-48 32.5t-29.5 49t-5 61.5zM244 455l139 995h246l-140 -995h-245z" />
<glyph unicode="&#x22;" horiz-adv-x="1062" d="M373 909l76 541h208l-75 -541h-209zM735 909l76 541h209l-76 -541h-209z" />
<glyph unicode="#" horiz-adv-x="1212" d="M156 428l24 172h207l72 250h-185l25 172h207l121 428h180l-121 -428h211l121 428h178l-121 -428h185l-25 -172h-209l-70 -250h185l-25 -172h-205l-123 -428h-178l121 428h-213l-121 -428h-178l121 428h-184zM567 600h211l70 250h-211z" />
<glyph unicode="$" horiz-adv-x="1212" d="M84 158l213 190q41 -70 113.5 -106.5t156.5 -44.5l62 432l-11 2q-84 25 -157.5 54.5t-125.5 77.5t-78 116.5t-11 171.5q12 92 59 165.5t115.5 128t153.5 87t174 41.5l18 137h111l-19 -135h19q104 0 207.5 -36t172.5 -106l-196 -190q-41 51 -101.5 80.5t-132.5 29.5 l-59 -409l8 -2q82 -23 162 -51.5t138.5 -74.5t88 -116t15.5 -174q-14 -102 -62.5 -181t-120 -135.5t-162 -89t-188.5 -43.5l-20 -147h-111l21 145q-135 -2 -254 41t-199 142zM504 1063q-6 -47 5 -76t33.5 -49t54.5 -33.5t67 -30.5l51 375q-74 -12 -136.5 -60t-74.5 -126z M678 197q88 16 157.5 68t82.5 143q6 45 -8.5 75.5t-42 51t-63.5 35t-71 26.5z" />
<glyph unicode="%" horiz-adv-x="1857" d="M215 1094q10 80 50 148.5t98.5 120.5t132 82t153.5 30t144.5 -30t109.5 -82t64.5 -120.5t9.5 -148.5q-12 -80 -52 -148.5t-98.5 -121t-132 -82t-153.5 -29.5t-144.5 29.5t-108.5 82t-64.5 121t-8.5 148.5zM412 1094q-10 -78 35 -131.5t122 -53.5q39 0 75 14.5t64.5 39 t47 58.5t24.5 73q10 78 -36 131t-123 53q-39 0 -74 -14.5t-63.5 -39t-47 -58t-24.5 -72.5zM420 12l1065 1504l157 -78l-1062 -1504zM1083 356q10 80 50.5 148.5t98.5 121t132 82t154 29.5t144 -29.5t109.5 -82t64.5 -121t9 -148.5q-12 -80 -51 -148.5t-98.5 -120.5t-132 -82 t-152.5 -30t-145.5 30t-109.5 82t-64.5 120.5t-8.5 148.5zM1280 356q-10 -78 35 -131t123 -53q39 0 74.5 14.5t64.5 39t47.5 58t24.5 72.5q10 78 -35 131.5t-123 53.5q-39 0 -75 -14.5t-64.5 -39t-47 -58.5t-24.5 -73z" />
<glyph unicode="&#x26;" horiz-adv-x="1517" d="M152 389q10 74 43.5 136.5t84 114.5t113 92t129.5 65q-29 39 -54.5 75.5t-41.5 75.5t-23.5 84t0.5 98q12 88 56.5 156t108 112t142 66.5t160.5 22.5t153 -20.5t121 -62.5t74.5 -107.5t12.5 -153.5q-10 -68 -43 -124t-80 -102.5t-104.5 -84t-114.5 -64.5l198 -252l197 246 h289l-350 -420l266 -342h-318l-131 166q-104 -104 -210.5 -153.5t-245.5 -49.5q-96 0 -181.5 27.5t-145.5 82t-90 133.5t-15 183zM424 403q-6 -47 6 -88t40 -69.5t66.5 -45t86.5 -16.5q86 0 154.5 45t131.5 99l-252 323q-39 -23 -77.5 -46t-71.5 -52t-55.5 -65.5 t-28.5 -84.5zM647 1120q-8 -57 30 -111.5t79 -99.5q33 16 70.5 38t70.5 49.5t56.5 60.5t29.5 73q8 59 -33.5 97.5t-107.5 38.5q-72 0 -128.5 -40t-66.5 -106z" />
<glyph unicode="'" horiz-adv-x="606" d="M326 909l75 541h209l-75 -541h-209z" />
<glyph unicode="(" horiz-adv-x="606" d="M180 590q35 250 147.5 482.5t278.5 426.5l160 -106l-2 -9q-147 -172 -246.5 -377.5t-128.5 -416.5q-29 -213 11 -419t139 -378l-187 -112q-115 195 -161 426t-11 483z" />
<glyph unicode=")" horiz-adv-x="606" d="M4 -213l2 8q147 172 246.5 378t128.5 417q29 213 -11 417.5t-139 376.5l187 115q115 -195 161 -426t11 -483q-35 -250 -147.5 -482.5t-278.5 -426.5z" />
<glyph unicode="*" horiz-adv-x="948" d="M209 1092l78 163l264 -96l41 291h172l-41 -291l289 90l30 -164l-290 -90l141 -239l-156 -103l-141 242l-205 -236l-123 105l209 231z" />
<glyph unicode="+" horiz-adv-x="1363" d="M199 516l28 209h451l63 451h209l-63 -451h450l-28 -209h-451l-63 -450h-209l63 450h-450z" />
<glyph unicode="," horiz-adv-x="606" d="M41 -258l219 541h250l-250 -541h-219z" />
<glyph unicode="-" horiz-adv-x="645" d="M125 399l29 209h505l-28 -209h-506z" />
<glyph unicode="." horiz-adv-x="606" d="M158 143q10 66 64 113t122 47q66 0 109 -45t34 -111q-10 -66 -64 -112.5t-122 -46.5q-33 0 -60.5 12t-48 32.5t-29.5 49t-5 61.5z" />
<glyph unicode="/" horiz-adv-x="796" d="M-23 -37l861 1589l161 -65l-862 -1585z" />
<glyph unicode="0" horiz-adv-x="1212" d="M168.5 431q-11.5 122 13.5 294t70 294t101.5 205t120 133t126 75.5t117.5 34t96 8.5t94.5 -8.5t107.5 -34t103 -75.5t83 -133t44 -205t-14 -294q-25 -172 -69 -294t-100 -205t-120.5 -133t-126 -75.5t-117 -34t-96.5 -8.5t-94 8.5t-107.5 34t-104.5 75.5t-83 133 t-44.5 205zM415 568q-3 -89 15.5 -169t65.5 -135t139 -55t154.5 55t103.5 135t61.5 169t30.5 157t14.5 157t-14 168.5t-66 135t-139.5 55.5t-154.5 -55.5t-103.5 -135t-62.5 -168.5t-31.5 -157t-13 -157z" />
<glyph unicode="1" horiz-adv-x="1212" d="M285 1085l489 365h223l-202 -1450h-246l164 1167l-310 -252z" />
<glyph unicode="2" horiz-adv-x="1212" d="M121 0l35 260l641 545q29 25 58.5 52.5t56 58t45 64.5t24.5 71q12 90 -43 140t-141 50q-92 0 -160 -53t-92 -144l-254 21q23 100 73 177t120.5 128t158.5 78t186 27t180.5 -26t138.5 -76t80.5 -128t10.5 -182q-18 -137 -95 -236.5t-188 -189.5l-505 -416h671l-30 -221 h-971z" />
<glyph unicode="3" horiz-adv-x="1212" d="M137 315l273 70q10 -90 60 -139t148 -49q49 0 95.5 16t84.5 46t63.5 72t33.5 93q10 70 -13.5 114t-66.5 67.5t-99.5 31.5t-111.5 8h-59l30 221h64q53 0 104.5 6.5t94.5 27t71.5 59t38.5 104.5q12 84 -37 137t-141 53q-74 0 -139.5 -42t-100.5 -117l-251 69 q35 80 89 139.5t120.5 97.5t143.5 56.5t156 18.5q94 0 175 -25t137.5 -73t84 -120.5t13.5 -169.5q-16 -117 -95 -208t-198 -119l-2 -4q137 -20 194.5 -118.5t39.5 -234.5q-14 -104 -65.5 -184t-127.5 -134t-168 -82t-188 -28q-90 0 -167 19.5t-136.5 60.5t-97 105.5 t-50.5 154.5z" />
<glyph unicode="4" horiz-adv-x="1212" d="M111 295l32 244l713 911h279l-131 -934h210l-30 -221h-211l-41 -295h-246l41 295h-616zM391 516h367l82 586h-4z" />
<glyph unicode="5" horiz-adv-x="1212" d="M133 307l266 70q14 -78 67.5 -123t147.5 -45q55 0 104.5 18.5t87.5 52t62.5 78.5t32.5 99q10 76 -10.5 129t-62.5 87t-101 49t-127 15q-80 0 -162 -18.5t-151 -50.5l125 782h825l-31 -221h-583l-48 -289q31 10 75 14t83 4q106 0 190.5 -33.5t139.5 -97t77.5 -151.5 t8.5 -199q-16 -117 -69.5 -210t-132.5 -157.5t-180 -99.5t-212 -35q-174 0 -284.5 82t-137.5 250z" />
<glyph unicode="6" horiz-adv-x="1212" d="M156 469q16 115 66 208t124 189l453 584h299l-424 -537l4 -4q23 12 62.5 18.5t76.5 6.5q96 0 171 -37t124 -100.5t68.5 -147.5t7.5 -178q-16 -113 -67.5 -205t-130.5 -156.5t-178 -99.5t-210 -35q-115 0 -204 34t-148.5 97.5t-85 155.5t-8.5 207zM414 473q-8 -55 6 -103 t45 -84t76 -56.5t100 -20.5t105.5 20.5t91.5 56.5t68.5 84t35.5 103t-6 103.5t-45 84t-76 56t-100 20.5t-105.5 -20.5t-91.5 -56t-68.5 -84t-35.5 -103.5z" />
<glyph unicode="7" horiz-adv-x="1212" d="M203 0l762 1217h-709l33 233h985l-31 -225l-751 -1225h-289z" />
<glyph unicode="8" horiz-adv-x="1212" d="M174 412q8 68 39 127t74 105t95 78t105 42v4q-104 33 -146 121t-26 205q12 92 57.5 162.5t112 118.5t151.5 74t177 26t169 -26t131 -74t79 -118.5t12 -162.5q-16 -117 -83.5 -205t-182.5 -121v-4q51 -10 94 -42t73 -78t43 -105.5t5 -126.5q-16 -109 -65.5 -190t-124 -136 t-168 -83t-193.5 -28q-102 0 -187 28t-143.5 83t-86 136t-11.5 190zM424 442q-16 -104 44 -168.5t167 -64.5q106 0 183 65.5t93 167.5q6 49 -7 91t-43 73t-72 47.5t-91 16.5t-96 -16.5t-84 -47.5t-62.5 -72.5t-31.5 -91.5zM557 1069q-12 -86 33 -144.5t137 -58.5 q41 0 79 15.5t68.5 43t52 64.5t27.5 80q10 82 -38 139.5t-134 57.5q-94 0 -154.5 -57.5t-70.5 -139.5z" />
<glyph unicode="9" horiz-adv-x="1212" d="M227 979q14 113 66.5 205t130.5 156.5t178 99.5t211 35q113 0 203 -34t149.5 -97.5t85 -155.5t9.5 -207t-67.5 -208t-123.5 -189l-453 -584h-299l422 537l-2 4q-25 -12 -63.5 -18.5t-75.5 -6.5q-96 0 -171 37t-124 100.5t-69.5 147.5t-6.5 178zM473 977 q-8 -55 6.5 -103.5t45 -84t74.5 -56t99 -20.5t106.5 20.5t92.5 56t68.5 84t35.5 103.5t-6 103t-44.5 84t-76 56.5t-100.5 20.5t-105.5 -20.5t-91 -56.5t-68.5 -84t-36 -103z" />
<glyph unicode=":" horiz-adv-x="606" d="M158 143q10 66 64 113t122 47q66 0 109 -45t34 -111q-10 -66 -64 -112.5t-122 -46.5q-33 0 -60.5 12t-48 32.5t-29.5 49t-5 61.5zM256 838q10 66 64.5 112.5t121.5 46.5q66 0 108 -45t34 -110q-10 -66 -64.5 -113t-122.5 -47q-33 0 -60.5 12.5t-47 33t-28.5 49t-5 61.5z " />
<glyph unicode=";" horiz-adv-x="606" d="M41 -258l219 541h250l-250 -541h-219zM256 838q10 66 64.5 112.5t121.5 46.5q66 0 108 -45t34 -110q-10 -66 -64.5 -113t-122.5 -47q-33 0 -60.5 12.5t-47 33t-28.5 49t-5 61.5z" />
<glyph unicode="&#x3c;" horiz-adv-x="1363" d="M240 547l20 147l1102 461l-33 -225l-735 -309l649 -310l-33 -225z" />
<glyph unicode="=" horiz-adv-x="1363" d="M172 332l31 209h1110l-31 -209h-1110zM225 700l29 209h1110l-29 -209h-1110z" />
<glyph unicode="&#x3e;" horiz-adv-x="1363" d="M174 86l33 225l735 310l-649 309l33 225l970 -461l-20 -147z" />
<glyph unicode="?" horiz-adv-x="1062" d="M248 1073q51 197 195.5 305.5t340.5 108.5q92 0 167 -26.5t126 -77t74 -125t8 -171.5q-10 -68 -34.5 -118.5t-61.5 -94t-83 -82t-97 -81.5q-33 -27 -55.5 -47.5t-39 -42t-26.5 -49t-17 -66.5l-10 -78h-246l17 113q6 45 15 76.5t25.5 57t41 49.5t61.5 56l180 160 q59 53 70 133q10 80 -34 130t-124 50q-86 0 -150.5 -58t-82.5 -142zM408 143q10 66 64 113t122 47q66 0 108.5 -45t34.5 -111q-10 -66 -64.5 -112.5t-121.5 -46.5q-33 0 -60.5 12t-48 32.5t-29.5 49t-5 61.5z" />
<glyph unicode="@" horiz-adv-x="1638" d="M166 723q23 164 104.5 303t202.5 241.5t271.5 161t312.5 58.5q135 0 259 -44t214 -130t134 -212t22 -288q-23 -164 -90.5 -262t-148.5 -151.5t-161 -70t-125 -16.5q-86 0 -117.5 35t-27.5 76h-4q-47 -41 -114 -76t-165 -35q-66 0 -117 26t-82.5 71t-44 108.5t-2.5 138.5 q12 90 52.5 173t101.5 147.5t142 102.5t178 38q82 0 132 -26.5t72 -90.5h4l31 93h193l-133 -404q-10 -29 -20.5 -57.5t-14.5 -59.5q-6 -37 3 -56t42 -19t66.5 17t63.5 55t53.5 95.5t35.5 137.5q16 123 -10.5 216t-89 156.5t-155.5 95.5t-210 32q-127 0 -237.5 -43 t-196.5 -121t-141.5 -184.5t-73.5 -231.5q-18 -135 12.5 -241.5t100 -180.5t175 -114t234.5 -40q117 0 218.5 33t184.5 92h226q-131 -152 -307.5 -230.5t-364.5 -78.5q-164 0 -300 56.5t-230.5 156.5t-137.5 240.5t-20 306.5zM696 638q-2 -32 9.5 -62.5t43 -54t95.5 -23.5 q57 0 99 22.5t69.5 58t43 79.5t21.5 87q10 82 -18.5 135.5t-106.5 53.5q-51 0 -94 -19.5t-75.5 -53.5t-54 -79t-28.5 -96q-2 -16 -4 -48z" />
<glyph unicode="A" horiz-adv-x="1478" d="M0 0l834 1450h223l422 -1450h-295l-90 332h-629l-176 -332h-289zM584 553h450l-139 590z" />
<glyph unicode="B" horiz-adv-x="1327" d="M162 0l203 1450h565q82 0 158.5 -19.5t133.5 -63.5q58 -43 86 -113q19 -47 20 -107q0 -29 -5 -62q-16 -123 -98 -202.5t-199 -114.5v-4q68 -8 121 -38t89 -76t50 -106q8 -35 8 -74q0 -27 -4 -56q-16 -119 -74.5 -198t-142.5 -127t-185.5 -68.5t-203.5 -20.5h-522z M451 221h237q49 0 106.5 6t106.5 29t86 64.5t47 113.5q3 22 3 41q1 82 -55 119q-68 45 -226 45h-248zM541 860h235q129 0 201 50.5t82 131.5q3 18 3 34q0 68 -50 106q-60 46 -207 47h-213z" />
<glyph unicode="C" horiz-adv-x="1402" d="M184 719q25 174 101.5 316.5t192.5 242.5t264.5 154.5t316.5 54.5q147 0 265 -52.5t210 -177.5l-221 -147q-70 86 -139.5 114.5t-145.5 28.5q-113 0 -210 -39.5t-173 -110.5t-125 -165t-63 -203q-7 -51 -7 -98q0 -62 12 -117q21 -98 76.5 -169.5t141.5 -112.5t199 -41 q88 0 176 42t174 134l192 -152q-119 -135 -268 -196.5t-309 -61.5q-168 0 -301 54.5t-220 153.5t-125 239q-23 86 -23 182q0 61 9 127z" />
<glyph unicode="D" horiz-adv-x="1554" d="M162 0l203 1450h571q143 0 270 -44t216 -134t132 -226q27 -85 27 -189q0 -63 -10 -132q-27 -186 -117 -322.5t-213 -225.5t-265 -133t-274 -44h-540zM453 233h192q121 0 231.5 28t198.5 86.5t147.5 151.5t77.5 226q7 52 7 99q0 70 -16 126q-27 94 -91.5 152.5t-160 86.5 t-214.5 28h-235z" />
<glyph unicode="E" horiz-adv-x="1251" d="M162 0l203 1450h960l-33 -233h-702l-49 -357h665l-32 -233h-666l-55 -394h739l-33 -233h-997z" />
<glyph unicode="F" d="M162 0l203 1450h935l-32 -233h-678l-53 -381h639l-33 -234h-639l-84 -602h-258z" />
<glyph unicode="G" horiz-adv-x="1593" d="M184 719q25 174 101.5 316.5t192.5 242.5t264.5 154.5t316.5 54.5q166 0 305 -40t240 -142l-218 -193q-59 68 -153 104.5t-205 36.5q-113 0 -210 -39.5t-173 -110.5t-125 -165t-63 -203q-7 -51 -7 -98q0 -61 12 -117q21 -98 76.5 -169.5t141.5 -112.5t199 -41 q98 0 188 18t162 57l49 342h-297l33 234h555l-105 -742q-291 -143 -620 -143q-168 0 -301 54.5t-220 153.5t-125 239q-23 85 -23 182q0 61 9 127z" />
<glyph unicode="H" horiz-adv-x="1517" d="M162 0l203 1450h258l-82 -578h678l81 578h259l-203 -1450h-258l88 639h-678l-88 -639h-258z" />
<glyph unicode="I" horiz-adv-x="569" d="M156 0l202 1450h258l-202 -1450h-258z" />
<glyph unicode="J" horiz-adv-x="1024" d="M51 297l250 57q2 -72 42 -114.5t108 -42.5q111 0 161 74.5t68 205.5l137 973h258l-147 -1049q-12 -86 -51 -165.5t-101.5 -140t-149.5 -96.5t-196 -36q-172 0 -270.5 80t-108.5 254z" />
<glyph unicode="K" horiz-adv-x="1402" d="M162 0l203 1450h258l-86 -614h12l686 614h348l-772 -670l614 -780h-362l-531 713h-14l-98 -713h-258z" />
<glyph unicode="L" horiz-adv-x="1062" d="M162 0l203 1450h258l-170 -1217h616l-33 -233h-874z" />
<glyph unicode="M" horiz-adv-x="1896" d="M168 0l203 1450h393l244 -1016l534 1016h389l-202 -1450h-246l168 1204h-4l-609 -1204h-180l-272 1204h-4l-168 -1204h-246z" />
<glyph unicode="N" horiz-adv-x="1630" d="M162 0l203 1450h342l550 -1077h5l151 1077h258l-203 -1450h-327l-561 1112h-5l-155 -1112h-258z" />
<glyph unicode="O" horiz-adv-x="1705" d="M184 719q25 174 101.5 316.5t192.5 242.5t264.5 154.5t316.5 54.5h12q162 -1 292 -51q134 -52 222 -152t125 -242q22 -84 23 -180q0 -65 -11 -135q-25 -170 -100.5 -309t-192 -239.5t-266 -157t-319.5 -58.5q-168 0 -301 54.5t-220 153.5t-125 239q-23 85 -24 180 q0 62 10 129zM457 735q-7 -51 -7 -98q0 -62 12 -117q21 -98 76.5 -169.5t141.5 -112.5t199 -41t211 41t173.5 112.5t125 169.5t65.5 215q6 43 6 84q0 62 -14 119q-22 94 -76.5 165t-141.5 110.5t-200 39.5t-210 -39.5t-173 -110.5t-125 -165t-63 -203z" />
<glyph unicode="P" horiz-adv-x="1251" d="M162 0l203 1450h487q104 0 198.5 -20.5t161 -68.5t98.5 -129q22 -54 22 -127q0 -36 -5 -75q-18 -137 -77.5 -221t-145.5 -130t-193.5 -62.5t-222.5 -16.5h-184l-84 -600h-258zM535 821h155q55 0 115.5 4t113 24.5t90.5 61.5t48 115q2 18 2 34q-1 45 -17 74 q-22 40 -64 61.5t-96.5 27.5t-105.5 6h-184z" />
<glyph unicode="Q" horiz-adv-x="1744" d="M188 756q23 160 103 294t198.5 231t264 151.5t301.5 54.5t285.5 -54.5t221 -151.5t132.5 -231q26 -87 26 -183q0 -54 -8 -111q-16 -115 -56 -202t-93.5 -153.5t-113.5 -111.5t-118 -76v-4h416l-29 -209h-844q-170 0 -307 52t-229 149.5t-133 238.5q-26 88 -26 191 q0 60 9 125zM459 750q-6 -44 -6 -85q0 -64 15 -121q24 -95 79 -164t139 -108t191 -39q106 0 202.5 39t172 108t124.5 164t66 206q5 42 5 81q0 63 -13 119q-23 92 -79.5 160t-142 105.5t-196.5 37.5q-104 0 -199.5 -37.5t-169.5 -105.5t-124 -160t-64 -200z" />
<glyph unicode="R" horiz-adv-x="1290" d="M162 0l203 1450h503q104 0 199.5 -19.5t164 -66.5t102.5 -127q22 -52 22 -123q0 -37 -6 -80q-10 -78 -42 -145.5t-82 -118.5t-118 -84t-150 -45l297 -641h-311l-250 614h-188l-86 -614h-258zM537 836h200q55 0 111.5 5t104.5 24.5t83 59.5t45 111q2 17 2 33q0 41 -15 69 q-21 40 -61 59.5t-91.5 25.5t-100.5 6h-223z" />
<glyph unicode="S" d="M84 160l221 188q39 -72 109.5 -111.5t156.5 -39.5q45 0 91.5 12t86 36.5t68.5 62.5t37 87q2 15 2 28q0 60 -37 95q-45 43 -117.5 73t-157.5 56.5t-155 72.5q-71 46 -111 123q-28 53 -28 132q0 35 6 74q16 113 73.5 194.5t140.5 136t183.5 81t200.5 26.5q115 0 218.5 -35 t174.5 -115l-215 -198q-35 59 -98.5 86.5t-138.5 27.5q-45 0 -89 -10t-81 -32.5t-62.5 -58.5t-32.5 -85q-2 -13 -2 -26q0 -55 37 -87q45 -39 118 -67.5t158 -55t155.5 -73.5t110.5 -125q27 -53 27 -129q0 -36 -6 -78q-16 -117 -71.5 -204t-136 -144.5t-181 -86t-207.5 -28.5 q-135 0 -253.5 45t-194.5 152z" />
<glyph unicode="T" d="M184 1217l33 233h1147l-33 -233h-444l-170 -1217h-258l170 1217h-445z" />
<glyph unicode="U" horiz-adv-x="1478" d="M229 532l129 918h258l-127 -909q-4 -26 -4 -53q1 -28 5 -58q8 -58 38.5 -108t89 -81.5t150.5 -31.5t159.5 31.5t111.5 81t69 107.5t33 112l127 909h258l-129 -918q-18 -131 -77.5 -236.5t-149 -179t-201 -113.5t-236.5 -40t-226 40t-169 113.5t-98 179.5q-18 66 -18 140 q0 46 7 96z" />
<glyph unicode="V" horiz-adv-x="1366" d="M197 1450h297l241 -1096l561 1096h279l-789 -1450h-223z" />
<glyph unicode="W" horiz-adv-x="2009" d="M203 1450h282l125 -1044h4l473 1044h254l172 -1044h5l432 1044h262l-625 -1450h-246l-182 1104h-4l-489 -1104h-238z" />
<glyph unicode="X" horiz-adv-x="1402" d="M0 0l623 758l-387 692h325l266 -537l414 537h313l-571 -692l420 -758h-328l-297 612l-467 -612h-311z" />
<glyph unicode="Y" horiz-adv-x="1290" d="M174 1450h324l274 -578l442 578h308l-662 -829l-86 -621h-258l86 621z" />
<glyph unicode="Z" horiz-adv-x="1251" d="M72 0l32 233l912 984h-762l33 233h1083l-33 -233l-917 -984h792l-32 -233h-1108z" />
<glyph unicode="[" horiz-adv-x="569" d="M90 -319l254 1818h393l-22 -160h-185l-208 -1499h184l-23 -159h-393z" />
<glyph unicode="\" horiz-adv-x="796" d="M215 1487l178 65l416 -1589l-178 -61z" />
<glyph unicode="]" horiz-adv-x="569" d="M-2 -319l20 159h185l209 1499h-185l23 160h393l-254 -1818h-391z" />
<glyph unicode="^" horiz-adv-x="1363" d="M240 702l561 748h168l352 -748h-242l-233 490l-365 -490h-241z" />
<glyph unicode="_" horiz-adv-x="1024" d="M-35 -256l15 102h1021l-14 -102h-1022z" />
<glyph unicode="`" horiz-adv-x="532" d="M84 1450h278l162 -295h-192z" />
<glyph unicode="a" horiz-adv-x="1099" d="M111 270q16 119 87.5 187.5t170 103.5t208 43t201.5 8h62l2 27q3 18 3 34q-1 67 -47 104q-58 46 -155 46q-78 0 -149.5 -27.5t-126.5 -74.5l-111 129q92 84 208 121t232 37q104 0 173 -23.5t111 -60.5t60 -85q19 -47 23 -97q2 -22 2 -44q0 -27 -3 -52q-5 -46 -9 -81 l-78 -565h-221l18 135h-6q-66 -84 -153 -122t-185 -38q-68 0 -130 18.5t-108 55.5t-68 93q-15 37 -15 82q0 22 4 46zM358 289q-1 -8 -1 -16q-1 -25 9 -43q12 -24 35 -40t51.5 -23t59.5 -7q127 0 196.5 60.5t84.5 164.5l8 55h-51q-51 0 -116 -4t-123 -19.5t-101 -45 t-52 -82.5z" />
<glyph unicode="b" horiz-adv-x="1290" d="M139 0l217 1548h246l-98 -690h6q23 25 55.5 50.5t76.5 48t99.5 37t124.5 14.5q104 0 186.5 -40t135.5 -110q54 -70 74 -164q12 -56 11 -117q0 -42 -5 -85q-16 -109 -62.5 -203t-118 -164t-168 -110t-208.5 -40q-104 0 -188.5 41t-125.5 131h-4l-20 -147h-234zM444 492 q-3 -22 -3 -44q-1 -34 7 -66q12 -54 44 -95t82.5 -65.5t117.5 -24.5q68 0 125 24.5t100.5 65.5t70 94.5t34.5 110.5q3 23 3 45q0 33 -7 65q-12 53 -44 94t-82 65.5t-118 24.5t-124 -24.5t-99 -65.5t-70.5 -94t-36.5 -110z" />
<glyph unicode="c" horiz-adv-x="987" d="M158 492q16 117 71.5 212t137.5 162.5t185 104.5t214 37q94 0 184 -36t150 -114l-193 -170q-37 45 -81 71.5t-93 26.5q-68 0 -124 -24.5t-99 -65.5t-70.5 -94t-36.5 -110q-3 -22 -3 -44q0 -34 8 -66q12 -54 43.5 -95t82 -65.5t117.5 -24.5q57 0 109.5 23.5t93.5 68.5 l139 -176q-43 -37 -94 -63.5t-102.5 -43t-97.5 -24t-78 -7.5q-111 0 -204 37t-155.5 104.5t-91.5 163.5q-18 60 -18 128q0 41 6 84z" />
<glyph unicode="d" horiz-adv-x="1290" d="M158 492q14 109 63 202.5t122 163.5t166 110t198 40q70 0 121 -14.5t87.5 -37t61 -48t41.5 -50.5h6l98 690h246l-217 -1548h-233l20 147h-4q-68 -90 -163 -131t-200 -41q-115 0 -198.5 40t-137 110t-73.5 164q-11 51 -12 107q0 47 8 96zM403 492q-3 -22 -3 -44 q0 -34 8 -66q12 -54 43.5 -95t82 -65.5t117.5 -24.5q68 0 125.5 24.5t100.5 65.5t69.5 94t34.5 111q3 23 3 45q0 33 -7 65q-12 53 -44 94t-82 65.5t-118 24.5t-124 -24.5t-99 -65.5t-71 -94t-36 -110z" />
<glyph unicode="e" d="M158 492q16 117 71.5 212t137.5 162.5t185 104.5t214 37q208 0 314 -138q80 -104 80 -277q0 -57 -9 -120l-10 -67h-750v-11q-1 -47 15 -87q18 -44 48.5 -73.5t73.5 -46t95 -16.5q92 0 160.5 38t121.5 95l158 -133q-100 -106 -213 -151.5t-229 -45.5q-111 0 -204 37 t-155.5 104.5t-91.5 163.5q-18 60 -18 128q0 41 6 84zM418 590h504q3 21 3 41q-1 80 -47 130q-58 62 -173 62q-111 0 -185 -63.5t-102 -169.5z" />
<glyph unicode="f" horiz-adv-x="720" d="M133 774l29 209h203l20 139q14 102 40 185.5t74 142.5t123.5 91t190.5 32q84 0 154 -14l-45 -209q-25 6 -49.5 10t-51.5 4q-51 0 -85 -16.5t-54 -44t-30.5 -64.5t-16.5 -78l-25 -178h228l-29 -209h-227l-109 -774h-246l109 774h-203z" />
<glyph unicode="g" horiz-adv-x="1290" d="M61 -330l177 201q63 -68 138 -104.5t179 -36.5q88 0 151.5 24.5t105.5 67.5t66.5 103.5t34.5 133.5l9 72h-4q-63 -72 -155.5 -107.5t-184.5 -35.5q-111 0 -196 40t-139.5 107.5t-76.5 159.5q-14 55 -14 115q0 40 6 82q14 109 61 202.5t120 163.5t168 110t210 40 q104 0 188 -41t125 -131h4l21 147h233l-125 -895q-18 -133 -66 -240.5t-127 -182.5t-189.5 -116t-254.5 -41q-137 0 -254.5 35t-210.5 127zM403 494q-3 -20 -3 -39q0 -38 10 -71q16 -52 49 -91t83 -61.5t111 -22.5q68 0 125.5 22.5t100.5 60.5t70.5 91t37.5 115q3 25 3 48 q0 96 -54 160q-66 80 -201 80q-66 0 -122 -21.5t-99 -59t-72.5 -92t-38.5 -119.5z" />
<glyph unicode="h" d="M139 0l217 1548h246l-98 -702h4q37 61 117 111.5t194 50.5q98 0 163 -33t99.5 -86t42.5 -123q4 -31 4 -62q0 -41 -6 -83l-86 -621h-245l69 498q6 41 8 91v15q0 42 -9 79q-11 44 -44 73.5t-96 29.5q-61 0 -106.5 -20.5t-77 -55t-51 -79.5t-25.5 -94l-74 -537h-246z" />
<glyph unicode="i" horiz-adv-x="532" d="M143 0l138 983h245l-137 -983h-246zM293 1317q8 59 58 103t118 44q69 0 109 -42q32 -34 32 -81q0 -12 -2 -24q-10 -63 -61 -105.5t-119 -42.5q-68 1 -106 45q-31 37 -30 83q0 10 1 20z" />
<glyph unicode="j" horiz-adv-x="532" d="M-141 -473l49 213q41 -10 76 -10q45 0 72.5 19.5t43 50t22.5 67.5t11 72l148 1044h245l-147 -1042q-12 -92 -36 -171t-67 -137.5t-112.5 -91.5t-173.5 -33q-35 0 -68 4.5t-63 14.5zM293 1317q8 59 58 103t118 44t109 -42q32 -34 32 -81q0 -12 -2 -24q-10 -63 -61 -105.5 t-119 -42.5t-106 45q-30 36 -30 83q0 10 1 20z" />
<glyph unicode="k" horiz-adv-x="1099" d="M139 0l217 1548h246l-137 -973l436 408h316l-486 -446l375 -537h-326l-321 502h-4l-70 -502h-246z" />
<glyph unicode="l" horiz-adv-x="532" d="M143 0l217 1548h246l-217 -1548h-246z" />
<glyph unicode="m" horiz-adv-x="1781" d="M129 0l137 983h234l-23 -154h4q43 70 124 124.5t204 54.5q231 0 281 -183q68 94 153.5 138.5t196.5 44.5q98 0 160.5 -33t96.5 -91t42 -134q3 -31 4 -63q0 -49 -8 -101l-82 -586h-246l78 557q5 34 5 66q0 11 -1 21q-2 42 -18.5 74t-49 50t-88.5 18q-57 0 -100 -21.5 t-73 -57t-48 -81.5t-25 -94l-73 -532h-246l82 586q3 25 3 48q-1 59 -23 98q-32 54 -121 54q-61 0 -106.5 -20.5t-77 -55t-51 -79.5t-25.5 -94l-74 -537h-246z" />
<glyph unicode="n" d="M139 0l137 983h234l-23 -158h5q45 74 124.5 128.5t202.5 54.5q98 0 163 -33t99.5 -86t42.5 -123q4 -31 4 -62q0 -41 -6 -83l-86 -621h-245l69 498q6 41 8 91v15q0 42 -9 79q-11 44 -44 73.5t-96 29.5q-61 0 -106.5 -20.5t-77 -55t-51 -79.5t-25.5 -94l-74 -537h-246z" />
<glyph unicode="o" horiz-adv-x="1249" d="M158 492q16 117 71.5 212t137.5 162.5t185 104.5t214 37t203 -37t155 -105q62 -66 90 -162q18 -61 19 -131q0 -39 -6 -81q-16 -117 -71.5 -212.5t-136.5 -163t-184.5 -104.5t-213.5 -37q-111 0 -204 37t-155 104q-64 68 -92 164q-18 61 -18 131q0 39 6 81zM403 492 q-3 -22 -3 -44q0 -34 8 -66q12 -54 43.5 -95t82 -65.5t117.5 -24.5q68 0 125.5 24.5t100.5 65.5t69.5 94t34.5 111q3 23 3 45q0 33 -7 65q-12 53 -44 94t-82 65.5t-118 24.5t-124 -24.5t-99 -65.5t-71 -94t-36 -110z" />
<glyph unicode="p" horiz-adv-x="1290" d="M72 -467l204 1450h234l-21 -147h5q66 90 162 131t200 41q113 0 198 -40t137 -110t71 -164q12 -55 12 -114q0 -43 -6 -88q-16 -109 -63.5 -203t-120 -164t-166 -110t-197.5 -40q-70 0 -121 14.5t-89 37t-62.5 48t-40.5 50.5h-7l-84 -592h-245zM444 492q-3 -22 -3 -44 q0 -34 7 -66q13 -54 44.5 -95t82 -65.5t117.5 -24.5q68 0 125 24.5t100.5 65.5t70 94.5t34.5 110.5q3 23 3 45q0 33 -7 65q-12 53 -44 94t-82 65.5t-118 24.5t-124 -24.5t-99 -65.5t-70.5 -94t-36.5 -110z" />
<glyph unicode="q" horiz-adv-x="1290" d="M158 492q14 109 61 202.5t120 163.5t168 110t210 40q104 0 188 -41t125 -131h4l21 147h233l-205 -1450h-245l84 592h-7q-23 -25 -54.5 -50.5t-75.5 -48t-99 -37t-125 -14.5q-104 0 -186 40t-135.5 110t-75.5 164q-13 54 -13 112q0 44 7 91zM403 492q-3 -22 -3 -44 q0 -34 8 -66q12 -54 43.5 -95t82 -65.5t117.5 -24.5q68 0 125.5 24.5t100.5 65.5t69.5 94t34.5 111q3 23 3 45q0 33 -7 65q-12 53 -44 94t-82 65.5t-118 24.5t-124 -24.5t-99 -65.5t-71 -94t-36 -110z" />
<glyph unicode="r" horiz-adv-x="796" d="M139 0l137 983h246l-22 -156h4q53 86 136 133.5t181 47.5q23 0 43.5 -4.5t42.5 -10.5l-35 -237q-29 8 -57.5 13t-56.5 5q-86 0 -143.5 -31.5t-91.5 -72.5t-48 -82t-16 -62l-74 -526h-246z" />
<glyph unicode="s" horiz-adv-x="909" d="M68 127l186 154q41 -53 89 -87t126 -34q27 0 56.5 6t56 20.5t45 36t22.5 49.5q1 9 1 18q0 38 -28 58q-36 25 -93.5 40t-124 28.5t-122.5 43.5q-54 28 -86 82q-22 37 -22 94q0 25 4 54q12 82 54 142.5t103.5 99.5t135.5 57.5t147 18.5q98 0 189.5 -34t138.5 -116 l-184 -147q-57 100 -178 100q-25 0 -51.5 -6t-49 -18.5t-38 -33t-19.5 -46.5q-1 -6 -1 -12q0 -35 31 -53q36 -20 93 -35t123.5 -30.5t121 -47t86.5 -87.5q22 -38 21 -96q0 -26 -4 -55q-12 -88 -58 -148.5t-111.5 -97.5t-143.5 -53.5t-154 -16.5q-115 0 -207 33t-155 119z " />
<glyph unicode="t" horiz-adv-x="796" d="M133 774l29 209h203l38 285h246l-39 -285h271l-29 -209h-270l-62 -430q-3 -23 -3 -44q1 -44 15 -73q22 -43 103 -43q33 0 73 7.5t64 23.5l-29 -207q-41 -18 -98 -25.5t-100 -7.5q-98 0 -157.5 21.5t-89.5 65.5t-34 110q-1 16 -1 34q0 53 9 118l64 450h-203z" />
<glyph unicode="u" d="M188 217q-5 34 -5 69q0 37 5 76l88 621h246l-69 -498q-5 -41 -9 -91q-1 -12 -1 -23q1 -37 9 -71q12 -44 43 -73.5t97 -29.5q61 0 106 20.5t77 55t51.5 79.5t25.5 94l76 537h246l-138 -983h-233l20 158h-4q-43 -74 -123 -128.5t-202 -54.5q-98 0 -163 32t-99 86t-44 124z " />
<glyph unicode="v" horiz-adv-x="1062" d="M143 983h269l166 -688h4l360 688h252l-524 -983h-262z" />
<glyph unicode="w" horiz-adv-x="1630" d="M143 983h267l116 -688h4l295 688h267l116 -688h4l301 688h248l-471 -983h-243l-140 672h-4l-301 -672h-254z" />
<glyph unicode="x" horiz-adv-x="1099" d="M-2 0l469 528l-277 455h299l156 -295l254 295h281l-400 -455l322 -528h-299l-207 352l-307 -352h-291z" />
<glyph unicode="y" horiz-adv-x="1062" d="M-37 -467l62 221q29 -10 58.5 -17t61.5 -7q45 0 77 8t55.5 25.5t43 45t39.5 66.5l64 117l-281 991h271l178 -682h4l342 682h256l-633 -1194q-37 -70 -76 -122t-87 -88t-108.5 -53.5t-142.5 -17.5q-98 0 -184 25z" />
<glyph unicode="z" horiz-adv-x="987" d="M70 0l30 227l605 555v4h-502l28 197h799l-31 -223l-612 -563h557l-26 -197h-848z" />
<glyph unicode="{" horiz-adv-x="569" d="M70 500l24 180q20 0 54 6t68 21.5t59.5 44t31.5 71.5l58 406q8 70 43.5 120t82 83.5t93.5 50t80 16.5h186l-23 -172h-112q-43 0 -71 -14.5t-44 -36t-23.5 -46t-9.5 -46.5l-55 -385q-10 -59 -36.5 -98t-61.5 -63t-71 -34t-60 -12v-4q25 -2 57.5 -10.5t60 -31t44 -64.5 t8.5 -113l-54 -373q-4 -23 -4 -47.5t10.5 -46t34 -35.5t66.5 -14h112l-22 -172h-186q-33 0 -76 16t-80 50t-58.5 84t-11.5 120l56 391q6 49 -11.5 80t-45 48t-60.5 23.5t-53 6.5z" />
<glyph unicode="|" horiz-adv-x="454" d="M49 -512l289 2048h209l-289 -2048h-209z" />
<glyph unicode="}" horiz-adv-x="569" d="M-115 -319l23 172h110q43 0 71 14t44.5 35.5t22.5 46t10 47.5l55 385q8 59 36 98t62.5 61.5t70.5 33t61 14.5v4q-25 2 -58 10t-60.5 30.5t-45 64.5t-6.5 114l53 373q2 23 3 47t-9.5 45.5t-34 36t-66.5 14.5h-112l22 172h187q33 0 75.5 -16.5t78.5 -50t57.5 -84 t13.5 -119.5l-55 -391q-6 -49 11 -80t45 -48.5t59.5 -23.5t54.5 -6l-25 -180q-23 0 -55.5 -6.5t-66.5 -21.5t-59.5 -44t-31.5 -72l-57 -405q-10 -70 -46 -120t-81 -84t-92.5 -50t-79.5 -16h-185z" />
<glyph unicode="~" horiz-adv-x="1363" d="M293 612q20 33 48 65t61.5 56.5t74.5 39.5t90 15q59 0 116.5 -19t111.5 -46q53 -25 104 -49.5t92 -24.5q31 0 58.5 13.5t52 33t47 44t45.5 48.5l49 -172q-29 -33 -57.5 -64.5t-62 -56t-73.5 -40t-87 -15.5q-57 0 -105.5 19.5t-95.5 48.5q-45 29 -99.5 50.5t-125.5 21.5 q-35 0 -65 -13.5t-53.5 -33t-43 -44t-33.5 -49.5z" />
<glyph unicode="&#xa1;" horiz-adv-x="606" d="M115 -455l141 998h246l-142 -998h-245zM258 848q10 66 64.5 113t121.5 47q33 0 60.5 -12.5t47 -33t29 -49t5.5 -61.5q-10 -66 -64.5 -113t-122.5 -47q-33 0 -60.5 12.5t-47 33t-28.5 49t-5 61.5z" />
<glyph unicode="&#xa2;" horiz-adv-x="1212" d="M227 494q14 106 59.5 195t113 154.5t157.5 107.5t199 57l18 137h111l-19 -137q96 -4 185.5 -35t142.5 -107l-180 -159q-33 41 -78 64.5t-100 27.5l-86 -615q57 0 113.5 27t99.5 68l127 -162q-78 -72 -175.5 -104.5t-193.5 -37.5l-21 -147h-110l20 147q-104 8 -182 52.5 t-127 113t-68.5 158.5t-5.5 195zM461 492q-16 -109 29 -194t149 -114l86 613q-117 -23 -182.5 -108t-81.5 -197z" />
<glyph unicode="&#xa3;" horiz-adv-x="1212" d="M135 0l27 197h209l63 448h-209l25 172h209l28 205q10 76 48 155.5t105 146.5t163 109t223 42q111 0 209 -32t164 -100l-193 -178q-39 41 -88 64.5t-114 23.5q-57 0 -104.5 -21.5t-83.5 -56t-58.5 -79.5t-28.5 -95l-24 -184h331l-24 -172h-332l-64 -448h519l-27 -197h-973 z" />
<glyph unicode="&#xa4;" horiz-adv-x="1212" d="M117 317l114 101q-39 66 -54 143.5t-3 165.5q12 86 50 165t95 144l-86 101l140 120l86 -98q72 47 153.5 72.5t169.5 25.5t162 -25.5t133 -72.5l115 98l106 -120l-114 -101q80 -139 55 -309q-10 -86 -48 -165t-95 -144l86 -101l-140 -122l-86 100q-72 -47 -153.5 -73.5 t-169.5 -26.5q-172 0 -295 100l-115 -100zM408 727q-20 -141 49 -226t207 -85q137 0 229 85t113 226q20 141 -48.5 225t-205.5 84t-230.5 -84t-113.5 -225z" />
<glyph unicode="&#xa5;" horiz-adv-x="1212" d="M184 362l23 160h348l14 99l-28 69h-310l23 160h221l-248 600h277l233 -602l389 602h265l-416 -600h221l-22 -160h-310l-49 -69l-14 -99h348l-23 -160h-348l-49 -362h-246l49 362h-348z" />
<glyph unicode="&#xa6;" horiz-adv-x="454" d="M72 -358l100 716h209l-100 -716h-209zM215 666l100 716h209l-100 -716h-209z" />
<glyph unicode="&#xa7;" horiz-adv-x="1214" d="M102 -43l234 106q6 -39 25.5 -66.5t48 -46t65.5 -27.5t74 -9q31 0 65.5 7t64.5 22.5t50.5 41t26.5 62.5q8 57 -33 94t-104.5 68t-139.5 62.5t-137 75.5t-98 106.5t-23 158.5q16 113 80 184.5t158 118.5q-57 41 -85 98.5t-18 135.5q12 86 58.5 149.5t112 105.5t143.5 62.5 t153 20.5q59 0 120 -10.5t113 -35t92 -64.5t60 -97l-231 -121q-12 61 -61.5 96t-114.5 35q-31 0 -61.5 -8t-56.5 -24.5t-44 -42t-23 -60.5q-8 -57 32 -95t103.5 -70t139.5 -64.5t137.5 -78.5t98 -111.5t22.5 -162.5q-12 -86 -71.5 -156.5t-139.5 -105.5q53 -45 76.5 -107.5 t13.5 -135.5q-12 -92 -63.5 -161t-123 -114t-156.5 -66.5t-165 -21.5q-74 0 -139.5 13.5t-120.5 42t-96 76.5t-62 120zM461 664q-6 -37 6 -65t34.5 -47.5t51.5 -34.5t57 -28l187 -92q41 20 74.5 61.5t39.5 82.5q6 39 -6 65.5t-33.5 47t-48 36t-53.5 31.5l-170 86 q-53 -23 -91 -53.5t-48 -89.5z" />
<glyph unicode="&#xa8;" horiz-adv-x="532" d="M80 1303q8 59 58 103t118 44t109 -42t30 -105q-10 -63 -61 -105.5t-119 -42.5t-105.5 44.5t-29.5 103.5zM502 1303q8 59 58 103t118 44t108.5 -42t30.5 -105t-61 -105.5t-119 -42.5t-105.5 44.5t-29.5 103.5z" />
<glyph unicode="&#xa9;" horiz-adv-x="1638" d="M158 725q23 158 102.5 296t197 241.5t265 164t305.5 60.5t288 -60.5t219 -164t129 -241.5t17 -296t-101.5 -296t-197 -241.5t-265 -164t-304.5 -60.5t-288 60.5t-219 164t-130 241.5t-18 296zM354 725q-16 -123 12.5 -230.5t93 -187.5t162 -126t216.5 -46t228.5 46 t197.5 126t146 187.5t75 230.5q18 123 -10.5 230.5t-93 187.5t-162 126t-215.5 46q-119 0 -228.5 -46t-198 -126t-147 -187.5t-76.5 -230.5zM535 731q12 94 50 173t96 136.5t138 89t178 31.5q139 0 231.5 -73.5t96.5 -223.5h-192q-4 72 -46.5 98.5t-97.5 26.5 q-119 0 -180 -71.5t-78 -182.5q-8 -57 -1 -106t29.5 -86t60.5 -57.5t91 -20.5q66 0 117 31.5t68 111.5h192q-23 -78 -63.5 -136t-95 -98t-118 -60.5t-130.5 -20.5q-96 0 -168 33.5t-116 93t-59.5 139.5t-2.5 172z" />
<glyph unicode="&#xaa;" horiz-adv-x="714" d="M205 1051q10 72 56 112.5t109.5 61t135.5 25.5t133 5h35l2 17q4 35 -35 51t-98 16q-51 0 -94 -17t-84 -48l-74 108q61 47 138 70t159 23q147 0 202.5 -60.5t38.5 -185.5l-49 -346h-159l12 80h-4q-39 -51 -102.5 -72t-123.5 -21q-27 0 -63.5 7.5t-69 27t-53 55t-12.5 91.5 zM377 1057q-4 -31 25.5 -47.5t68.5 -16.5q88 0 127 36t47 91l2 13h-57q-25 0 -60.5 -2.5t-67.5 -10.5t-56.5 -22.5t-28.5 -40.5z" />
<glyph unicode="&#xab;" horiz-adv-x="1062" d="M131 508l377 459l139 -105l-287 -354l189 -358l-170 -105zM588 508l377 459l139 -105l-287 -354l189 -358l-170 -105z" />
<glyph unicode="&#xac;" horiz-adv-x="1363" d="M225 700l29 209h1110l-86 -608h-209l57 399h-901z" />
<glyph unicode="&#xad;" horiz-adv-x="645" d="M125 399l29 209h505l-28 -209h-506z" />
<glyph unicode="&#xae;" horiz-adv-x="1638" d="M158 725q23 158 102.5 296t197 241.5t265 164t305.5 60.5t288 -60.5t219 -164t129 -241.5t17 -296t-101.5 -296t-197 -241.5t-265 -164t-304.5 -60.5t-288 60.5t-219 164t-130 241.5t-18 296zM354 725q-16 -123 12.5 -230.5t93 -187.5t162 -126t216.5 -46t228.5 46 t197.5 126t146 187.5t75 230.5q18 123 -10.5 230.5t-93 187.5t-162 126t-215.5 46q-119 0 -228.5 -46t-198 -126t-147 -187.5t-76.5 -230.5zM571 334l113 799h256q70 0 133.5 -10.5t109.5 -36t70.5 -71.5t14.5 -118q-8 -53 -29.5 -97t-52.5 -75t-66 -50.5t-67 -23.5 l159 -317h-215l-139 307h-47l-43 -307h-197zM831 801h97q18 0 40.5 2t44 10t37 25.5t19.5 48.5t-6 48t-28.5 25.5t-41 10.5t-41.5 2h-96z" />
<glyph unicode="&#xaf;" horiz-adv-x="532" d="M109 1219l22 159h655l-22 -159h-655z" />
<glyph unicode="&#xb0;" horiz-adv-x="819" d="M242 1147q10 68 45 127t85 104t113.5 71t130.5 26q68 0 124.5 -26t94 -71t55 -104.5t7.5 -126.5q-10 -68 -44 -127t-84 -104.5t-113.5 -71t-131.5 -25.5t-124 25.5t-94 71t-56 104.5t-8 127zM401 1147q-4 -35 5.5 -65.5t29 -53t48 -36t63.5 -13.5q70 0 125 49t65 119 t-31.5 119t-111.5 49q-35 0 -67.5 -13.5t-58.5 -36t-43.5 -53t-23.5 -65.5z" />
<glyph unicode="&#xb1;" horiz-adv-x="1363" d="M135 66l29 208h1110l-29 -208h-1110zM221 674l29 209h452l41 293h209l-41 -293h449l-29 -209h-448l-41 -293h-209l41 293h-453z" />
<glyph unicode="&#xb2;" horiz-adv-x="788" d="M145 592l27 194l414 312q31 25 63.5 53.5t36.5 58.5q4 43 -26.5 61.5t-77.5 18.5q-55 0 -94 -31.5t-50 -78.5l-194 12q31 145 133 214t241 69q135 0 215 -66t62 -197t-152 -223l-317 -221v-4h405l-24 -172h-662z" />
<glyph unicode="&#xb3;" horiz-adv-x="788" d="M170 821l217 45q4 -47 30.5 -74.5t82.5 -27.5q55 0 96 22.5t49 75.5q4 35 -8 54.5t-35.5 28.5t-56.5 11t-66 2h-47l25 172h65q55 0 101.5 16.5t54.5 76.5q4 33 -22.5 50t-75.5 17q-47 0 -84 -23.5t-54 -66.5l-204 41q25 66 62.5 110t85.5 71.5t104.5 40t115.5 12.5 q61 0 116.5 -14.5t95.5 -43t60.5 -73t12.5 -103.5q-10 -72 -59.5 -124t-129.5 -66l-2 -4q84 -10 122 -69.5t28 -135.5q-10 -66 -44 -115t-85 -82t-114.5 -49t-133.5 -16q-63 0 -116.5 13t-93.5 42t-63.5 75t-29.5 111z" />
<glyph unicode="&#xb4;" horiz-adv-x="532" d="M332 1155l243 295h279l-330 -295h-192z" />
<glyph unicode="&#xb5;" d="M72 -467l204 1450h246l-69 -498q-6 -41 -9.5 -91t8 -94t43 -73.5t97.5 -29.5q61 0 106 20.5t77 55t51.5 79.5t25.5 94l76 537h246l-138 -983h-233l20 158h-4q-43 -74 -123 -128.5t-202 -54.5q-68 0 -111 15l-66 -457h-245z" />
<glyph unicode="&#xb6;" horiz-adv-x="1228" d="M213 1065q14 102 58 176t114 120t161 67.5t197 21.5h551l-239 -1708h-185l220 1561h-220l-219 -1561h-184l133 950q-100 0 -177 28t-128 78t-72.5 118.5t-9.5 148.5z" />
<glyph unicode="&#xb7;" horiz-adv-x="606" d="M221 596q10 66 64.5 113t122.5 47q66 0 108.5 -45t34.5 -111q-10 -66 -64.5 -113t-121.5 -47q-33 0 -61 12.5t-48 33t-29.5 49t-5.5 61.5z" />
<glyph unicode="&#xb8;" horiz-adv-x="532" d="M47 -434l57 94q72 -41 162 -41q16 0 38 4t41.5 13.5t32.5 27t17 41.5q6 39 -27.5 56.5t-66.5 17.5q-20 0 -38.5 -4t-39.5 -11l-47 52l154 184h119l-105 -123q45 0 89 -4t77 -21.5t49 -51t8 -93.5q-8 -55 -39.5 -94t-76.5 -61.5t-97.5 -33t-97.5 -10.5q-117 0 -209 58z " />
<glyph unicode="&#xb9;" horiz-adv-x="788" d="M252 1223l342 239h186l-123 -870h-208l92 649l-195 -154z" />
<glyph unicode="&#xba;" horiz-adv-x="813" d="M227 1171q8 68 43 123.5t86.5 95.5t117 62.5t136.5 22.5q72 0 132.5 -22.5t101.5 -62.5t59.5 -95.5t9.5 -123.5q-10 -68 -44.5 -123t-87 -95t-119 -61.5t-138.5 -21.5t-131 21.5t-99 61.5t-58.5 95.5t-8.5 122.5zM395 1171q-4 -27 3.5 -53t25.5 -48.5t48 -37t73 -14.5 t77.5 14.5t59.5 37t40 49t19 52.5q4 27 -3 54.5t-25.5 50t-49 37t-73.5 14.5t-78 -14.5t-59.5 -37t-39 -50t-18.5 -54.5z" />
<glyph unicode="&#xbb;" horiz-adv-x="1062" d="M100 150l285 354l-186 358l170 105l245 -463l-374 -459zM557 150l285 354l-187 358l170 105l246 -463l-375 -459z" />
<glyph unicode="&#xbc;" horiz-adv-x="1820" d="M229 1223l342 239h187l-123 -870h-209l92 649l-194 -154zM377 12l1065 1504l157 -78l-1062 -1504zM1061 174l22 160l461 536h230l-74 -524h108l-24 -172h-109l-22 -174h-209l22 174h-405zM1294 346h197l39 275l-2 4z" />
<glyph unicode="&#xbd;" horiz-adv-x="1820" d="M236 1223l342 239h186l-123 -870h-209l92 649l-194 -154zM381 12l1065 1504l158 -78l-1063 -1504zM1096 0l26 195l410 311q31 25 63.5 53.5t36.5 58.5q6 43 -25.5 61.5t-78.5 18.5q-55 0 -93 -31.5t-49 -78.5l-194 12q29 145 131 214t242 69q135 0 215 -65.5t61 -196.5 q-18 -133 -149 -224l-318 -221l-2 -4h406l-23 -172h-659z" />
<glyph unicode="&#xbe;" horiz-adv-x="1820" d="M162 821l217 45q4 -47 30.5 -74.5t82.5 -27.5q55 0 96 22.5t49 75.5q4 35 -8.5 54.5t-36 28.5t-56 11t-65.5 2h-47l25 172h65q55 0 101.5 16.5t54.5 76.5q4 33 -22.5 50t-76.5 17q-47 0 -83.5 -23.5t-53.5 -66.5l-205 41q25 66 63 110t86 71.5t104.5 40t115.5 12.5 q61 0 116.5 -14.5t95.5 -43t60.5 -73t12.5 -103.5q-10 -72 -59.5 -124t-129.5 -66l-2 -4q84 -10 122 -69.5t28 -135.5q-10 -66 -44 -115t-85 -82t-114.5 -49t-133.5 -16q-63 0 -116.5 13t-93.5 42t-63.5 75t-29.5 111zM432 12l1065 1504l158 -78l-1063 -1504zM1075 174 l23 160l461 536h229l-74 -524h107l-25 -172h-106l-23 -174h-209l23 174h-406zM1264 322h245l52 364h-5l-292 -360v-4z" />
<glyph unicode="&#xbf;" horiz-adv-x="1062" d="M41 -92q8 68 33.5 119t62.5 94t83 82t97 82q33 27 56.5 47t40 41.5t26 48.5t15.5 67l10 78h246l-15 -112q-6 -47 -16 -78t-26.5 -56.5t-41 -49t-61.5 -56.5l-180 -160q-57 -51 -70 -133q-10 -80 35 -130t125 -50q86 0 149.5 58.5t83.5 142.5l258 -21 q-51 -197 -194.5 -305.5t-339.5 -108.5q-92 0 -167 26t-126 77t-74.5 126t-9.5 171zM465 848q10 66 64.5 113t121.5 47q33 0 60.5 -12.5t47 -33t29 -49t5.5 -61.5q-10 -66 -64.5 -113t-122.5 -47q-33 0 -60.5 12.5t-47 33t-28.5 49t-5 61.5z" />
<glyph unicode="&#xc0;" horiz-adv-x="1478" d="M0 0l834 1450h223l422 -1450h-295l-90 332h-629l-176 -332h-289zM584 553h450l-139 590zM612 1843h279l162 -295h-193z" />
<glyph unicode="&#xc1;" horiz-adv-x="1478" d="M0 0l834 1450h223l422 -1450h-295l-90 332h-629l-176 -332h-289zM584 553h450l-139 590zM860 1548l244 295h278l-329 -295h-193z" />
<glyph unicode="&#xc2;" horiz-adv-x="1478" d="M0 0l834 1450h223l422 -1450h-295l-90 332h-629l-176 -332h-289zM584 553h450l-139 590zM584 1548l276 295h277l192 -295h-233l-117 185l-166 -185h-229z" />
<glyph unicode="&#xc3;" horiz-adv-x="1478" d="M0 0l834 1450h223l422 -1450h-295l-90 332h-629l-176 -332h-289zM579 1556q14 49 37 96.5t54.5 83.5t74.5 58.5t101 22.5q41 0 81 -12.5t76.5 -26t69.5 -25.5t57 -12q41 0 66 25.5t41 60.5h135q-16 -49 -37.5 -96.5t-53.5 -83t-75 -58t-100 -22.5q-41 0 -81 12t-77 26.5 t-69.5 27t-57.5 12.5q-41 0 -65.5 -27t-40.5 -62h-136zM584 553h450l-139 590z" />
<glyph unicode="&#xc4;" horiz-adv-x="1478" d="M0 0l834 1450h223l422 -1450h-295l-90 332h-629l-176 -332h-289zM584 553h450l-139 590zM608 1696q8 59 58.5 103t117.5 44q68 0 109 -42t31 -105t-61.5 -105.5t-119.5 -42.5t-106.5 44.5t-28.5 103.5zM1030 1696q8 59 58.5 103t117.5 44q68 0 109 -42t30 -105 q-10 -63 -61 -105.5t-119 -42.5t-106.5 44.5t-28.5 103.5z" />
<glyph unicode="&#xc5;" horiz-adv-x="1478" d="M0 0l834 1450h223l422 -1450h-295l-90 332h-629l-176 -332h-289zM584 553h450l-139 590zM764 1712q6 45 27.5 84t54.5 66.5t73.5 44t88.5 16.5q92 0 146 -58.5t40 -150.5q-12 -92 -82 -150.5t-162 -58.5t-145 57.5t-41 149.5zM862 1714q-6 -47 24.5 -78.5t78.5 -31.5 q47 0 86 30.5t45 79.5q6 47 -24 79t-77 32t-87 -32t-46 -79z" />
<glyph unicode="&#xc6;" horiz-adv-x="2048" d="M-12 0l1130 1450h1016l-33 -233h-590l-49 -357h553l-33 -233h-552l-56 -394h615l-33 -233h-873l54 381h-549l-287 -381h-313zM754 602h413l86 615h-30z" />
<glyph unicode="&#xc7;" horiz-adv-x="1402" d="M184 719q25 174 101.5 316.5t192.5 242.5t264.5 154.5t316.5 54.5q147 0 265 -52.5t210 -177.5l-221 -147q-70 86 -139.5 114.5t-145.5 28.5q-113 0 -210 -39.5t-173 -110.5t-125 -165t-63 -203q-16 -117 5 -215t76.5 -169.5t141.5 -112.5t199 -41q88 0 176 42t174 134 l192 -152q-117 -135 -263 -195.5t-306 -62.5l-72 -86q45 0 89 -4t77 -21.5t49.5 -51t8.5 -93.5q-8 -55 -40 -94t-77 -61.5t-97.5 -33t-97.5 -10.5q-117 0 -209 58l58 94q72 -41 161 -41q16 0 38 4t41.5 13.5t32.5 27t17 41.5q6 39 -27.5 56.5t-66.5 17.5q-20 0 -38.5 -4 t-39.5 -11l-47 52l125 153q-145 16 -257.5 78t-185.5 159t-102.5 227t-7.5 286z" />
<glyph unicode="&#xc8;" horiz-adv-x="1251" d="M162 0l203 1450h960l-33 -233h-702l-49 -357h665l-32 -233h-666l-55 -394h739l-33 -233h-997zM499 1843h279l162 -295h-193z" />
<glyph unicode="&#xc9;" horiz-adv-x="1251" d="M162 0l203 1450h960l-33 -233h-702l-49 -357h665l-32 -233h-666l-55 -394h739l-33 -233h-997zM747 1548l244 295h278l-329 -295h-193z" />
<glyph unicode="&#xca;" horiz-adv-x="1251" d="M162 0l203 1450h960l-33 -233h-702l-49 -357h665l-32 -233h-666l-55 -394h739l-33 -233h-997zM471 1548l276 295h277l192 -295h-233l-117 185l-166 -185h-229z" />
<glyph unicode="&#xcb;" horiz-adv-x="1251" d="M162 0l203 1450h960l-33 -233h-702l-49 -357h665l-32 -233h-666l-55 -394h739l-33 -233h-997zM495 1696q8 59 58.5 103t117.5 44q68 0 109 -42t31 -105t-61.5 -105.5t-119.5 -42.5t-106.5 44.5t-28.5 103.5zM917 1696q8 59 58.5 103t117.5 44q68 0 109 -42t30 -105 q-10 -63 -61 -105.5t-119 -42.5t-106.5 44.5t-28.5 103.5z" />
<glyph unicode="&#xcc;" horiz-adv-x="569" d="M156 0l202 1450h258l-202 -1450h-258zM157 1843h279l162 -295h-193z" />
<glyph unicode="&#xcd;" horiz-adv-x="569" d="M156 0l202 1450h258l-202 -1450h-258zM405 1548l244 295h278l-329 -295h-193z" />
<glyph unicode="&#xce;" horiz-adv-x="569" d="M129 1548l276 295h277l192 -295h-233l-117 185l-166 -185h-229zM156 0l202 1450h258l-202 -1450h-258z" />
<glyph unicode="&#xcf;" horiz-adv-x="569" d="M153 1696q8 59 58.5 103t117.5 44q68 0 109 -42t31 -105t-61.5 -105.5t-119.5 -42.5t-106.5 44.5t-28.5 103.5zM156 0l202 1450h258l-202 -1450h-258zM575 1696q8 59 58.5 103t117.5 44q68 0 109 -42t30 -105q-10 -63 -61 -105.5t-119 -42.5t-106.5 44.5t-28.5 103.5z " />
<glyph unicode="&#xd0;" horiz-adv-x="1554" d="M119 664l24 172h136l86 614h571q143 0 270 -44t216 -134t132 -226.5t17 -320.5q-27 -186 -117 -322.5t-213 -225.5t-265 -133t-274 -44h-540l92 664h-135zM453 233h192q121 0 231.5 28t198.5 86.5t147.5 151.5t77.5 226q18 131 -9 225t-91.5 152.5t-160 86.5t-214.5 28 h-235l-53 -381h442l-25 -172h-442z" />
<glyph unicode="&#xd1;" horiz-adv-x="1630" d="M162 0l203 1450h342l550 -1077h5l151 1077h258l-203 -1450h-327l-561 1112h-5l-155 -1112h-258zM655 1556q14 49 37 96.5t54.5 83.5t74.5 58.5t101 22.5q41 0 81 -12.5t76.5 -26t69.5 -25.5t57 -12q41 0 66 25.5t41 60.5h135q-16 -49 -37.5 -96.5t-53.5 -83t-75 -58 t-100 -22.5q-41 0 -81 12t-77 26.5t-69.5 27t-57.5 12.5q-41 0 -65.5 -27t-40.5 -62h-136z" />
<glyph unicode="&#xd2;" horiz-adv-x="1705" d="M184 719q25 174 101.5 316.5t192.5 242.5t264.5 154.5t316.5 54.5q170 2 304 -50.5t222 -152.5t125 -241.5t12 -315.5q-25 -170 -100.5 -309t-192 -239.5t-266 -157t-319.5 -58.5q-168 0 -301 54.5t-220 153.5t-125.5 238.5t-13.5 309.5zM457 735q-16 -117 5 -215 t76.5 -169.5t141.5 -112.5t199 -41t211 41t173.5 112.5t125 169.5t65.5 215q14 109 -7.5 203t-76.5 165t-142 110.5t-200 39.5t-210 -39.5t-173 -110.5t-125 -165t-63 -203zM727 1843h279l162 -295h-193z" />
<glyph unicode="&#xd3;" horiz-adv-x="1705" d="M184 719q25 174 101.5 316.5t192.5 242.5t264.5 154.5t316.5 54.5q170 2 304 -50.5t222 -152.5t125 -241.5t12 -315.5q-25 -170 -100.5 -309t-192 -239.5t-266 -157t-319.5 -58.5q-168 0 -301 54.5t-220 153.5t-125.5 238.5t-13.5 309.5zM457 735q-16 -117 5 -215 t76.5 -169.5t141.5 -112.5t199 -41t211 41t173.5 112.5t125 169.5t65.5 215q14 109 -7.5 203t-76.5 165t-142 110.5t-200 39.5t-210 -39.5t-173 -110.5t-125 -165t-63 -203zM975 1548l244 295h278l-329 -295h-193z" />
<glyph unicode="&#xd4;" horiz-adv-x="1705" d="M184 719q25 174 101.5 316.5t192.5 242.5t264.5 154.5t316.5 54.5q170 2 304 -50.5t222 -152.5t125 -241.5t12 -315.5q-25 -170 -100.5 -309t-192 -239.5t-266 -157t-319.5 -58.5q-168 0 -301 54.5t-220 153.5t-125.5 238.5t-13.5 309.5zM457 735q-16 -117 5 -215 t76.5 -169.5t141.5 -112.5t199 -41t211 41t173.5 112.5t125 169.5t65.5 215q14 109 -7.5 203t-76.5 165t-142 110.5t-200 39.5t-210 -39.5t-173 -110.5t-125 -165t-63 -203zM699 1548l276 295h277l192 -295h-233l-117 185l-166 -185h-229z" />
<glyph unicode="&#xd5;" horiz-adv-x="1705" d="M184 719q25 174 101.5 316.5t192.5 242.5t264.5 154.5t316.5 54.5q170 2 304 -50.5t222 -152.5t125 -241.5t12 -315.5q-25 -170 -100.5 -309t-192 -239.5t-266 -157t-319.5 -58.5q-168 0 -301 54.5t-220 153.5t-125.5 238.5t-13.5 309.5zM457 735q-16 -117 5 -215 t76.5 -169.5t141.5 -112.5t199 -41t211 41t173.5 112.5t125 169.5t65.5 215q14 109 -7.5 203t-76.5 165t-142 110.5t-200 39.5t-210 -39.5t-173 -110.5t-125 -165t-63 -203zM694 1556q14 49 37 96.5t54.5 83.5t74.5 58.5t101 22.5q41 0 81 -12.5t76.5 -26t69.5 -25.5t57 -12 q41 0 66 25.5t41 60.5h135q-16 -49 -37.5 -96.5t-53.5 -83t-75 -58t-100 -22.5q-41 0 -81 12t-77 26.5t-69.5 27t-57.5 12.5q-41 0 -65.5 -27t-40.5 -62h-136z" />
<glyph unicode="&#xd6;" horiz-adv-x="1705" d="M184 719q25 174 101.5 316.5t192.5 242.5t264.5 154.5t316.5 54.5q170 2 304 -50.5t222 -152.5t125 -241.5t12 -315.5q-25 -170 -100.5 -309t-192 -239.5t-266 -157t-319.5 -58.5q-168 0 -301 54.5t-220 153.5t-125.5 238.5t-13.5 309.5zM457 735q-16 -117 5 -215 t76.5 -169.5t141.5 -112.5t199 -41t211 41t173.5 112.5t125 169.5t65.5 215q14 109 -7.5 203t-76.5 165t-142 110.5t-200 39.5t-210 -39.5t-173 -110.5t-125 -165t-63 -203zM723 1696q8 59 58.5 103t117.5 44q68 0 109 -42t31 -105t-61.5 -105.5t-119.5 -42.5t-106.5 44.5 t-28.5 103.5zM1145 1696q8 59 58.5 103t117.5 44q68 0 109 -42t30 -105q-10 -63 -61 -105.5t-119 -42.5t-106.5 44.5t-28.5 103.5z" />
<glyph unicode="&#xd7;" horiz-adv-x="1363" d="M190 242l433 372l-324 381l168 146l321 -375l426 373l123 -144l-424 -370l326 -381l-172 -152l-324 371l-421 -371z" />
<glyph unicode="&#xd8;" horiz-adv-x="1705" d="M84 719q0 174 57.5 316.5t158.5 242.5t241.5 154.5t308.5 54.5q137 4 255 -32t216 -101l178 192l100 -88l-176 -192q96 -100 147.5 -236.5t51.5 -302.5q0 -170 -57.5 -309t-159.5 -239.5t-243.5 -157t-311.5 -58.5q-141 0 -264 40t-219 112l-174 -189l-103 88l178 193 q-88 98 -136 227t-48 285zM354 735q0 -96 24.5 -180t70.5 -152l696 758q-127 92 -293 92q-113 0 -204 -39.5t-156.5 -110.5t-101.5 -165t-36 -203zM541 303q63 -51 141 -78.5t170 -27.5q113 0 205 41t157.5 112.5t101.5 169.5t36 215q0 199 -111 332z" />
<glyph unicode="&#xd9;" horiz-adv-x="1478" d="M229 532l129 918h258l-127 -909q-8 -53 0.5 -111.5t39 -108t89 -81t150.5 -31.5t159.5 31.5t111.5 81t69 107.5t33 112l127 909h258l-129 -918q-18 -131 -77.5 -236.5t-149 -179t-201 -113.5t-236.5 -40t-226 40t-169 113.5t-97.5 179t-11.5 236.5zM612 1843h279 l162 -295h-193z" />
<glyph unicode="&#xda;" horiz-adv-x="1478" d="M229 532l129 918h258l-127 -909q-8 -53 0.5 -111.5t39 -108t89 -81t150.5 -31.5t159.5 31.5t111.5 81t69 107.5t33 112l127 909h258l-129 -918q-18 -131 -77.5 -236.5t-149 -179t-201 -113.5t-236.5 -40t-226 40t-169 113.5t-97.5 179t-11.5 236.5zM860 1548l244 295h278 l-329 -295h-193z" />
<glyph unicode="&#xdb;" horiz-adv-x="1478" d="M229 532l129 918h258l-127 -909q-8 -53 0.5 -111.5t39 -108t89 -81t150.5 -31.5t159.5 31.5t111.5 81t69 107.5t33 112l127 909h258l-129 -918q-18 -131 -77.5 -236.5t-149 -179t-201 -113.5t-236.5 -40t-226 40t-169 113.5t-97.5 179t-11.5 236.5zM584 1548l276 295h277 l192 -295h-233l-117 185l-166 -185h-229z" />
<glyph unicode="&#xdc;" horiz-adv-x="1478" d="M229 532l129 918h258l-127 -909q-8 -53 0.5 -111.5t39 -108t89 -81t150.5 -31.5t159.5 31.5t111.5 81t69 107.5t33 112l127 909h258l-129 -918q-18 -131 -77.5 -236.5t-149 -179t-201 -113.5t-236.5 -40t-226 40t-169 113.5t-97.5 179t-11.5 236.5zM608 1696 q8 59 58.5 103t117.5 44q68 0 109 -42t31 -105t-61.5 -105.5t-119.5 -42.5t-106.5 44.5t-28.5 103.5zM1030 1696q8 59 58.5 103t117.5 44q68 0 109 -42t30 -105q-10 -63 -61 -105.5t-119 -42.5t-106.5 44.5t-28.5 103.5z" />
<glyph unicode="&#xdd;" horiz-adv-x="1290" d="M174 1450h324l274 -578l442 578h308l-662 -829l-86 -621h-258l86 621zM766 1548l244 295h278l-329 -295h-193z" />
<glyph unicode="&#xde;" horiz-adv-x="1251" d="M162 0l203 1450h258l-39 -281h229q104 0 198.5 -20.5t161 -68.5t99.5 -129t16 -201q-18 -137 -77.5 -221.5t-146.5 -130.5t-194.5 -62.5t-222.5 -16.5h-184l-43 -319h-258zM496 541h155q55 0 115.5 4t113 24.5t90.5 61.5t48 114q8 68 -14.5 108t-64.5 61.5t-96.5 27.5 t-105.5 6h-184z" />
<glyph unicode="&#xdf;" horiz-adv-x="1251" d="M115 0l145 1047q39 279 178.5 402.5t386.5 123.5q88 0 166 -23.5t132.5 -71.5t81 -119t12.5 -165q-16 -113 -84 -197t-179 -127v-4q80 -10 136.5 -47t90 -93t44 -128t-1.5 -152q-14 -104 -62.5 -191t-121 -149.5t-166 -96.5t-197.5 -34q-43 0 -86 5.5t-84 17.5l31 207 q25 -12 51 -16.5t57 -4.5q63 0 120.5 19.5t102.5 56.5t74 89t39 118q20 145 -56.5 219t-213.5 74h-29l29 209h16q92 0 159.5 50t80.5 142q12 86 -41.5 138.5t-139.5 52.5q-123 0 -189.5 -71t-82.5 -177l-154 -1104h-245z" />
<glyph unicode="&#xe0;" horiz-adv-x="1099" d="M111 270q16 119 87.5 187.5t170 103.5t208 43t201.5 8h62l2 27q14 92 -43.5 138t-155.5 46q-78 0 -149.5 -27.5t-126.5 -74.5l-111 129q92 84 208 121t232 37q104 0 173 -23.5t111 -60.5t60.5 -85t22.5 -97.5t-1 -95.5t-9 -81l-78 -565h-221l18 135h-6q-66 -84 -153 -122 t-185 -38q-68 0 -130 18.5t-107.5 55.5t-68 92.5t-11.5 128.5zM358 289q-4 -35 8.5 -58.5t35 -40t51 -23.5t59.5 -7q127 0 196.5 60.5t84.5 164.5l8 55h-51q-51 0 -116 -4t-123 -19.5t-101 -45t-52 -82.5zM430 1450h278l162 -295h-192z" />
<glyph unicode="&#xe1;" horiz-adv-x="1099" d="M111 270q16 119 87.5 187.5t170 103.5t208 43t201.5 8h62l2 27q14 92 -43.5 138t-155.5 46q-78 0 -149.5 -27.5t-126.5 -74.5l-111 129q92 84 208 121t232 37q104 0 173 -23.5t111 -60.5t60.5 -85t22.5 -97.5t-1 -95.5t-9 -81l-78 -565h-221l18 135h-6q-66 -84 -153 -122 t-185 -38q-68 0 -130 18.5t-107.5 55.5t-68 92.5t-11.5 128.5zM358 289q-4 -35 8.5 -58.5t35 -40t51 -23.5t59.5 -7q127 0 196.5 60.5t84.5 164.5l8 55h-51q-51 0 -116 -4t-123 -19.5t-101 -45t-52 -82.5zM617 1155l243 295h279l-330 -295h-192z" />
<glyph unicode="&#xe2;" horiz-adv-x="1099" d="M111 270q16 119 87.5 187.5t170 103.5t208 43t201.5 8h62l2 27q14 92 -43.5 138t-155.5 46q-78 0 -149.5 -27.5t-126.5 -74.5l-111 129q92 84 208 121t232 37q104 0 173 -23.5t111 -60.5t60.5 -85t22.5 -97.5t-1 -95.5t-9 -81l-78 -565h-221l18 135h-6q-66 -84 -153 -122 t-185 -38q-68 0 -130 18.5t-107.5 55.5t-68 92.5t-11.5 128.5zM340 1155l277 295h276l193 -295h-234l-116 184l-166 -184h-230zM358 289q-4 -35 8.5 -58.5t35 -40t51 -23.5t59.5 -7q127 0 196.5 60.5t84.5 164.5l8 55h-51q-51 0 -116 -4t-123 -19.5t-101 -45t-52 -82.5z" />
<glyph unicode="&#xe3;" horiz-adv-x="1099" d="M111 270q16 119 87.5 187.5t170 103.5t208 43t201.5 8h62l2 27q14 92 -43.5 138t-155.5 46q-78 0 -149.5 -27.5t-126.5 -74.5l-111 129q92 84 208 121t232 37q104 0 173 -23.5t111 -60.5t60.5 -85t22.5 -97.5t-1 -95.5t-9 -81l-78 -565h-221l18 135h-6q-66 -84 -153 -122 t-185 -38q-68 0 -130 18.5t-107.5 55.5t-68 92.5t-11.5 128.5zM336 1163q14 49 37 96.5t54.5 83t74.5 58t100 22.5q41 0 82 -12t78 -25.5t69 -25.5t56 -12q41 0 65.5 25.5t41.5 60.5h135q-16 -49 -38 -96.5t-53.5 -83t-74.5 -58t-100 -22.5q-41 0 -82 12t-78 26.5t-69 26.5 t-56 12q-41 0 -65.5 -26.5t-41.5 -61.5h-135zM358 289q-4 -35 8.5 -58.5t35 -40t51 -23.5t59.5 -7q127 0 196.5 60.5t84.5 164.5l8 55h-51q-51 0 -116 -4t-123 -19.5t-101 -45t-52 -82.5z" />
<glyph unicode="&#xe4;" horiz-adv-x="1099" d="M111 270q16 119 87.5 187.5t170 103.5t208 43t201.5 8h62l2 27q14 92 -43.5 138t-155.5 46q-78 0 -149.5 -27.5t-126.5 -74.5l-111 129q92 84 208 121t232 37q104 0 173 -23.5t111 -60.5t60.5 -85t22.5 -97.5t-1 -95.5t-9 -81l-78 -565h-221l18 135h-6q-66 -84 -153 -122 t-185 -38q-68 0 -130 18.5t-107.5 55.5t-68 92.5t-11.5 128.5zM358 289q-4 -35 8.5 -58.5t35 -40t51 -23.5t59.5 -7q127 0 196.5 60.5t84.5 164.5l8 55h-51q-51 0 -116 -4t-123 -19.5t-101 -45t-52 -82.5zM406 1303q8 59 58 103t118 44t109 -42t30 -105q-10 -63 -61 -105.5 t-119 -42.5t-105.5 44.5t-29.5 103.5zM828 1303q8 59 58 103t118 44t108.5 -42t30.5 -105t-61 -105.5t-119 -42.5t-105.5 44.5t-29.5 103.5z" />
<glyph unicode="&#xe5;" horiz-adv-x="1099" d="M111 270q16 119 87.5 187.5t170 103.5t208 43t201.5 8h62l2 27q14 92 -43.5 138t-155.5 46q-78 0 -149.5 -27.5t-126.5 -74.5l-111 129q92 84 208 121t232 37q104 0 173 -23.5t111 -60.5t60.5 -85t22.5 -97.5t-1 -95.5t-9 -81l-78 -565h-221l18 135h-6q-66 -84 -153 -122 t-185 -38q-68 0 -130 18.5t-107.5 55.5t-68 92.5t-11.5 128.5zM358 289q-4 -35 8.5 -58.5t35 -40t51 -23.5t59.5 -7q127 0 196.5 60.5t84.5 164.5l8 55h-51q-51 0 -116 -4t-123 -19.5t-101 -45t-52 -82.5zM523 1339q14 90 83.5 150.5t161.5 60.5t145.5 -58.5t41.5 -150.5 q-14 -92 -84 -150t-162 -58t-145.5 58t-40.5 148zM623 1341q-8 -47 22.5 -78.5t77.5 -31.5t86 30.5t47 79.5q6 47 -24.5 79t-77.5 32t-86 -31.5t-45 -79.5z" />
<glyph unicode="&#xe6;" horiz-adv-x="1744" d="M111 272q25 174 158.5 246t361.5 72h200q16 109 -30.5 172t-157.5 63q-78 0 -149.5 -27.5t-126.5 -74.5l-111 129q94 84 209 121t231 37q86 4 171 -32t134 -114q68 66 150 106t188 38q119 0 203 -41t132 -112t63.5 -166t1.5 -204l-10 -67h-717q-10 -59 5 -107.5t46 -82 t72 -51t79 -17.5q92 0 160 38t123 95l152 -121q-96 -104 -210 -150.5t-249 -46.5q-125 0 -213 51.5t-129 125.5q-78 -100 -187.5 -137.5t-232.5 -37.5q-66 0 -127 17.5t-107.5 53.5t-70 91.5t-12.5 132.5zM358 289q-4 -35 10.5 -59.5t38 -40t52 -21.5t53.5 -6 q61 0 112.5 20.5t89.5 52t60.5 73.5t28.5 85l4 25h-123q-51 0 -105.5 -5t-101.5 -18.5t-79.5 -39t-39.5 -66.5zM1040 590h476q10 104 -43.5 168.5t-161.5 64.5q-102 0 -176 -65.5t-95 -167.5z" />
<glyph unicode="&#xe7;" horiz-adv-x="987" d="M158 492q16 117 71.5 212t137.5 162.5t185 104.5t214 37q94 0 184 -36t150 -114l-193 -170q-37 45 -81 71.5t-93 26.5q-68 0 -124 -24.5t-99 -65.5t-70.5 -94t-36.5 -110q-8 -57 4.5 -110.5t44 -94.5t82 -65.5t117.5 -24.5q57 0 109.5 23.5t93.5 68.5l139 -176 q-43 -37 -93 -62.5t-101 -43t-96.5 -25t-77.5 -7.5l-84 -98q45 0 89 -4t76.5 -21.5t49 -51t8.5 -93.5q-8 -55 -40 -94t-77 -61.5t-97 -33t-97 -10.5q-117 0 -209 58l57 94q72 -41 162 -41q16 0 37.5 4t41 13.5t33 27t17.5 41.5q6 39 -28 56.5t-66 17.5q-20 0 -39 -4t-39 -11 l-47 52l141 170q-90 16 -161.5 59t-120 108.5t-69 150.5t-5.5 188z" />
<glyph unicode="&#xe8;" d="M158 492q16 117 71.5 212t137.5 162.5t185 104.5t214 37q207 0 313.5 -138.5t71.5 -396.5l-10 -67h-750q-2 -55 15.5 -98.5t48 -73t73.5 -46t95 -16.5q92 0 160.5 38t121.5 95l158 -133q-100 -106 -213 -151.5t-229 -45.5q-111 0 -204 37t-155.5 104.5t-91.5 163 t-12 212.5zM406 1450h278l162 -295h-192zM418 590h504q14 109 -43.5 171t-173.5 62q-111 0 -185 -63.5t-102 -169.5z" />
<glyph unicode="&#xe9;" d="M158 492q16 117 71.5 212t137.5 162.5t185 104.5t214 37q207 0 313.5 -138.5t71.5 -396.5l-10 -67h-750q-2 -55 15.5 -98.5t48 -73t73.5 -46t95 -16.5q92 0 160.5 38t121.5 95l158 -133q-100 -106 -213 -151.5t-229 -45.5q-111 0 -204 37t-155.5 104.5t-91.5 163 t-12 212.5zM418 590h504q14 109 -43.5 171t-173.5 62q-111 0 -185 -63.5t-102 -169.5zM654 1155l243 295h279l-330 -295h-192z" />
<glyph unicode="&#xea;" d="M158 492q16 117 71.5 212t137.5 162.5t185 104.5t214 37q207 0 313.5 -138.5t71.5 -396.5l-10 -67h-750q-2 -55 15.5 -98.5t48 -73t73.5 -46t95 -16.5q92 0 160.5 38t121.5 95l158 -133q-100 -106 -213 -151.5t-229 -45.5q-111 0 -204 37t-155.5 104.5t-91.5 163 t-12 212.5zM377 1155l277 295h276l193 -295h-234l-116 184l-166 -184h-230zM418 590h504q14 109 -43.5 171t-173.5 62q-111 0 -185 -63.5t-102 -169.5z" />
<glyph unicode="&#xeb;" d="M158 492q16 117 71.5 212t137.5 162.5t185 104.5t214 37q207 0 313.5 -138.5t71.5 -396.5l-10 -67h-750q-2 -55 15.5 -98.5t48 -73t73.5 -46t95 -16.5q92 0 160.5 38t121.5 95l158 -133q-100 -106 -213 -151.5t-229 -45.5q-111 0 -204 37t-155.5 104.5t-91.5 163 t-12 212.5zM402 1303q8 59 58 103t118 44t109 -42t30 -105q-10 -63 -61 -105.5t-119 -42.5t-105.5 44.5t-29.5 103.5zM418 590h504q14 109 -43.5 171t-173.5 62q-111 0 -185 -63.5t-102 -169.5zM824 1303q8 59 58 103t118 44t108.5 -42t30.5 -105t-61 -105.5t-119 -42.5 t-105.5 44.5t-29.5 103.5z" />
<glyph unicode="&#xec;" horiz-adv-x="532" d="M109 1450h278l162 -295h-192zM143 0l138 983h245l-137 -983h-246z" />
<glyph unicode="&#xed;" horiz-adv-x="532" d="M143 0l138 983h245l-137 -983h-246zM314 1155l243 295h279l-330 -295h-192z" />
<glyph unicode="&#xee;" horiz-adv-x="532" d="M55 1155l277 295h276l193 -295h-234l-116 184l-166 -184h-230zM143 0l138 983h245l-137 -983h-246z" />
<glyph unicode="&#xef;" horiz-adv-x="532" d="M80 1303q8 59 58 103t118 44t109 -42t30 -105q-10 -63 -61 -105.5t-119 -42.5t-105.5 44.5t-29.5 103.5zM143 0l138 983h245l-137 -983h-246zM502 1303q8 59 58 103t118 44t108.5 -42t30.5 -105t-61 -105.5t-119 -42.5t-105.5 44.5t-29.5 103.5z" />
<glyph unicode="&#xf0;" horiz-adv-x="1249" d="M158 492q16 117 71.5 212t135 162.5t178 104.5t202.5 37q68 0 125.5 -17.5t96.5 -60.5l6 4q-41 86 -97.5 161.5t-117.5 149.5l-6 6l-232 -100l-106 117l235 102q-12 14 -30.5 31.5t-38 36t-39 36t-31.5 29.5l221 119q49 -43 90 -87t62 -67l241 105l117 -115l-256 -110 q61 -80 115.5 -169t90.5 -186.5t49 -204t-3 -221.5q-18 -129 -66.5 -237.5t-127 -187.5t-185 -123t-237.5 -44q-111 0 -204 37t-155.5 104.5t-91.5 163t-12 212.5zM403 492q-8 -57 4.5 -110.5t44 -94.5t81.5 -65.5t118 -24.5t125.5 24.5t100.5 65.5t69.5 94t34.5 111 q8 57 -4 110t-44 94t-82 65.5t-118 24.5t-124 -24.5t-99 -65.5t-70.5 -94t-36.5 -110z" />
<glyph unicode="&#xf1;" d="M139 0l137 983h234l-23 -158h5q45 74 124.5 128.5t202.5 54.5q98 0 163 -33t99.5 -86t43 -123t-2.5 -145l-86 -621h-245l69 498q6 41 8 91t-9 94t-44 73.5t-96 29.5q-61 0 -106.5 -20.5t-77 -55t-51 -79.5t-25.5 -94l-74 -537h-246zM373 1163q14 49 37 96.5t54.5 83 t74.5 58t100 22.5q41 0 82 -12t78 -25.5t69 -25.5t56 -12q41 0 65.5 25.5t41.5 60.5h135q-16 -49 -38 -96.5t-53.5 -83t-74.5 -58t-100 -22.5q-41 0 -82 12t-78 26.5t-69 26.5t-56 12q-41 0 -65.5 -26.5t-41.5 -61.5h-135z" />
<glyph unicode="&#xf2;" horiz-adv-x="1249" d="M158 492q16 117 71.5 212t137.5 162.5t185 104.5t214 37t203 -37t154.5 -104.5t91 -163t12.5 -211.5q-16 -117 -71.5 -212.5t-136.5 -163t-184.5 -104.5t-213.5 -37q-111 0 -204 37t-155.5 104.5t-91 163t-12.5 212.5zM403 492q-8 -57 4.5 -110.5t44 -94.5t82 -65.5 t117.5 -24.5q68 0 125.5 24.5t100.5 65.5t69.5 94t34.5 111q8 57 -4 110t-44 94t-82 65.5t-118 24.5t-124 -24.5t-99 -65.5t-71 -94t-36 -110zM442 1450h278l162 -295h-192z" />
<glyph unicode="&#xf3;" horiz-adv-x="1249" d="M158 492q16 117 71.5 212t137.5 162.5t185 104.5t214 37t203 -37t154.5 -104.5t91 -163t12.5 -211.5q-16 -117 -71.5 -212.5t-136.5 -163t-184.5 -104.5t-213.5 -37q-111 0 -204 37t-155.5 104.5t-91 163t-12.5 212.5zM403 492q-8 -57 4.5 -110.5t44 -94.5t82 -65.5 t117.5 -24.5q68 0 125.5 24.5t100.5 65.5t69.5 94t34.5 111q8 57 -4 110t-44 94t-82 65.5t-118 24.5t-124 -24.5t-99 -65.5t-71 -94t-36 -110zM690 1155l243 295h279l-330 -295h-192z" />
<glyph unicode="&#xf4;" horiz-adv-x="1249" d="M158 492q16 117 71.5 212t137.5 162.5t185 104.5t214 37t203 -37t154.5 -104.5t91 -163t12.5 -211.5q-16 -117 -71.5 -212.5t-136.5 -163t-184.5 -104.5t-213.5 -37q-111 0 -204 37t-155.5 104.5t-91 163t-12.5 212.5zM403 492q-8 -57 4.5 -110.5t44 -94.5t82 -65.5 t117.5 -24.5q68 0 125.5 24.5t100.5 65.5t69.5 94t34.5 111q8 57 -4 110t-44 94t-82 65.5t-118 24.5t-124 -24.5t-99 -65.5t-71 -94t-36 -110zM413 1155l277 295h276l193 -295h-234l-116 184l-166 -184h-230z" />
<glyph unicode="&#xf5;" horiz-adv-x="1249" d="M158 492q16 117 71.5 212t137.5 162.5t185 104.5t214 37t203 -37t154.5 -104.5t91 -163t12.5 -211.5q-16 -117 -71.5 -212.5t-136.5 -163t-184.5 -104.5t-213.5 -37q-111 0 -204 37t-155.5 104.5t-91 163t-12.5 212.5zM403 492q-8 -57 4.5 -110.5t44 -94.5t82 -65.5 t117.5 -24.5q68 0 125.5 24.5t100.5 65.5t69.5 94t34.5 111q8 57 -4 110t-44 94t-82 65.5t-118 24.5t-124 -24.5t-99 -65.5t-71 -94t-36 -110zM409 1163q14 49 37 96.5t54.5 83t74.5 58t100 22.5q41 0 82 -12t78 -25.5t69 -25.5t56 -12q41 0 65.5 25.5t41.5 60.5h135 q-16 -49 -38 -96.5t-53.5 -83t-74.5 -58t-100 -22.5q-41 0 -82 12t-78 26.5t-69 26.5t-56 12q-41 0 -65.5 -26.5t-41.5 -61.5h-135z" />
<glyph unicode="&#xf6;" horiz-adv-x="1249" d="M158 492q16 117 71.5 212t137.5 162.5t185 104.5t214 37t203 -37t154.5 -104.5t91 -163t12.5 -211.5q-16 -117 -71.5 -212.5t-136.5 -163t-184.5 -104.5t-213.5 -37q-111 0 -204 37t-155.5 104.5t-91 163t-12.5 212.5zM403 492q-8 -57 4.5 -110.5t44 -94.5t82 -65.5 t117.5 -24.5q68 0 125.5 24.5t100.5 65.5t69.5 94t34.5 111q8 57 -4 110t-44 94t-82 65.5t-118 24.5t-124 -24.5t-99 -65.5t-71 -94t-36 -110zM438 1303q8 59 58 103t118 44t109 -42t30 -105q-10 -63 -61 -105.5t-119 -42.5t-105.5 44.5t-29.5 103.5zM860 1303q8 59 58 103 t118 44t108.5 -42t30.5 -105t-61 -105.5t-119 -42.5t-105.5 44.5t-29.5 103.5z" />
<glyph unicode="&#xf7;" horiz-adv-x="1363" d="M199 516l28 209h1110l-28 -209h-1110zM563 252q10 63 60.5 108.5t113.5 45.5t103.5 -45.5t29.5 -108.5q-10 -63 -61 -108.5t-115 -45.5q-63 0 -102 45.5t-29 108.5zM666 989q10 63 61 108.5t115 45.5q63 0 102 -45t29 -109q-8 -63 -59.5 -108t-114.5 -45t-102 45t-31 108 z" />
<glyph unicode="&#xf8;" horiz-adv-x="1249" d="M74 14l157 140q-47 66 -67.5 150.5t-5.5 187.5q16 117 71.5 212t137.5 162.5t185 104.5t214 37q94 0 174 -27t141 -76l166 148l74 -82l-164 -146q45 -66 64.5 -149.5t5.5 -183.5q-16 -117 -71.5 -212.5t-136.5 -163t-184.5 -104.5t-213.5 -37q-94 0 -173 27t-139 74 l-164 -146zM403 492q-12 -92 25 -164l461 409q-61 49 -156 49q-68 0 -124 -24.5t-99 -65.5t-70.5 -94t-36.5 -110zM498 244q59 -47 153 -47q68 0 125.5 24.5t100.5 65.5t69.5 94t34.5 111q12 90 -20 159z" />
<glyph unicode="&#xf9;" d="M187.5 217q-9.5 70 0.5 145l88 621h246l-69 -498q-6 -41 -9.5 -91t8 -94t43 -73.5t97.5 -29.5q61 0 106 20.5t77 55t51.5 79.5t25.5 94l76 537h246l-138 -983h-233l20 158h-4q-43 -74 -123 -128.5t-202 -54.5q-98 0 -163 32t-99.5 86t-44 124zM406 1450h278l162 -295 h-192z" />
<glyph unicode="&#xfa;" d="M187.5 217q-9.5 70 0.5 145l88 621h246l-69 -498q-6 -41 -9.5 -91t8 -94t43 -73.5t97.5 -29.5q61 0 106 20.5t77 55t51.5 79.5t25.5 94l76 537h246l-138 -983h-233l20 158h-4q-43 -74 -123 -128.5t-202 -54.5q-98 0 -163 32t-99.5 86t-44 124zM654 1155l243 295h279 l-330 -295h-192z" />
<glyph unicode="&#xfb;" d="M187.5 217q-9.5 70 0.5 145l88 621h246l-69 -498q-6 -41 -9.5 -91t8 -94t43 -73.5t97.5 -29.5q61 0 106 20.5t77 55t51.5 79.5t25.5 94l76 537h246l-138 -983h-233l20 158h-4q-43 -74 -123 -128.5t-202 -54.5q-98 0 -163 32t-99.5 86t-44 124zM377 1155l277 295h276 l193 -295h-234l-116 184l-166 -184h-230z" />
<glyph unicode="&#xfc;" d="M187.5 217q-9.5 70 0.5 145l88 621h246l-69 -498q-6 -41 -9.5 -91t8 -94t43 -73.5t97.5 -29.5q61 0 106 20.5t77 55t51.5 79.5t25.5 94l76 537h246l-138 -983h-233l20 158h-4q-43 -74 -123 -128.5t-202 -54.5q-98 0 -163 32t-99.5 86t-44 124zM402 1303q8 59 58 103 t118 44t109 -42t30 -105q-10 -63 -61 -105.5t-119 -42.5t-105.5 44.5t-29.5 103.5zM824 1303q8 59 58 103t118 44t108.5 -42t30.5 -105t-61 -105.5t-119 -42.5t-105.5 44.5t-29.5 103.5z" />
<glyph unicode="&#xfd;" horiz-adv-x="1062" d="M-37 -467l62 221q29 -10 58.5 -17t61.5 -7q45 0 77 8t55.5 25.5t43 45t39.5 66.5l64 117l-281 991h271l178 -682h4l342 682h256l-633 -1194q-37 -70 -76 -122t-87 -88t-108.5 -53.5t-142.5 -17.5q-98 0 -184 25zM598 1155l243 295h279l-330 -295h-192z" />
<glyph unicode="&#xfe;" horiz-adv-x="1290" d="M72 -467l284 2015h246l-98 -692h4q55 74 149.5 113t198.5 39q113 0 198 -40t137 -110t71.5 -164t5.5 -202q-16 -109 -63.5 -203t-120 -164t-166 -110t-197.5 -40q-70 0 -121 14.5t-89 37t-62.5 48t-40.5 50.5h-7l-84 -592h-245zM444 492q-8 -57 4.5 -110.5t44 -94.5 t82 -65.5t117.5 -24.5q68 0 125 24.5t100.5 65.5t70 94.5t34.5 110.5t-4 110t-44 94t-82 65.5t-118 24.5t-124 -24.5t-99 -65.5t-70.5 -94t-36.5 -110z" />
<glyph unicode="&#xff;" horiz-adv-x="1062" d="M-37 -467l62 221q29 -10 58.5 -17t61.5 -7q45 0 77 8t55.5 25.5t43 45t39.5 66.5l64 117l-281 991h271l178 -682h4l342 682h256l-633 -1194q-37 -70 -76 -122t-87 -88t-108.5 -53.5t-142.5 -17.5q-98 0 -184 25zM346 1303q8 59 58 103t118 44t109 -42t30 -105 q-10 -63 -61 -105.5t-119 -42.5t-105.5 44.5t-29.5 103.5zM768 1303q8 59 58 103t118 44t108.5 -42t30.5 -105t-61 -105.5t-119 -42.5t-105.5 44.5t-29.5 103.5z" />
<glyph unicode="&#x100;" horiz-adv-x="1478" d="M0 0l834 1450h223l422 -1450h-295l-90 332h-629l-176 -332h-289zM584 553h450l-139 590zM631 1612l22 160h656l-23 -160h-655z" />
<glyph unicode="&#x101;" horiz-adv-x="1099" d="M111 270q16 119 87.5 187.5t170 103.5t208 43t201.5 8h62l2 27q14 92 -43.5 138t-155.5 46q-78 0 -149.5 -27.5t-126.5 -74.5l-111 129q92 84 208 121t232 37q104 0 173 -23.5t111 -60.5t60.5 -85t22.5 -97.5t-1 -95.5t-9 -81l-78 -565h-221l18 135h-6q-66 -84 -153 -122 t-185 -38q-68 0 -130 18.5t-107.5 55.5t-68 92.5t-11.5 128.5zM358 289q-4 -35 8.5 -58.5t35 -40t51 -23.5t59.5 -7q127 0 196.5 60.5t84.5 164.5l8 55h-51q-51 0 -116 -4t-123 -19.5t-101 -45t-52 -82.5zM424 1219l22 159h655l-22 -159h-655z" />
<glyph unicode="&#x102;" horiz-adv-x="1478" d="M0 0l834 1450h223l422 -1450h-295l-90 332h-629l-176 -332h-289zM584 553h450l-139 590zM643 1843h137q2 -78 58.5 -106.5t134.5 -28.5q88 0 142 24.5t89 110.5h135q-39 -154 -141 -224.5t-250 -70.5q-147 0 -231 71t-74 224z" />
<glyph unicode="&#x103;" horiz-adv-x="1099" d="M111 270q16 119 87.5 187.5t170 103.5t208 43t201.5 8h62l2 27q14 92 -43.5 138t-155.5 46q-78 0 -149.5 -27.5t-126.5 -74.5l-111 129q92 84 208 121t232 37q104 0 173 -23.5t111 -60.5t60.5 -85t22.5 -97.5t-1 -95.5t-9 -81l-78 -565h-221l18 135h-6q-66 -84 -153 -122 t-185 -38q-68 0 -130 18.5t-107.5 55.5t-68 92.5t-11.5 128.5zM358 289q-4 -35 8.5 -58.5t35 -40t51 -23.5t59.5 -7q127 0 196.5 60.5t84.5 164.5l8 55h-51q-51 0 -116 -4t-123 -19.5t-101 -45t-52 -82.5zM436 1450h137q4 -78 59.5 -106.5t133.5 -28.5q88 0 142 24.5 t89 110.5h135q-37 -152 -140.5 -223.5t-250.5 -71.5t-232 70.5t-73 224.5z" />
<glyph unicode="&#x104;" horiz-adv-x="1478" d="M0 0l834 1450h223l422 -1450h-168q-27 -23 -58.5 -52.5t-60.5 -63.5t-49.5 -68.5t-24.5 -65.5q-4 -39 19.5 -66.5t62.5 -27.5q29 0 59.5 12.5t57.5 30.5l37 -100q-47 -35 -102.5 -56.5t-112.5 -21.5q-41 0 -78 11t-62.5 34.5t-39 57.5t-7.5 79q6 41 30 83t56.5 81 t70.5 72.5t75 60.5l-90 332h-629l-176 -332h-289zM584 553h450l-139 590z" />
<glyph unicode="&#x105;" horiz-adv-x="1099" d="M111 270q16 119 87.5 187.5t170 103.5t208 43t201.5 8h62l2 27q14 92 -43.5 138t-155.5 46q-78 0 -149.5 -27.5t-126.5 -74.5l-111 129q94 86 209 122t231 36q104 0 173 -23.5t111 -60.5t60.5 -85t22.5 -97.5t-1 -95.5t-9 -81l-78 -565h-94q-27 -23 -58.5 -52.5 t-60.5 -63.5t-49.5 -68.5t-24.5 -65.5q-4 -39 19.5 -66.5t62.5 -27.5q29 0 59.5 12.5t57.5 30.5l37 -100q-47 -35 -102.5 -56.5t-112.5 -21.5q-41 0 -78 11t-62.5 34.5t-39 57.5t-7.5 79q6 41 29.5 83t56.5 81t71 72.5t75 60.5l18 135h-6q-66 -86 -153 -123t-185 -37 q-68 0 -129 18.5t-106.5 55.5t-69 92.5t-12.5 128.5zM358 289q-4 -35 7.5 -58.5t34 -40t52 -23.5t60.5 -7q129 0 196.5 60.5t84.5 164.5l8 55h-51q-51 0 -116 -4t-123 -19.5t-101 -46t-52 -81.5z" />
<glyph unicode="&#x106;" horiz-adv-x="1402" d="M184 719q25 174 101.5 316.5t192.5 242.5t264.5 154.5t316.5 54.5q147 0 265 -52.5t210 -177.5l-221 -147q-70 86 -139.5 114.5t-145.5 28.5q-113 0 -210 -39.5t-173 -110.5t-125 -165t-63 -203q-16 -117 5 -215t76.5 -169.5t141.5 -112.5t199 -41q88 0 176 42t174 134 l192 -152q-119 -135 -268 -196.5t-309 -61.5q-168 0 -301 54.5t-220 153.5t-125 238.5t-14 309.5zM915 1548l244 295h278l-329 -295h-193z" />
<glyph unicode="&#x107;" horiz-adv-x="987" d="M158 492q16 117 71.5 212t137.5 162.5t185 104.5t214 37q94 0 184 -36t150 -114l-193 -170q-37 45 -81 71.5t-93 26.5q-68 0 -124 -24.5t-99 -65.5t-70.5 -94t-36.5 -110q-8 -57 4.5 -110.5t44 -94.5t82 -65.5t117.5 -24.5q57 0 109.5 23.5t93.5 68.5l139 -176 q-43 -37 -94 -63.5t-102.5 -43t-97.5 -24t-78 -7.5q-111 0 -204 37t-155.5 104.5t-91.5 163t-12 212.5zM658 1155l243 295h279l-330 -295h-192z" />
<glyph unicode="&#x108;" horiz-adv-x="1402" d="M184 719q25 174 101.5 316.5t192.5 242.5t264.5 154.5t316.5 54.5q147 0 265 -52.5t210 -177.5l-221 -147q-70 86 -139.5 114.5t-145.5 28.5q-113 0 -210 -39.5t-173 -110.5t-125 -165t-63 -203q-16 -117 5 -215t76.5 -169.5t141.5 -112.5t199 -41q88 0 176 42t174 134 l192 -152q-119 -135 -268 -196.5t-309 -61.5q-168 0 -301 54.5t-220 153.5t-125 238.5t-14 309.5zM689 1548l276 295h277l192 -295h-233l-117 185l-166 -185h-229z" />
<glyph unicode="&#x109;" horiz-adv-x="987" d="M158 492q16 117 71.5 212t137.5 162.5t185 104.5t214 37q94 0 184 -36t150 -114l-193 -170q-37 45 -81 71.5t-93 26.5q-68 0 -124 -24.5t-99 -65.5t-70.5 -94t-36.5 -110q-8 -57 4.5 -110.5t44 -94.5t82 -65.5t117.5 -24.5q57 0 109.5 23.5t93.5 68.5l139 -176 q-43 -37 -94 -63.5t-102.5 -43t-97.5 -24t-78 -7.5q-111 0 -204 37t-155.5 104.5t-91.5 163t-12 212.5zM391 1155l277 295h276l193 -295h-234l-116 184l-166 -184h-230z" />
<glyph unicode="&#x10a;" horiz-adv-x="1402" d="M184 719q25 174 101.5 316.5t192.5 242.5t264.5 154.5t316.5 54.5q147 0 265 -52.5t210 -177.5l-221 -147q-70 86 -139.5 114.5t-145.5 28.5q-113 0 -210 -39.5t-173 -110.5t-125 -165t-63 -203q-16 -117 5 -215t76.5 -169.5t141.5 -112.5t199 -41q88 0 176 42t174 134 l192 -152q-119 -135 -268 -196.5t-309 -61.5q-168 0 -301 54.5t-220 153.5t-125 238.5t-14 309.5zM924 1696q8 59 58.5 103t117.5 44q68 0 109 -42t31 -105t-61.5 -105.5t-119.5 -42.5t-106.5 44.5t-28.5 103.5z" />
<glyph unicode="&#x10b;" horiz-adv-x="987" d="M158 492q16 117 71.5 212t137.5 162.5t185 104.5t214 37q94 0 184 -36t150 -114l-193 -170q-37 45 -81 71.5t-93 26.5q-68 0 -124 -24.5t-99 -65.5t-70.5 -94t-36.5 -110q-8 -57 4.5 -110.5t44 -94.5t82 -65.5t117.5 -24.5q57 0 109.5 23.5t93.5 68.5l139 -176 q-43 -37 -94 -63.5t-102.5 -43t-97.5 -24t-78 -7.5q-111 0 -204 37t-155.5 104.5t-91.5 163t-12 212.5zM627 1303q8 59 58 103t118 44t108.5 -42t30.5 -105t-61 -105.5t-119 -42.5t-105.5 44.5t-29.5 103.5z" />
<glyph unicode="&#x10c;" horiz-adv-x="1402" d="M184 719q25 174 101.5 316.5t192.5 242.5t264.5 154.5t316.5 54.5q147 0 265 -52.5t210 -177.5l-221 -147q-70 86 -139.5 114.5t-145.5 28.5q-113 0 -210 -39.5t-173 -110.5t-125 -165t-63 -203q-16 -117 5 -215t76.5 -169.5t141.5 -112.5t199 -41q88 0 176 42t174 134 l192 -152q-119 -135 -268 -196.5t-309 -61.5q-168 0 -301 54.5t-220 153.5t-125 238.5t-14 309.5zM732 1843h233l115 -184l168 184h225l-277 -295h-272z" />
<glyph unicode="&#x10d;" horiz-adv-x="987" d="M158 492q16 117 71.5 212t137.5 162.5t185 104.5t214 37q94 0 184 -36t150 -114l-193 -170q-37 45 -81 71.5t-93 26.5q-68 0 -124 -24.5t-99 -65.5t-70.5 -94t-36.5 -110q-8 -57 4.5 -110.5t44 -94.5t82 -65.5t117.5 -24.5q57 0 109.5 23.5t93.5 68.5l139 -176 q-43 -37 -94 -63.5t-102.5 -43t-97.5 -24t-78 -7.5q-111 0 -204 37t-155.5 104.5t-91.5 163t-12 212.5zM432 1450h234l114 -184l168 184h226l-277 -295h-272z" />
<glyph unicode="&#x10e;" horiz-adv-x="1554" d="M162 0l203 1450h571q143 0 270 -44t216 -134t132 -226.5t17 -320.5q-27 -186 -117 -322.5t-213 -225.5t-265 -133t-274 -44h-540zM453 233h192q121 0 231.5 28t198.5 86.5t147.5 151.5t77.5 226q18 131 -9 225t-91.5 152.5t-160 86.5t-214.5 28h-235zM570 1843h233 l115 -184l168 184h225l-277 -295h-272z" />
<glyph unicode="&#x10f;" horiz-adv-x="1290" d="M158 492q14 109 63 202.5t122 163.5t166 110t198 40q70 0 121 -14.5t87.5 -37t61 -48t41.5 -50.5h6l98 690h246l-217 -1548h-233l20 147h-4q-68 -90 -163 -131t-200 -41q-115 0 -198.5 40t-137 110t-74 164t-3.5 203zM403 492q-8 -57 4.5 -110.5t44 -94.5t82 -65.5 t117.5 -24.5q68 0 125.5 24.5t100.5 65.5t69.5 94t34.5 111q8 57 -4 110t-44 94t-82 65.5t-118 24.5t-124 -24.5t-99 -65.5t-71 -94t-36 -110zM1395 1044l180 406h250l-232 -406h-198z" />
<glyph unicode="&#x110;" horiz-adv-x="1554" d="M119 664l24 172h136l86 614h571q143 0 270 -44t216 -134t132 -226.5t17 -320.5q-27 -186 -117 -322.5t-213 -225.5t-265 -133t-274 -44h-540l92 664h-135zM453 233h192q121 0 231.5 28t198.5 86.5t147.5 151.5t77.5 226q18 131 -9 225t-91.5 152.5t-160 86.5t-214.5 28 h-235l-53 -381h442l-25 -172h-442z" />
<glyph unicode="&#x111;" horiz-adv-x="1290" d="M158 492q14 109 63 202.5t122 163.5t166 110t198 40q68 0 120 -14.5t89.5 -37t62.5 -48t39 -50.5h6l43 299h-264l22 160h265l32 231h246l-33 -231h146l-23 -160h-145l-162 -1157h-233l20 147h-4q-68 -92 -163 -132t-200 -40q-115 0 -198.5 40t-137 110t-74 164t-3.5 203z M403 492q-8 -57 4.5 -110.5t44 -94.5t82 -65.5t117.5 -24.5q68 0 125.5 24.5t100.5 65.5t69.5 94t34.5 111q8 57 -4 110t-44 94t-82 65.5t-118 24.5t-124 -24.5t-99 -65.5t-71 -94t-36 -110z" />
<glyph unicode="&#x112;" horiz-adv-x="1251" d="M162 0l203 1450h960l-33 -233h-702l-49 -357h665l-32 -233h-666l-55 -394h739l-33 -233h-997zM553 1612l22 160h656l-23 -160h-655z" />
<glyph unicode="&#x113;" d="M158 492q16 117 71.5 212t137.5 162.5t185 104.5t214 37q207 0 313.5 -138.5t71.5 -396.5l-10 -67h-750q-2 -55 15.5 -98.5t48 -73t73.5 -46t95 -16.5q92 0 160.5 38t121.5 95l158 -133q-100 -106 -213 -151.5t-229 -45.5q-111 0 -204 37t-155.5 104.5t-91.5 163 t-12 212.5zM418 590h504q14 109 -43.5 171t-173.5 62q-111 0 -185 -63.5t-102 -169.5zM457 1219l22 159h655l-22 -159h-655z" />
<glyph unicode="&#x114;" horiz-adv-x="1251" d="M162 0l203 1450h960l-33 -233h-702l-49 -357h665l-32 -233h-666l-55 -394h739l-33 -233h-997zM571 1843h137q2 -78 58.5 -106.5t134.5 -28.5q88 0 142 24.5t89 110.5h135q-39 -154 -141 -224.5t-250 -70.5q-147 0 -231 71t-74 224z" />
<glyph unicode="&#x115;" d="M158 492q16 117 71.5 212t137.5 162.5t185 104.5t214 37q207 0 313.5 -138.5t71.5 -396.5l-10 -67h-750q-2 -55 15.5 -98.5t48 -73t73.5 -46t95 -16.5q92 0 160.5 38t121.5 95l158 -133q-100 -106 -213 -151.5t-229 -45.5q-111 0 -204 37t-155.5 104.5t-91.5 163 t-12 212.5zM418 590h504q14 109 -43.5 171t-173.5 62q-111 0 -185 -63.5t-102 -169.5zM469 1450h137q4 -78 59.5 -106.5t133.5 -28.5q88 0 142 24.5t89 110.5h135q-37 -152 -140.5 -223.5t-250.5 -71.5t-232 70.5t-73 224.5z" />
<glyph unicode="&#x116;" horiz-adv-x="1251" d="M162 0l203 1450h960l-33 -233h-702l-49 -357h665l-32 -233h-666l-55 -394h739l-33 -233h-997zM766 1696q8 59 58.5 103t117.5 44q68 0 109 -42t31 -105t-61.5 -105.5t-119.5 -42.5t-106.5 44.5t-28.5 103.5z" />
<glyph unicode="&#x117;" d="M158 492q16 117 71.5 212t137.5 162.5t185 104.5t214 37q207 0 313.5 -138.5t71.5 -396.5l-10 -67h-750q-2 -55 15.5 -98.5t48 -73t73.5 -46t95 -16.5q92 0 160.5 38t121.5 95l158 -133q-100 -106 -213 -151.5t-229 -45.5q-111 0 -204 37t-155.5 104.5t-91.5 163 t-12 212.5zM418 590h504q14 109 -43.5 171t-173.5 62q-111 0 -185 -63.5t-102 -169.5zM639 1303q8 59 58 103t118 44t108.5 -42t30.5 -105t-61 -105.5t-119 -42.5t-105.5 44.5t-29.5 103.5z" />
<glyph unicode="&#x118;" horiz-adv-x="1251" d="M162 0l203 1450h960l-33 -233h-702l-49 -357h665l-32 -233h-666l-55 -394h739l-33 -233h-121q-27 -23 -58.5 -52.5t-60 -63.5t-49 -68.5t-24.5 -65.5q-4 -39 19.5 -66.5t62.5 -27.5q29 0 59.5 12.5t56.5 30.5l37 -100q-47 -35 -102 -56.5t-113 -21.5q-41 0 -77.5 11 t-62.5 34.5t-39 57.5t-7 79q6 41 29.5 83t56.5 81t70.5 72.5t74.5 60.5h-749z" />
<glyph unicode="&#x119;" d="M158 492q16 117 71.5 212t137.5 162.5t185 104.5t214 37q102 0 182 -36t130 -103.5t70.5 -167t2.5 -228.5l-10 -67h-750q-4 -111 61.5 -172.5t170.5 -61.5q92 0 159.5 38t122.5 95l158 -133q-78 -82 -162 -126t-172 -60q-27 -23 -55.5 -51.5t-53 -59.5t-43 -63.5 t-22.5 -61.5q-4 -39 19.5 -66.5t62.5 -27.5q29 0 59.5 12.5t57.5 30.5l37 -100q-47 -35 -102.5 -56.5t-113.5 -21.5q-41 0 -77.5 11t-62 34.5t-39 57.5t-7.5 79q6 37 24.5 75t46 72.5t61.5 67.5t67 59q-104 6 -190.5 45t-144.5 106t-85 159t-10 205zM418 590h504 q14 111 -43.5 172t-173.5 61q-111 0 -185 -63.5t-102 -169.5z" />
<glyph unicode="&#x11a;" horiz-adv-x="1251" d="M162 0l203 1450h960l-33 -233h-702l-49 -357h665l-32 -233h-666l-55 -394h739l-33 -233h-997zM553 1843h233l115 -184l168 184h225l-277 -295h-272z" />
<glyph unicode="&#x11b;" d="M158 492q16 117 71.5 212t137.5 162.5t185 104.5t214 37q207 0 313.5 -138.5t71.5 -396.5l-10 -67h-750q-2 -55 15.5 -98.5t48 -73t73.5 -46t95 -16.5q92 0 160.5 38t121.5 95l158 -133q-100 -106 -213 -151.5t-229 -45.5q-111 0 -204 37t-155.5 104.5t-91.5 163 t-12 212.5zM418 590h504q14 109 -43.5 171t-173.5 62q-111 0 -185 -63.5t-102 -169.5zM446 1450h234l114 -184l168 184h226l-277 -295h-272z" />
<glyph unicode="&#x11c;" horiz-adv-x="1593" d="M184 719q25 174 101.5 316.5t192.5 242.5t264.5 154.5t316.5 54.5q166 0 305 -40t240 -142l-218 -193q-59 68 -153 104.5t-205 36.5q-113 0 -210 -39.5t-173 -110.5t-125 -165t-63 -203q-16 -117 5 -215t76.5 -169.5t141.5 -112.5t199 -41q98 0 188 18t162 57l49 342 h-297l33 234h555l-105 -742q-291 -143 -620 -143q-168 0 -301 54.5t-220 153.5t-125 238.5t-14 309.5zM686 1548l276 295h277l192 -295h-233l-117 185l-166 -185h-229z" />
<glyph unicode="&#x11d;" horiz-adv-x="1290" d="M61 -330l177 201q63 -68 138 -104.5t179 -36.5q88 0 151.5 24.5t105.5 67.5t66.5 103.5t34.5 133.5l9 72h-4q-63 -72 -155.5 -107.5t-184.5 -35.5q-111 0 -196 40t-139.5 107.5t-77 159.5t-7.5 197q14 109 61 202.5t120 163.5t168 110t210 40q104 0 188 -41t125 -131h4 l21 147h233l-125 -895q-18 -133 -66 -240.5t-127 -182.5t-189.5 -116t-254.5 -41q-137 0 -254.5 35t-210.5 127zM403 494q-8 -59 7.5 -110.5t48.5 -90.5t83 -61.5t111 -22.5q68 0 125.5 22.5t100.5 60.5t70.5 91t37.5 115q16 129 -50.5 208.5t-201.5 79.5q-66 0 -122 -21.5 t-99 -59t-72.5 -92t-38.5 -119.5zM458 1155l277 295h276l193 -295h-234l-116 184l-166 -184h-230z" />
<glyph unicode="&#x11e;" horiz-adv-x="1593" d="M184 719q25 174 101.5 316.5t192.5 242.5t264.5 154.5t316.5 54.5q166 0 305 -40t240 -142l-218 -193q-59 68 -153 104.5t-205 36.5q-113 0 -210 -39.5t-173 -110.5t-125 -165t-63 -203q-16 -117 5 -215t76.5 -169.5t141.5 -112.5t199 -41q98 0 188 18t162 57l49 342 h-297l33 234h555l-105 -742q-291 -143 -620 -143q-168 0 -301 54.5t-220 153.5t-125 238.5t-14 309.5zM756 1843h137q2 -78 58.5 -106.5t134.5 -28.5q88 0 142 24.5t89 110.5h135q-39 -154 -141 -224.5t-250 -70.5q-147 0 -231 71t-74 224z" />
<glyph unicode="&#x11f;" horiz-adv-x="1290" d="M61 -330l177 201q63 -68 138 -104.5t179 -36.5q88 0 151.5 24.5t105.5 67.5t66.5 103.5t34.5 133.5l9 72h-4q-63 -72 -155.5 -107.5t-184.5 -35.5q-111 0 -196 40t-139.5 107.5t-77 159.5t-7.5 197q14 109 61 202.5t120 163.5t168 110t210 40q104 0 188 -41t125 -131h4 l21 147h233l-125 -895q-18 -133 -66 -240.5t-127 -182.5t-189.5 -116t-254.5 -41q-137 0 -254.5 35t-210.5 127zM403 494q-8 -59 7.5 -110.5t48.5 -90.5t83 -61.5t111 -22.5q68 0 125.5 22.5t100.5 60.5t70.5 91t37.5 115q16 129 -50.5 208.5t-201.5 79.5q-66 0 -122 -21.5 t-99 -59t-72.5 -92t-38.5 -119.5zM524 1450h137q4 -78 59.5 -106.5t133.5 -28.5q88 0 142 24.5t89 110.5h135q-37 -152 -140.5 -223.5t-250.5 -71.5t-232 70.5t-73 224.5z" />
<glyph unicode="&#x120;" horiz-adv-x="1593" d="M184 719q25 174 101.5 316.5t192.5 242.5t264.5 154.5t316.5 54.5q166 0 305 -40t240 -142l-218 -193q-59 68 -153 104.5t-205 36.5q-113 0 -210 -39.5t-173 -110.5t-125 -165t-63 -203q-16 -117 5 -215t76.5 -169.5t141.5 -112.5t199 -41q98 0 188 18t162 57l49 342 h-297l33 234h555l-105 -742q-291 -143 -620 -143q-168 0 -301 54.5t-220 153.5t-125 238.5t-14 309.5zM928 1696q8 59 58.5 103t117.5 44q68 0 109 -42t31 -105t-61.5 -105.5t-119.5 -42.5t-106.5 44.5t-28.5 103.5z" />
<glyph unicode="&#x121;" horiz-adv-x="1290" d="M61 -330l177 201q63 -68 138 -104.5t179 -36.5q88 0 151.5 24.5t105.5 67.5t66.5 103.5t34.5 133.5l9 72h-4q-63 -72 -155.5 -107.5t-184.5 -35.5q-111 0 -196 40t-139.5 107.5t-77 159.5t-7.5 197q14 109 61 202.5t120 163.5t168 110t210 40q104 0 188 -41t125 -131h4 l21 147h233l-125 -895q-18 -133 -66 -240.5t-127 -182.5t-189.5 -116t-254.5 -41q-137 0 -254.5 35t-210.5 127zM403 494q-8 -59 7.5 -110.5t48.5 -90.5t83 -61.5t111 -22.5q68 0 125.5 22.5t100.5 60.5t70.5 91t37.5 115q16 129 -50.5 208.5t-201.5 79.5q-66 0 -122 -21.5 t-99 -59t-72.5 -92t-38.5 -119.5zM674 1303q8 59 58 103t118 44t108.5 -42t30.5 -105t-61 -105.5t-119 -42.5t-105.5 44.5t-29.5 103.5z" />
<glyph unicode="&#x122;" horiz-adv-x="1593" d="M184 719q25 174 101.5 316.5t192.5 242.5t264.5 154.5t316.5 54.5q166 0 305 -40t240 -142l-218 -193q-59 68 -153 104.5t-205 36.5q-113 0 -210 -39.5t-173 -110.5t-125 -165t-63 -203q-16 -117 5 -215t76.5 -169.5t141.5 -112.5t199 -41q98 0 188 18t162 57l49 342 h-297l33 234h555l-105 -742q-291 -143 -620 -143q-168 0 -301 54.5t-220 153.5t-125 238.5t-14 309.5zM557 -528l206 405h250l-237 -405h-219z" />
<glyph unicode="&#x123;" horiz-adv-x="1290" d="M61 -330l177 201q63 -68 138 -104.5t179 -36.5q88 0 151.5 24.5t105.5 67.5t66.5 103.5t34.5 133.5l9 72h-4q-63 -72 -155.5 -107.5t-184.5 -35.5q-111 0 -196 40t-139.5 107.5t-77 159.5t-7.5 197q14 109 61 202.5t120 163.5t168 110t210 40q104 0 188 -41t125 -131h4 l21 147h233l-125 -895q-18 -133 -66 -240.5t-127 -182.5t-189.5 -116t-254.5 -41q-137 0 -254.5 35t-210.5 127zM403 494q-8 -59 7.5 -110.5t48.5 -90.5t83 -61.5t111 -22.5q68 0 125.5 22.5t100.5 60.5t70.5 91t37.5 115q16 129 -50.5 208.5t-201.5 79.5q-66 0 -122 -21.5 t-99 -59t-72.5 -92t-38.5 -119.5zM643 1196l235 406h219l-205 -406h-249z" />
<glyph unicode="&#x124;" horiz-adv-x="1517" d="M162 0l203 1450h258l-82 -578h678l81 578h259l-203 -1450h-258l88 639h-678l-88 -639h-258zM603 1548l276 295h277l192 -295h-233l-117 185l-166 -185h-229z" />
<glyph unicode="&#x125;" d="M139 0l217 1548h246l-98 -702h4q37 61 117 111.5t194 50.5q98 0 163 -33t99.5 -86t43 -123t-2.5 -145l-86 -621h-245l69 498q6 41 8 91t-9 94t-44 73.5t-96 29.5q-61 0 -106.5 -20.5t-77 -55t-51 -79.5t-25.5 -94l-74 -537h-246zM439 1630l276 295h277l192 -295h-233 l-117 185l-166 -185h-229z" />
<glyph unicode="&#x126;" horiz-adv-x="1517" d="M162 0l203 1450h258l-27 -182h678l26 182h259l-203 -1450h-258l88 639h-678l-88 -639h-258zM541 872h678l34 236h-678z" />
<glyph unicode="&#x127;" d="M139 0l162 1157h-145l22 160h146l32 231h246l-33 -231h265l-23 -160h-264l-43 -311h4q37 61 115.5 111.5t195.5 50.5q98 0 163 -33t99.5 -86t43 -123t-2.5 -145l-86 -621h-245l69 498q6 41 8 91t-9 94t-44 73.5t-96 29.5q-61 0 -106.5 -20.5t-77 -55t-51 -79.5t-25.5 -94 l-74 -537h-246z" />
<glyph unicode="&#x128;" horiz-adv-x="569" d="M126 1556q14 49 37 96.5t54.5 83.5t74.5 58.5t101 22.5q41 0 81 -12.5t76.5 -26t69.5 -25.5t57 -12q41 0 66 25.5t41 60.5h135q-16 -49 -37.5 -96.5t-53.5 -83t-75 -58t-100 -22.5q-41 0 -81 12t-77 26.5t-69.5 27t-57.5 12.5q-41 0 -65.5 -27t-40.5 -62h-136zM156 0 l202 1450h258l-202 -1450h-258z" />
<glyph unicode="&#x129;" horiz-adv-x="532" d="M55 1163q14 49 37 96.5t54.5 83t74.5 58t100 22.5q41 0 82 -12t78 -25.5t69 -25.5t56 -12q41 0 65.5 25.5t41.5 60.5h135q-16 -49 -38 -96.5t-53.5 -83t-74.5 -58t-100 -22.5q-41 0 -82 12t-78 26.5t-69 26.5t-56 12q-41 0 -65.5 -26.5t-41.5 -61.5h-135zM143 0l138 983 h245l-137 -983h-246z" />
<glyph unicode="&#x12a;" horiz-adv-x="569" d="M156 0l202 1450h258l-202 -1450h-258zM180 1612l22 160h656l-23 -160h-655z" />
<glyph unicode="&#x12b;" horiz-adv-x="532" d="M113 1219l22 159h655l-22 -159h-655zM143 0l138 983h245l-137 -983h-246z" />
<glyph unicode="&#x12e;" horiz-adv-x="569" d="M-16 -297q6 41 28.5 83t55 81t70.5 72.5t75 60.5h-57l202 1450h258l-202 -1450h-74q-29 -23 -59.5 -52.5t-59 -63.5t-49 -68.5t-25.5 -65.5q-4 -39 19.5 -66.5t62.5 -27.5q29 0 61 12.5t56 30.5l37 -100q-47 -35 -102.5 -56.5t-112.5 -21.5q-41 0 -78 11t-63.5 34.5 t-38 57.5t-4.5 79z" />
<glyph unicode="&#x12f;" horiz-adv-x="532" d="M-86 -297q6 41 29.5 83t55.5 81t69.5 72.5t74.5 60.5l138 983h245l-137 -983h-119q-27 -23 -58.5 -52.5t-60 -63.5t-49 -68.5t-24.5 -65.5q-4 -39 19.5 -66.5t62.5 -27.5q29 0 59.5 12.5t56.5 30.5l37 -100q-47 -35 -102 -56.5t-113 -21.5q-41 0 -76.5 11t-61.5 34.5 t-39 57.5t-7 79zM293 1317q8 59 58 103t118 44t108.5 -42t30.5 -105t-61 -105.5t-119 -42.5t-106.5 44.5t-28.5 103.5z" />
<glyph unicode="&#x130;" horiz-adv-x="569" d="M156 0l202 1450h258l-202 -1450h-258zM366 1696q8 59 58.5 103t117.5 44q68 0 109 -42t31 -105t-61.5 -105.5t-119.5 -42.5t-106.5 44.5t-28.5 103.5z" />
<glyph unicode="&#x131;" horiz-adv-x="532" d="M143 0l138 983h245l-137 -983h-246z" />
<glyph unicode="&#x132;" horiz-adv-x="1570" d="M156 0l202 1450h258l-202 -1450h-258zM598 297l250 57q2 -72 42 -114.5t108 -42.5q111 0 161 74.5t68 205.5l137 973h258l-147 -1049q-12 -86 -51 -165.5t-101.5 -140t-149.5 -96.5t-196 -36q-172 0 -270.5 80t-108.5 254z" />
<glyph unicode="&#x133;" horiz-adv-x="991" d="M143 0l138 983h245l-137 -983h-246zM293 1317q8 59 58 103t118 44t108.5 -42t30.5 -105t-61 -105.5t-119 -42.5t-105.5 44.5t-29.5 103.5zM318 -473l49 213q41 -10 76 -10q45 0 72.5 19.5t43 50t22.5 67.5t11 72l148 1044h245l-147 -1042q-12 -92 -36 -171t-67 -137.5 t-112.5 -91.5t-173.5 -33q-35 0 -68 4.5t-63 14.5zM752 1317q8 59 58 103t118 44t108.5 -42t30.5 -105t-61 -105.5t-119 -42.5t-105.5 44.5t-29.5 103.5z" />
<glyph unicode="&#x134;" horiz-adv-x="1024" d="M51 297l250 57q2 -72 42 -114.5t108 -42.5q111 0 161 74.5t68 205.5l137 973h258l-147 -1049q-12 -86 -51 -165.5t-101.5 -140t-149.5 -96.5t-196 -36q-172 0 -270.5 80t-108.5 254zM590 1548l276 295h277l192 -295h-233l-117 185l-166 -185h-229z" />
<glyph unicode="&#x135;" horiz-adv-x="532" d="M-141 -473l49 213q41 -10 76 -10q45 0 72.5 19.5t43 50t22.5 67.5t11 72l148 1044h245l-147 -1042q-12 -92 -36 -171t-67 -137.5t-112.5 -91.5t-173.5 -33q-35 0 -68 4.5t-63 14.5zM55 1155l277 295h276l193 -295h-234l-116 184l-166 -184h-230z" />
<glyph unicode="&#x136;" horiz-adv-x="1402" d="M162 0l203 1450h258l-86 -614h12l686 614h348l-772 -670l614 -780h-362l-531 713h-14l-98 -713h-258zM359 -528l206 405h250l-237 -405h-219z" />
<glyph unicode="&#x137;" horiz-adv-x="1099" d="M139 0l217 1548h246l-137 -973l436 408h316l-486 -446l375 -537h-326l-321 502h-4l-70 -502h-246zM215 -528l206 405h250l-237 -405h-219z" />
<glyph unicode="&#x139;" horiz-adv-x="1062" d="M162 0l203 1450h258l-170 -1217h616l-33 -233h-874zM350 1548l244 295h278l-329 -295h-193z" />
<glyph unicode="&#x13a;" horiz-adv-x="532" d="M143 0l217 1548h246l-217 -1548h-246zM348 1630l244 295h278l-329 -295h-193z" />
<glyph unicode="&#x13b;" horiz-adv-x="1062" d="M162 0l203 1450h258l-170 -1217h616l-33 -233h-874zM246 -528l206 405h250l-237 -405h-219z" />
<glyph unicode="&#x13c;" horiz-adv-x="532" d="M-38 -528l206 405h250l-237 -405h-219zM143 0l217 1548h246l-217 -1548h-246z" />
<glyph unicode="&#x13d;" horiz-adv-x="1062" d="M162 0l203 1450h258l-170 -1217h616l-33 -233h-874zM674 1044l180 406h250l-232 -406h-198z" />
<glyph unicode="&#x13e;" horiz-adv-x="532" d="M143 0l217 1548h246l-217 -1548h-246zM652 1044l180 406h250l-232 -406h-198z" />
<glyph unicode="&#x13f;" horiz-adv-x="1062" d="M162 0l203 1450h258l-170 -1217h616l-33 -233h-874zM768 791q8 59 58 103t118 44t108.5 -42t30.5 -105t-61 -105.5t-119 -42.5t-105.5 44.5t-29.5 103.5z" />
<glyph unicode="&#x140;" horiz-adv-x="786" d="M143 0l217 1548h246l-217 -1548h-246zM617 779q8 59 58 103t118 44t108.5 -42t30.5 -105t-61 -105.5t-119 -42.5t-105.5 44.5t-29.5 103.5z" />
<glyph unicode="&#x141;" horiz-adv-x="1062" d="M53 256l33 225l160 127l119 842h258l-86 -614l473 370l-31 -223l-475 -373l-51 -377h616l-33 -233h-874l53 383z" />
<glyph unicode="&#x142;" horiz-adv-x="532" d="M59 418l31 223l162 141l108 766h246l-74 -522l162 141l-30 -219l-162 -139l-113 -809h-246l78 559z" />
<glyph unicode="&#x143;" horiz-adv-x="1630" d="M162 0l203 1450h342l550 -1077h5l151 1077h258l-203 -1450h-327l-561 1112h-5l-155 -1112h-258zM922 1548l244 295h278l-329 -295h-193z" />
<glyph unicode="&#x144;" d="M139 0l137 983h234l-23 -158h5q45 74 124.5 128.5t202.5 54.5q98 0 163 -33t99.5 -86t43 -123t-2.5 -145l-86 -621h-245l69 498q6 41 8 91t-9 94t-44 73.5t-96 29.5q-61 0 -106.5 -20.5t-77 -55t-51 -79.5t-25.5 -94l-74 -537h-246zM592 1155l243 295h279l-330 -295h-192 z" />
<glyph unicode="&#x145;" horiz-adv-x="1630" d="M162 0l203 1450h342l550 -1077h5l151 1077h258l-203 -1450h-327l-561 1112h-5l-155 -1112h-258zM459 -528l206 405h250l-237 -405h-219z" />
<glyph unicode="&#x146;" d="M139 0l137 983h234l-23 -158h5q45 74 124.5 128.5t202.5 54.5q98 0 163 -33t99.5 -86t43 -123t-2.5 -145l-86 -621h-245l69 498q6 41 8 91t-9 94t-44 73.5t-96 29.5q-61 0 -106.5 -20.5t-77 -55t-51 -79.5t-25.5 -94l-74 -537h-246zM252 -528l206 405h250l-237 -405h-219 z" />
<glyph unicode="&#x147;" horiz-adv-x="1630" d="M162 0l203 1450h342l550 -1077h5l151 1077h258l-203 -1450h-327l-561 1112h-5l-155 -1112h-258zM701 1843h233l115 -184l168 184h225l-277 -295h-272z" />
<glyph unicode="&#x148;" d="M139 0l137 983h234l-23 -158h5q45 74 124.5 128.5t202.5 54.5q98 0 163 -33t99.5 -86t43 -123t-2.5 -145l-86 -621h-245l69 498q6 41 8 91t-9 94t-44 73.5t-96 29.5q-61 0 -106.5 -20.5t-77 -55t-51 -79.5t-25.5 -94l-74 -537h-246zM430 1450h234l114 -184l168 184h226 l-277 -295h-272z" />
<glyph unicode="&#x149;" d="M19 1044l180 406h250l-232 -406h-198zM139 0l137 983h234l-23 -158h5q45 74 124.5 128.5t202.5 54.5q98 0 163 -33t99.5 -86t43 -123t-2.5 -145l-86 -621h-245l69 498q6 41 8 91t-9 94t-44 73.5t-96 29.5q-61 0 -106.5 -20.5t-77 -55t-51 -79.5t-25.5 -94l-74 -537h-246z " />
<glyph unicode="&#x14c;" horiz-adv-x="1705" d="M184 719q25 174 101.5 316.5t192.5 242.5t264.5 154.5t316.5 54.5q170 2 304 -50.5t222 -152.5t125 -241.5t12 -315.5q-25 -170 -100.5 -309t-192 -239.5t-266 -157t-319.5 -58.5q-168 0 -301 54.5t-220 153.5t-125.5 238.5t-13.5 309.5zM457 735q-16 -117 5 -215 t76.5 -169.5t141.5 -112.5t199 -41t211 41t173.5 112.5t125 169.5t65.5 215q14 109 -7.5 203t-76.5 165t-142 110.5t-200 39.5t-210 -39.5t-173 -110.5t-125 -165t-63 -203zM748 1612l22 160h656l-23 -160h-655z" />
<glyph unicode="&#x14d;" horiz-adv-x="1249" d="M158 492q16 117 71.5 212t137.5 162.5t185 104.5t214 37t203 -37t154.5 -104.5t91 -163t12.5 -211.5q-16 -117 -71.5 -212.5t-136.5 -163t-184.5 -104.5t-213.5 -37q-111 0 -204 37t-155.5 104.5t-91 163t-12.5 212.5zM403 492q-8 -57 4.5 -110.5t44 -94.5t82 -65.5 t117.5 -24.5q68 0 125.5 24.5t100.5 65.5t69.5 94t34.5 111q8 57 -4 110t-44 94t-82 65.5t-118 24.5t-124 -24.5t-99 -65.5t-71 -94t-36 -110zM467 1219l22 159h655l-22 -159h-655z" />
<glyph unicode="&#x14e;" horiz-adv-x="1705" d="M184 719q25 174 101.5 316.5t192.5 242.5t264.5 154.5t316.5 54.5q170 2 304 -50.5t222 -152.5t125 -241.5t12 -315.5q-25 -170 -100.5 -309t-192 -239.5t-266 -157t-319.5 -58.5q-168 0 -301 54.5t-220 153.5t-125.5 238.5t-13.5 309.5zM457 735q-16 -117 5 -215 t76.5 -169.5t141.5 -112.5t199 -41t211 41t173.5 112.5t125 169.5t65.5 215q14 109 -7.5 203t-76.5 165t-142 110.5t-200 39.5t-210 -39.5t-173 -110.5t-125 -165t-63 -203zM760 1843h137q2 -78 58.5 -106.5t134.5 -28.5q88 0 142 24.5t89 110.5h135q-39 -154 -141 -224.5 t-250 -70.5q-147 0 -231 71t-74 224z" />
<glyph unicode="&#x14f;" horiz-adv-x="1249" d="M158 492q16 117 71.5 212t137.5 162.5t185 104.5t214 37t203 -37t154.5 -104.5t91 -163t12.5 -211.5q-16 -117 -71.5 -212.5t-136.5 -163t-184.5 -104.5t-213.5 -37q-111 0 -204 37t-155.5 104.5t-91 163t-12.5 212.5zM403 492q-8 -57 4.5 -110.5t44 -94.5t82 -65.5 t117.5 -24.5q68 0 125.5 24.5t100.5 65.5t69.5 94t34.5 111q8 57 -4 110t-44 94t-82 65.5t-118 24.5t-124 -24.5t-99 -65.5t-71 -94t-36 -110zM483 1450h137q4 -78 59.5 -106.5t133.5 -28.5q88 0 142 24.5t89 110.5h135q-37 -152 -140.5 -223.5t-250.5 -71.5t-232 70.5 t-73 224.5z" />
<glyph unicode="&#x150;" horiz-adv-x="1705" d="M184 719q25 174 101.5 316.5t192.5 242.5t264.5 154.5t316.5 54.5q170 2 304 -50.5t222 -152.5t125 -241.5t12 -315.5q-25 -170 -100.5 -309t-192 -239.5t-266 -157t-319.5 -58.5q-168 0 -301 54.5t-220 153.5t-125.5 238.5t-13.5 309.5zM457 735q-16 -117 5 -215 t76.5 -169.5t141.5 -112.5t199 -41t211 41t173.5 112.5t125 169.5t65.5 215q14 109 -7.5 203t-76.5 165t-142 110.5t-200 39.5t-210 -39.5t-173 -110.5t-125 -165t-63 -203zM758 1548l244 295h278l-329 -295h-193zM1178 1548l244 295h278l-330 -295h-192z" />
<glyph unicode="&#x151;" horiz-adv-x="1249" d="M158 492q16 117 71.5 212t137.5 162.5t185 104.5t214 37t203 -37t154.5 -104.5t91 -163t12.5 -211.5q-16 -117 -71.5 -212.5t-136.5 -163t-184.5 -104.5t-213.5 -37q-111 0 -204 37t-155.5 104.5t-91 163t-12.5 212.5zM403 492q-8 -57 4.5 -110.5t44 -94.5t82 -65.5 t117.5 -24.5q68 0 125.5 24.5t100.5 65.5t69.5 94t34.5 111q8 57 -4 110t-44 94t-82 65.5t-118 24.5t-124 -24.5t-99 -65.5t-71 -94t-36 -110zM457 1155l244 295h278l-330 -295h-192zM877 1155l243 295h279l-330 -295h-192z" />
<glyph unicode="&#x152;" horiz-adv-x="2048" d="M203 725q23 156 96.5 288t193 229t280.5 152.5t357 55.5h984l-33 -233h-590l-49 -357h553l-33 -233h-553l-55 -394h624l-32 -233h-1018q-197 0 -342.5 55.5t-237.5 153.5t-130 230t-15 286zM485 725q-20 -150 26 -245t124 -150.5t169 -76t163 -20.5h129l137 984h-129 q-47 0 -107.5 -9.5t-124 -31t-127 -57.5t-117 -90t-91 -130t-52.5 -174z" />
<glyph unicode="&#x153;" horiz-adv-x="1896" d="M141 492q16 117 71.5 212t137.5 162.5t185.5 104.5t214.5 37t200.5 -39t153.5 -121q78 82 177 121t210 39q119 0 203 -41t132 -112t63.5 -166t0.5 -204l-10 -67h-717q-10 -55 6.5 -100.5t47 -78t71.5 -50t80 -17.5q92 0 159.5 38t121.5 95l153 -121q-98 -115 -211.5 -162 t-249.5 -47q-123 0 -208.5 41t-133.5 117q-86 -82 -186 -120t-209 -38q-111 0 -204 37t-155.5 104.5t-91 163t-12.5 212.5zM387 492q-8 -61 4 -118t43 -99t81 -66.5t118 -24.5q70 0 127 24.5t101 66.5t72 98.5t36 118.5q8 61 -3.5 117.5t-43 98.5t-83 66.5t-120.5 24.5 q-68 0 -125 -24.5t-100 -66.5t-71 -98.5t-36 -117.5zM1180 590h479q14 109 -41 171t-154 62q-43 0 -90 -15t-87 -44t-68.5 -73t-38.5 -101z" />
<glyph unicode="&#x154;" horiz-adv-x="1290" d="M162 0l203 1450h503q104 0 199.5 -19.5t164 -66.5t102.5 -127t16 -203q-10 -78 -42 -145.5t-82 -118.5t-118 -84t-150 -45l297 -641h-311l-250 614h-188l-86 -614h-258zM537 836h200q55 0 111.5 5t104.5 24.5t83 59.5t45 111q8 63 -13 102.5t-61 59t-91.5 25.5t-100.5 6 h-223zM647 1548l244 295h278l-329 -295h-193z" />
<glyph unicode="&#x155;" horiz-adv-x="796" d="M139 0l137 983h246l-22 -156h4q53 86 136 133.5t181 47.5q23 0 43.5 -4.5t42.5 -10.5l-35 -237q-29 8 -57.5 13t-56.5 5q-86 0 -143.5 -31.5t-91.5 -72.5t-48 -82t-16 -62l-74 -526h-246zM434 1155l243 295h279l-330 -295h-192z" />
<glyph unicode="&#x156;" horiz-adv-x="1290" d="M162 0l203 1450h503q104 0 199.5 -19.5t164 -66.5t102.5 -127t16 -203q-10 -78 -42 -145.5t-82 -118.5t-118 -84t-150 -45l297 -641h-311l-250 614h-188l-86 -614h-258zM275 -528l206 405h250l-237 -405h-219zM537 836h200q55 0 111.5 5t104.5 24.5t83 59.5t45 111 q8 63 -13 102.5t-61 59t-91.5 25.5t-100.5 6h-223z" />
<glyph unicode="&#x157;" horiz-adv-x="796" d="M13 -528l206 405h250l-237 -405h-219zM139 0l137 983h246l-22 -156h4q53 86 136 133.5t181 47.5q23 0 43.5 -4.5t42.5 -10.5l-35 -237q-29 8 -57.5 13t-56.5 5q-86 0 -143.5 -31.5t-91.5 -72.5t-48 -82t-16 -62l-74 -526h-246z" />
<glyph unicode="&#x158;" horiz-adv-x="1290" d="M162 0l203 1450h503q104 0 199.5 -19.5t164 -66.5t102.5 -127t16 -203q-10 -78 -42 -145.5t-82 -118.5t-118 -84t-150 -45l297 -641h-311l-250 614h-188l-86 -614h-258zM535 1843h233l115 -184l168 184h225l-277 -295h-272zM537 836h200q55 0 111.5 5t104.5 24.5t83 59.5 t45 111q8 63 -13 102.5t-61 59t-91.5 25.5t-100.5 6h-223z" />
<glyph unicode="&#x159;" horiz-adv-x="796" d="M139 0l137 983h246l-22 -156h4q53 86 136 133.5t181 47.5q23 0 43.5 -4.5t42.5 -10.5l-35 -237q-29 8 -57.5 13t-56.5 5q-86 0 -143.5 -31.5t-91.5 -72.5t-48 -82t-16 -62l-74 -526h-246zM258 1450h234l114 -184l168 184h226l-277 -295h-272z" />
<glyph unicode="&#x15a;" d="M84 160l221 188q39 -72 109.5 -111.5t156.5 -39.5q45 0 91.5 12t86 36.5t68.5 62.5t37 87q10 80 -35 123t-117.5 73t-157.5 56.5t-155 72.5t-110.5 123t-22.5 206q16 113 73.5 194.5t140.5 136t183.5 81t200.5 26.5q115 0 218.5 -35t174.5 -115l-215 -198 q-35 59 -98.5 86.5t-138.5 27.5q-45 0 -89 -10t-81 -32.5t-62.5 -58.5t-32.5 -85q-10 -74 35 -113t118 -67.5t158 -55t155.5 -73.5t110.5 -125t21 -207q-16 -117 -71.5 -204t-136 -144.5t-181 -86t-207.5 -28.5q-135 0 -253.5 45t-194.5 152zM694 1548l244 295h278 l-329 -295h-193z" />
<glyph unicode="&#x15b;" horiz-adv-x="909" d="M68 127l186 154q41 -53 89 -87t126 -34q27 0 56.5 6t56 20.5t45 36t22.5 49.5q8 51 -27.5 76t-93 40t-124 28.5t-122 43t-87 83t-17.5 147.5q12 82 54 142.5t103.5 99.5t135.5 57.5t147 18.5q98 0 189.5 -34t138.5 -116l-184 -147q-57 100 -178 100q-25 0 -51.5 -6 t-49 -18.5t-38 -33t-19.5 -46.5q-6 -45 30 -65.5t93 -35t123.5 -30t121 -47t86 -87t17.5 -151.5q-12 -88 -58 -148.5t-111.5 -97.5t-143.5 -53.5t-154 -16.5q-115 0 -207 33t-155 119zM484 1155l243 295h279l-330 -295h-192z" />
<glyph unicode="&#x15c;" d="M84 160l221 188q39 -72 109.5 -111.5t156.5 -39.5q45 0 91.5 12t86 36.5t68.5 62.5t37 87q10 80 -35 123t-117.5 73t-157.5 56.5t-155 72.5t-110.5 123t-22.5 206q16 113 73.5 194.5t140.5 136t183.5 81t200.5 26.5q115 0 218.5 -35t174.5 -115l-215 -198 q-35 59 -98.5 86.5t-138.5 27.5q-45 0 -89 -10t-81 -32.5t-62.5 -58.5t-32.5 -85q-10 -74 35 -113t118 -67.5t158 -55t155.5 -73.5t110.5 -125t21 -207q-16 -117 -71.5 -204t-136 -144.5t-181 -86t-207.5 -28.5q-135 0 -253.5 45t-194.5 152zM463 1548l276 295h277l192 -295 h-233l-117 185l-166 -185h-229z" />
<glyph unicode="&#x15d;" horiz-adv-x="909" d="M68 127l186 154q41 -53 89 -87t126 -34q27 0 56.5 6t56 20.5t45 36t22.5 49.5q8 51 -27.5 76t-93 40t-124 28.5t-122 43t-87 83t-17.5 147.5q12 82 54 142.5t103.5 99.5t135.5 57.5t147 18.5q98 0 189.5 -34t138.5 -116l-184 -147q-57 100 -178 100q-25 0 -51.5 -6 t-49 -18.5t-38 -33t-19.5 -46.5q-6 -45 30 -65.5t93 -35t123.5 -30t121 -47t86 -87t17.5 -151.5q-12 -88 -58 -148.5t-111.5 -97.5t-143.5 -53.5t-154 -16.5q-115 0 -207 33t-155 119zM272 1155l277 295h276l193 -295h-234l-116 184l-166 -184h-230z" />
<glyph unicode="&#x15e;" d="M84 160l221 188q39 -72 109.5 -111.5t156.5 -39.5q45 0 92.5 12t87.5 36.5t67.5 62.5t35.5 87q10 80 -35 123t-117.5 73t-157.5 56.5t-155 72.5t-110.5 123t-22.5 206q16 113 73.5 194.5t140.5 136t183.5 81t200.5 26.5q117 0 218.5 -35t174.5 -115l-215 -198 q-35 59 -98.5 86.5t-138.5 27.5q-45 0 -89 -10t-81 -32.5t-62.5 -58.5t-32.5 -85q-10 -74 35 -113t118 -67.5t158 -55t155.5 -73.5t110.5 -125t21 -207q-14 -104 -60 -185t-114.5 -137.5t-153.5 -90t-179 -44.5l-76 -92q45 0 89 -4t76.5 -21.5t49 -51t8.5 -93.5 q-8 -55 -40 -94t-77 -61.5t-97 -33t-97 -10.5q-119 0 -209 58l57 94q72 -41 162 -41q16 0 36.5 4t40 13.5t34 27t18.5 41.5q6 41 -27.5 57.5t-66.5 16.5q-20 0 -39 -4t-39 -11l-47 52l123 147q-129 4 -236.5 50t-179.5 147z" />
<glyph unicode="&#x15f;" horiz-adv-x="909" d="M68 127l186 154q41 -53 89 -87t126 -34q27 0 56.5 6t56 20.5t45 36t22.5 49.5q8 51 -27.5 76t-93 40t-124 28.5t-122 43t-87 83t-17.5 147.5q12 82 54 142.5t103.5 99.5t135.5 57.5t147 18.5q98 0 189.5 -34t138.5 -116l-184 -147q-55 100 -178 100q-25 0 -51.5 -6 t-49 -18.5t-38 -33t-19.5 -46.5q-6 -45 30 -65.5t93 -35t123.5 -30t121 -47t86 -87t17.5 -151.5q-10 -74 -44 -127t-84 -91t-111.5 -59.5t-127.5 -29.5l-88 -107q45 0 89 -4t77 -21.5t49.5 -51t8.5 -93.5q-8 -55 -40 -94t-77 -61.5t-97.5 -33t-97.5 -10.5q-119 0 -209 58 l58 94q72 -41 162 -41q16 0 36.5 4t40 13.5t33.5 27t19 41.5q6 41 -28 57.5t-67 16.5q-20 0 -38.5 -4t-38.5 -11l-48 52l132 159q-106 4 -191.5 38t-146.5 114z" />
<glyph unicode="&#x160;" d="M84 160l221 188q39 -72 109.5 -111.5t156.5 -39.5q45 0 91.5 12t86 36.5t68.5 62.5t37 87q10 80 -35 123t-117.5 73t-157.5 56.5t-155 72.5t-110.5 123t-22.5 206q16 113 73.5 194.5t140.5 136t183.5 81t200.5 26.5q115 0 218.5 -35t174.5 -115l-215 -198 q-35 59 -98.5 86.5t-138.5 27.5q-45 0 -89 -10t-81 -32.5t-62.5 -58.5t-32.5 -85q-10 -74 35 -113t118 -67.5t158 -55t155.5 -73.5t110.5 -125t21 -207q-16 -117 -71.5 -204t-136 -144.5t-181 -86t-207.5 -28.5q-135 0 -253.5 45t-194.5 152zM476 1843h233l115 -184l168 184 h225l-277 -295h-272z" />
<glyph unicode="&#x161;" horiz-adv-x="909" d="M68 127l186 154q41 -53 89 -87t126 -34q27 0 56.5 6t56 20.5t45 36t22.5 49.5q8 51 -27.5 76t-93 40t-124 28.5t-122 43t-87 83t-17.5 147.5q12 82 54 142.5t103.5 99.5t135.5 57.5t147 18.5q98 0 189.5 -34t138.5 -116l-184 -147q-57 100 -178 100q-25 0 -51.5 -6 t-49 -18.5t-38 -33t-19.5 -46.5q-6 -45 30 -65.5t93 -35t123.5 -30t121 -47t86 -87t17.5 -151.5q-12 -88 -58 -148.5t-111.5 -97.5t-143.5 -53.5t-154 -16.5q-115 0 -207 33t-155 119zM286 1450h234l114 -184l168 184h226l-277 -295h-272z" />
<glyph unicode="&#x162;" d="M184 1217l33 233h1147l-33 -233h-444l-170 -1217h-258l170 1217h-445zM291 -528l206 405h250l-237 -405h-219z" />
<glyph unicode="&#x163;" horiz-adv-x="796" d="M103 -528l206 405h250l-237 -405h-219zM133 774l29 209h203l38 285h246l-39 -285h271l-29 -209h-270l-62 -430q-10 -74 11.5 -117t103.5 -43q33 0 73 7.5t64 23.5l-29 -207q-41 -18 -98 -25.5t-100 -7.5q-98 0 -157.5 21.5t-89.5 65.5t-34 110t8 152l64 450h-203z" />
<glyph unicode="&#x164;" d="M184 1217l33 233h1147l-33 -233h-444l-170 -1217h-258l170 1217h-445zM476 1843h233l115 -184l168 184h225l-277 -295h-272z" />
<glyph unicode="&#x165;" horiz-adv-x="796" d="M133 774l29 209h203l38 285h246l-39 -285h271l-29 -209h-270l-62 -430q-10 -74 11.5 -117t103.5 -43q33 0 73 7.5t64 23.5l-29 -207q-41 -18 -98 -25.5t-100 -7.5q-98 0 -157.5 21.5t-89.5 65.5t-34 110t8 152l64 450h-203zM727 1126l180 406h250l-232 -406h-198z" />
<glyph unicode="&#x166;" d="M184 1217l33 233h1147l-33 -233h-444l-33 -230h307l-22 -160h-308l-114 -827h-258l114 827h-294l22 160h295l33 230h-445z" />
<glyph unicode="&#x167;" horiz-adv-x="796" d="M133 774l29 209h203l38 285h246l-39 -285h271l-29 -209h-270l-19 -125h215l-22 -160h-215l-21 -145q-10 -74 11.5 -117t103.5 -43q33 0 73 7.5t64 23.5l-29 -207q-41 -18 -98 -25.5t-100 -7.5q-98 0 -157.5 21.5t-89.5 65.5t-34 110t8 152l23 165h-154l23 160h153l19 125 h-203z" />
<glyph unicode="&#x168;" horiz-adv-x="1478" d="M229 532l129 918h258l-127 -909q-8 -53 0.5 -111.5t39 -108t89 -81t150.5 -31.5t159.5 31.5t111.5 81t69 107.5t33 112l127 909h258l-129 -918q-18 -131 -77.5 -236.5t-149 -179t-201 -113.5t-236.5 -40t-226 40t-169 113.5t-97.5 179t-11.5 236.5zM589 1556 q14 49 37 96.5t54.5 83.5t74.5 58.5t101 22.5q41 0 81 -12.5t76.5 -26t69.5 -25.5t57 -12q41 0 66 25.5t41 60.5h135q-16 -49 -37.5 -96.5t-53.5 -83t-75 -58t-100 -22.5q-41 0 -81 12t-77 26.5t-69.5 27t-57.5 12.5q-41 0 -65.5 -27t-40.5 -62h-136z" />
<glyph unicode="&#x169;" d="M187.5 217q-9.5 70 0.5 145l88 621h246l-69 -498q-6 -41 -9.5 -91t8 -94t43 -73.5t97.5 -29.5q61 0 106 20.5t77 55t51.5 79.5t25.5 94l76 537h246l-138 -983h-233l20 158h-4q-43 -74 -123 -128.5t-202 -54.5q-98 0 -163 32t-99.5 86t-44 124zM379 1163q14 49 37 96.5 t54.5 83t74.5 58t100 22.5q41 0 82 -12t78 -25.5t69 -25.5t56 -12q41 0 65.5 25.5t41.5 60.5h135q-16 -49 -38 -96.5t-53.5 -83t-74.5 -58t-100 -22.5q-41 0 -82 12t-78 26.5t-69 26.5t-56 12q-41 0 -65.5 -26.5t-41.5 -61.5h-135z" />
<glyph unicode="&#x16a;" horiz-adv-x="1478" d="M229 532l129 918h258l-127 -909q-8 -53 0.5 -111.5t39 -108t89 -81t150.5 -31.5t159.5 31.5t111.5 81t69 107.5t33 112l127 909h258l-129 -918q-18 -131 -77.5 -236.5t-149 -179t-201 -113.5t-236.5 -40t-226 40t-169 113.5t-97.5 179t-11.5 236.5zM629 1612l22 160h656 l-23 -160h-655z" />
<glyph unicode="&#x16b;" d="M187.5 217q-9.5 70 0.5 145l88 621h246l-69 -498q-6 -41 -9.5 -91t8 -94t43 -73.5t97.5 -29.5q61 0 106 20.5t77 55t51.5 79.5t25.5 94l76 537h246l-138 -983h-233l20 158h-4q-43 -74 -123 -128.5t-202 -54.5q-98 0 -163 32t-99.5 86t-44 124zM428 1219l22 159h655 l-22 -159h-655z" />
<glyph unicode="&#x16c;" horiz-adv-x="1478" d="M229 532l129 918h258l-127 -909q-8 -53 0.5 -111.5t39 -108t89 -81t150.5 -31.5t159.5 31.5t111.5 81t69 107.5t33 112l127 909h258l-129 -918q-18 -131 -77.5 -236.5t-149 -179t-201 -113.5t-236.5 -40t-226 40t-169 113.5t-97.5 179t-11.5 236.5zM641 1843h137 q2 -78 58.5 -106.5t134.5 -28.5q88 0 142 24.5t89 110.5h135q-39 -154 -141 -224.5t-250 -70.5q-147 0 -231 71t-74 224z" />
<glyph unicode="&#x16d;" d="M187.5 217q-9.5 70 0.5 145l88 621h246l-69 -498q-6 -41 -9.5 -91t8 -94t43 -73.5t97.5 -29.5q61 0 106 20.5t77 55t51.5 79.5t25.5 94l76 537h246l-138 -983h-233l20 158h-4q-43 -74 -123 -128.5t-202 -54.5q-98 0 -163 32t-99.5 86t-44 124zM447 1450h137 q4 -78 59.5 -106.5t133.5 -28.5q88 0 142 24.5t89 110.5h135q-37 -152 -140.5 -223.5t-250.5 -71.5t-232 70.5t-73 224.5z" />
<glyph unicode="&#x16e;" horiz-adv-x="1478" d="M229 532l129 918h258l-127 -909q-8 -53 0.5 -111.5t39 -108t89 -81t150.5 -31.5t159.5 31.5t111.5 81t69 107.5t33 112l127 909h258l-129 -918q-18 -131 -77.5 -236.5t-149 -179t-201 -113.5t-236.5 -40t-226 40t-169 113.5t-97.5 179t-11.5 236.5zM766 1712 q6 45 27.5 84t54.5 66.5t73.5 44t88.5 16.5q92 0 146 -58.5t40 -150.5q-12 -92 -82 -150.5t-162 -58.5t-145 57.5t-41 149.5zM864 1714q-6 -47 24.5 -78.5t78.5 -31.5q47 0 86 30.5t45 79.5q6 47 -24 79t-77 32t-87 -32t-46 -79z" />
<glyph unicode="&#x16f;" d="M187.5 217q-9.5 70 0.5 145l88 621h246l-69 -498q-6 -41 -9.5 -91t8 -94t43 -73.5t97.5 -29.5q61 0 106 20.5t77 55t51.5 79.5t25.5 94l76 537h246l-138 -983h-233l20 158h-4q-43 -74 -123 -128.5t-202 -54.5q-98 0 -163 32t-99.5 86t-44 124zM553 1339q14 90 83.5 150.5 t161.5 60.5t145.5 -58.5t41.5 -150.5q-14 -92 -84 -150t-162 -58t-145.5 58t-40.5 148zM653 1341q-8 -47 22.5 -78.5t77.5 -31.5t86 30.5t47 79.5q6 47 -24.5 79t-77.5 32t-86 -31.5t-45 -79.5z" />
<glyph unicode="&#x170;" horiz-adv-x="1478" d="M229 532l129 918h258l-127 -909q-8 -53 0.5 -111.5t39 -108t89 -81t150.5 -31.5t159.5 31.5t111.5 81t69 107.5t33 112l127 909h258l-129 -918q-18 -131 -77.5 -236.5t-149 -179t-201 -113.5t-236.5 -40t-226 40t-169 113.5t-97.5 179t-11.5 236.5zM637 1548l244 295h278 l-329 -295h-193zM1057 1548l244 295h278l-330 -295h-192z" />
<glyph unicode="&#x171;" d="M187.5 217q-9.5 70 0.5 145l88 621h246l-69 -498q-6 -41 -9.5 -91t8 -94t43 -73.5t97.5 -29.5q61 0 106 20.5t77 55t51.5 79.5t25.5 94l76 537h246l-138 -983h-233l20 158h-4q-43 -74 -123 -128.5t-202 -54.5q-98 0 -163 32t-99.5 86t-44 124zM418 1155l244 295h278 l-330 -295h-192zM838 1155l243 295h279l-330 -295h-192z" />
<glyph unicode="&#x172;" horiz-adv-x="1478" d="M229 532l129 918h258l-127 -909q-8 -53 0.5 -111.5t39 -108t89 -81t150.5 -31.5t158.5 31.5t111.5 81t70 107.5t33 112l127 909h258l-129 -918q-16 -117 -65.5 -214t-123 -168.5t-168 -117.5t-200.5 -61q-53 -47 -101.5 -107.5t-56.5 -113.5q-4 -39 19.5 -66.5 t62.5 -27.5q29 0 59.5 12.5t57.5 30.5l37 -100q-47 -35 -102.5 -56.5t-113.5 -21.5q-41 0 -77.5 11t-62 34.5t-39 57.5t-7.5 79q10 70 64.5 139.5t119.5 122.5q-117 6 -212 48t-158.5 115t-91 175.5t-9.5 228.5z" />
<glyph unicode="&#x173;" d="M187.5 217q-9.5 70 0.5 145l88 621h246l-69 -498q-6 -41 -9.5 -91t8 -94t43 -73.5t97.5 -29.5q61 0 106 20.5t77 55t51.5 79.5t25.5 94l76 537h246l-138 -983h-106q-27 -23 -58.5 -52.5t-60.5 -63.5t-49.5 -68.5t-24.5 -65.5q-4 -39 19.5 -66.5t62.5 -27.5 q29 0 59.5 12.5t57.5 30.5l37 -100q-47 -35 -102.5 -56.5t-112.5 -21.5q-41 0 -78 11t-62.5 34.5t-39 57.5t-7.5 79q6 41 30 83t56.5 81t70.5 72.5t75 60.5l20 158h-4q-45 -74 -124 -128.5t-201 -54.5q-98 0 -163 32t-99.5 86t-44 124z" />
<glyph unicode="&#x174;" horiz-adv-x="2009" d="M203 1450h282l125 -1044h4l473 1044h254l172 -1044h5l432 1044h262l-625 -1450h-246l-182 1104h-4l-489 -1104h-238zM850 1548l276 295h277l192 -295h-233l-117 185l-166 -185h-229z" />
<glyph unicode="&#x175;" horiz-adv-x="1630" d="M143 983h267l116 -688h4l295 688h267l116 -688h4l301 688h248l-471 -983h-243l-140 672h-4l-301 -672h-254zM600 1155l277 295h276l193 -295h-234l-116 184l-166 -184h-230z" />
<glyph unicode="&#x176;" horiz-adv-x="1290" d="M174 1450h324l274 -578l442 578h308l-662 -829l-86 -621h-258l86 621zM496 1548l276 295h277l192 -295h-233l-117 185l-166 -185h-229z" />
<glyph unicode="&#x177;" horiz-adv-x="1062" d="M-37 -467l62 221q29 -10 58.5 -17t61.5 -7q45 0 77 8t55.5 25.5t43 45t39.5 66.5l64 117l-281 991h271l178 -682h4l342 682h256l-633 -1194q-37 -70 -76 -122t-87 -88t-108.5 -53.5t-142.5 -17.5q-98 0 -184 25zM340 1155l277 295h276l193 -295h-234l-116 184l-166 -184 h-230z" />
<glyph unicode="&#x178;" horiz-adv-x="1290" d="M174 1450h324l274 -578l442 578h308l-662 -829l-86 -621h-258l86 621zM514 1696q8 59 58.5 103t117.5 44q68 0 109 -42t31 -105t-61.5 -105.5t-119.5 -42.5t-106.5 44.5t-28.5 103.5zM936 1696q8 59 58.5 103t117.5 44q68 0 109 -42t30 -105q-10 -63 -61 -105.5 t-119 -42.5t-106.5 44.5t-28.5 103.5z" />
<glyph unicode="&#x179;" horiz-adv-x="1251" d="M72 0l32 233l912 984h-762l33 233h1083l-33 -233l-917 -984h792l-32 -233h-1108zM711 1548l244 295h278l-329 -295h-193z" />
<glyph unicode="&#x17a;" horiz-adv-x="987" d="M70 0l30 227l605 555v4h-502l28 197h799l-31 -223l-612 -563h557l-26 -197h-848zM520 1155l243 295h279l-330 -295h-192z" />
<glyph unicode="&#x17b;" horiz-adv-x="1251" d="M72 0l32 233l912 984h-762l33 233h1083l-33 -233l-917 -984h792l-32 -233h-1108zM754 1696q8 59 58.5 103t117.5 44q68 0 109 -42t31 -105t-61.5 -105.5t-119.5 -42.5t-106.5 44.5t-28.5 103.5z" />
<glyph unicode="&#x17c;" horiz-adv-x="987" d="M70 0l30 227l605 555v4h-502l28 197h799l-31 -223l-612 -563h557l-26 -197h-848zM561 1303q8 59 58 103t118 44t108.5 -42t30.5 -105t-61 -105.5t-119 -42.5t-105.5 44.5t-29.5 103.5z" />
<glyph unicode="&#x17d;" horiz-adv-x="1251" d="M72 0l32 233l912 984h-762l33 233h1083l-33 -233l-917 -984h792l-32 -233h-1108zM514 1843h233l115 -184l168 184h225l-277 -295h-272z" />
<glyph unicode="&#x17e;" horiz-adv-x="987" d="M70 0l30 227l605 555v4h-502l28 197h799l-31 -223l-612 -563h557l-26 -197h-848zM325 1450h234l114 -184l168 184h226l-277 -295h-272z" />
<glyph unicode="&#x192;" horiz-adv-x="1212" d="M-41 -236l117 189q39 -29 92 -29q80 0 121 60.5t73 152.5l187 551h-232l25 184h268l78 228q27 76 61.5 144.5t85 119.5t118 81t157.5 30q66 0 121 -16.5t108 -47.5l-120 -190q-49 33 -107 32q-45 0 -76.5 -19.5t-54.5 -49t-38 -66.5t-28 -74l-61 -172h250l-25 -184h-282 l-201 -590q-66 -197 -171.5 -290t-264.5 -93q-53 0 -105.5 12.5t-95.5 36.5z" />
<glyph unicode="&#x2c6;" horiz-adv-x="532" d="M55 1155l277 295h276l193 -295h-234l-116 184l-166 -184h-230z" />
<glyph unicode="&#x2c7;" horiz-adv-x="532" d="M98 1450h234l114 -184l168 184h226l-277 -295h-272z" />
<glyph unicode="&#x2d8;" horiz-adv-x="532" d="M121 1450h137q4 -78 59.5 -106.5t133.5 -28.5q88 0 142 24.5t89 110.5h135q-37 -152 -140.5 -223.5t-250.5 -71.5t-232 70.5t-73 224.5z" />
<glyph unicode="&#x2d9;" horiz-adv-x="532" d="M291 1303q8 59 58 103t118 44t108.5 -42t30.5 -105t-61 -105.5t-119 -42.5t-105.5 44.5t-29.5 103.5z" />
<glyph unicode="&#x2da;" horiz-adv-x="532" d="M238 1339q14 90 83.5 150.5t161.5 60.5t145.5 -58.5t41.5 -150.5q-14 -92 -84 -150t-162 -58t-145.5 58t-40.5 148zM338 1341q-8 -47 22.5 -78.5t77.5 -31.5t86 30.5t47 79.5q6 47 -24.5 79t-77.5 32t-86 -31.5t-45 -79.5z" />
<glyph unicode="&#x2db;" horiz-adv-x="532" d="M-43 -297q6 43 31.5 88t61.5 85t76 76t77 60h125q-27 -20 -61 -51t-64.5 -66.5t-53 -73.5t-28.5 -71q-4 -39 19.5 -66.5t62.5 -27.5q29 0 60.5 12.5t55.5 30.5l37 -100q-47 -35 -102 -56.5t-113 -21.5q-41 0 -76.5 11t-62.5 34.5t-39 57.5t-6 79z" />
<glyph unicode="&#x2dc;" horiz-adv-x="532" d="M51 1163q14 49 37 96.5t54.5 83t74.5 58t100 22.5q41 0 82 -12t78 -25.5t69 -25.5t56 -12q41 0 65.5 25.5t41.5 60.5h135q-16 -49 -38 -96.5t-53.5 -83t-74.5 -58t-100 -22.5q-41 0 -82 12t-78 26.5t-69 26.5t-56 12q-41 0 -65.5 -26.5t-41.5 -61.5h-135z" />
<glyph unicode="&#x2dd;" horiz-adv-x="532" d="M121 1155l244 295h278l-330 -295h-192zM541 1155l243 295h279l-330 -295h-192z" />
<glyph unicode="&#x3a9;" horiz-adv-x="1554" d="M94 0l29 217h352l10 66q-88 29 -147 82t-92 124.5t-41 157.5t4 180q20 141 90 261t172 206t231 134.5t269 48.5q139 0 254.5 -47.5t195.5 -131.5t116 -202.5t15 -261.5q-14 -96 -45.5 -183.5t-85 -159t-128 -126t-173.5 -82.5l-10 -66h354l-28 -217h-566l54 387 q80 14 145.5 54t114.5 97.5t79.5 128t41.5 146.5q12 92 -6.5 173t-66.5 142.5t-121 97.5t-167 36q-96 0 -180 -36t-148.5 -97.5t-107.5 -143.5t-55 -174q-23 -160 39.5 -271.5t216.5 -152.5l-54 -387h-561z" />
<glyph unicode="&#x3c0;" horiz-adv-x="1214" d="M131 774l29 209h1159l-29 -209h-162l-69 -485q-4 -23 -5 -43.5t4 -38t19.5 -27.5t42.5 -10q47 0 94 20l-24 -163q-45 -20 -98.5 -30.5t-100.5 -10.5q-68 0 -107.5 20.5t-57 56t-18.5 85t7 106.5l74 520h-375l-108 -774h-240l108 774h-143z" />
<glyph unicode="&#x2000;" horiz-adv-x="962" />
<glyph unicode="&#x2001;" horiz-adv-x="1925" />
<glyph unicode="&#x2002;" horiz-adv-x="962" />
<glyph unicode="&#x2003;" horiz-adv-x="1925" />
<glyph unicode="&#x2004;" horiz-adv-x="641" />
<glyph unicode="&#x2005;" horiz-adv-x="481" />
<glyph unicode="&#x2006;" horiz-adv-x="320" />
<glyph unicode="&#x2007;" horiz-adv-x="320" />
<glyph unicode="&#x2008;" horiz-adv-x="240" />
<glyph unicode="&#x2009;" horiz-adv-x="385" />
<glyph unicode="&#x200a;" horiz-adv-x="106" />
<glyph unicode="&#x2010;" horiz-adv-x="645" d="M125 399l29 209h505l-28 -209h-506z" />
<glyph unicode="&#x2011;" horiz-adv-x="645" d="M125 399l29 209h505l-28 -209h-506z" />
<glyph unicode="&#x2012;" horiz-adv-x="645" d="M125 399l29 209h505l-28 -209h-506z" />
<glyph unicode="&#x2013;" horiz-adv-x="1024" d="M55 406l29 196h1024l-29 -196h-1024z" />
<glyph unicode="&#x2014;" horiz-adv-x="2048" d="M55 406l29 196h2048l-29 -196h-2048z" />
<glyph unicode="&#x2018;" horiz-adv-x="606" d="M233 909l250 541h219l-219 -541h-250z" />
<glyph unicode="&#x2019;" horiz-adv-x="606" d="M233 909l220 541h249l-249 -541h-220z" />
<glyph unicode="&#x201a;" horiz-adv-x="606" d="M70 -258l219 541h250l-250 -541h-219z" />
<glyph unicode="&#x201c;" horiz-adv-x="1062" d="M246 909l250 541h219l-219 -541h-250zM678 909l250 541h219l-219 -541h-250z" />
<glyph unicode="&#x201d;" horiz-adv-x="1062" d="M246 909l219 541h250l-250 -541h-219zM678 909l219 541h250l-250 -541h-219z" />
<glyph unicode="&#x201e;" horiz-adv-x="1062" d="M84 -258l219 541h250l-250 -541h-219zM512 -258l219 541h250l-250 -541h-219z" />
<glyph unicode="&#x2020;" horiz-adv-x="1214" d="M201 838l26 196h406l59 416h234l-60 -416h408l-27 -196h-407l-154 -1096h-233l153 1096h-405z" />
<glyph unicode="&#x2021;" horiz-adv-x="1214" d="M113 123l26 196h393l80 555h-393l27 197h393l53 379h234l-54 -379h396l-27 -197h-395l-80 -555h395l-26 -196h-396l-53 -381h-233l53 381h-393z" />
<glyph unicode="&#x2022;" horiz-adv-x="1024" d="M250 725q10 76 48 141.5t94.5 114.5t126 77.5t145.5 28.5t137 -28.5t104 -77.5t61.5 -114.5t8.5 -141.5t-48 -141.5t-94.5 -114.5t-126 -78t-145.5 -29t-137.5 29t-104.5 78t-61 114.5t-8 141.5z" />
<glyph unicode="&#x2026;" horiz-adv-x="2048" d="M197 143q10 66 64 113t122 47q66 0 109 -45t34 -111q-10 -66 -64 -112.5t-122 -46.5q-33 0 -60.5 12t-48 32.5t-29.5 49t-5 61.5zM879 143q10 66 64 113t122 47q66 0 109 -45t34 -111q-10 -66 -64 -112.5t-122 -46.5q-33 0 -60.5 12t-48 32.5t-29.5 49t-5 61.5zM1561 143 q10 66 64 113t122 47q66 0 108.5 -45t34.5 -111q-10 -66 -64 -112.5t-122 -46.5q-33 0 -60.5 12t-48 32.5t-29.5 49t-5 61.5z" />
<glyph unicode="&#x202f;" horiz-adv-x="385" />
<glyph unicode="&#x2030;" horiz-adv-x="2390" d="M170 1114q10 74 48 139.5t94.5 114.5t126 78t143.5 29t136 -29t104 -78t61.5 -114.5t9.5 -139.5t-48 -140.5t-94.5 -115.5t-127 -77.5t-144.5 -28.5t-136 28.5t-104 77.5t-60.5 115.5t-8.5 140.5zM274 12l1065 1504l158 -78l-1063 -1504zM354 1114q-10 -78 32 -128 t120 -50t135 50t68 128q10 78 -33 127t-121 49t-134.5 -49t-66.5 -127zM889 338q10 74 47 139.5t93 114.5t126 77.5t143 28.5q74 0 136.5 -28.5t105.5 -77.5t62.5 -114.5t9.5 -139.5t-48 -140.5t-94.5 -115.5t-127 -78t-144.5 -29t-136.5 29t-104.5 78t-60 115.5t-8 140.5z M1073 338q-10 -78 31 -128t119 -50t136 50t68 128t-32.5 127t-120.5 49t-134.5 -49t-66.5 -127zM1700 338q10 74 47 139.5t93 114.5t126 77.5t143 28.5q74 0 136.5 -28.5t105.5 -77.5t62.5 -114.5t9.5 -139.5t-48 -140.5t-94.5 -115.5t-127 -78t-144.5 -29t-136.5 29 t-104.5 78t-60 115.5t-8 140.5zM1884 338q-10 -78 31 -128t119 -50t136 50t68 128t-32.5 127t-120.5 49t-134.5 -49t-66.5 -127z" />
<glyph unicode="&#x2039;" horiz-adv-x="606" d="M131 508l377 459l139 -105l-287 -354l189 -358l-170 -105z" />
<glyph unicode="&#x203a;" horiz-adv-x="606" d="M100 150l285 354l-186 358l170 105l245 -463l-374 -459z" />
<glyph unicode="&#x2044;" horiz-adv-x="342" d="M-338 12l1063 1504l158 -78l-1061 -1504z" />
<glyph unicode="&#x205f;" horiz-adv-x="481" />
<glyph unicode="&#x20ac;" horiz-adv-x="1249" d="M94 455l82 176h92q0 10 1 22.5t3 22.5l7 45q4 25 8 50.5t12 47.5h-147l86 176h112q45 113 118 203t165 154.5t202.5 99.5t233.5 35q98 0 182 -19.5t135 -48.5l-106 -205q-43 29 -110.5 43.5t-143.5 14.5q-61 0 -125.5 -18.5t-122 -53.5t-104.5 -86t-76 -119h590l-82 -176 h-571q-6 -23 -11.5 -47t-9.5 -53l-6 -43q-2 -12 -2 -23.5v-21.5h524l-80 -176h-438q6 -57 33.5 -107.5t74 -87.5t109 -58.5t139.5 -21.5q152 0 279 68l55 -197q-66 -39 -164 -63.5t-209 -24.5q-139 0 -241.5 39t-170 106.5t-104.5 156.5t-47 190h-172z" />
<glyph unicode="&#x2122;" horiz-adv-x="2048" d="M258 1266l27 184h708l-26 -184h-250l-92 -660h-209l92 660h-250zM1067 606l119 844h291l122 -549l279 549h291l-119 -844h-209l78 549h-4l-285 -549h-143l-129 549h-4l-78 -549h-209z" />
<glyph unicode="&#x2202;" horiz-adv-x="1138" d="M143 440q14 98 57.5 181.5t110 143.5t153.5 94t185 34q86 0 151.5 -29.5t125.5 -83.5l8 58q12 74 9 154.5t-28.5 148t-80 112.5t-144.5 45q-72 0 -137.5 -27.5t-126.5 -72.5l-100 143q94 66 180 101t196 35q160 0 257.5 -65.5t146.5 -172t58 -239t-9 -267.5 q-18 -131 -58 -266t-113 -244.5t-184.5 -179.5t-273.5 -70q-102 0 -180 36t-128 98.5t-69.5 147.5t-5.5 185zM363 321.5q6 -51.5 28.5 -90t63.5 -62.5t102 -24q72 0 130 39t101 97.5t70 128t33 131.5l4 51q-45 59 -99.5 95t-140.5 36q-63 0 -113 -24.5t-87 -64.5 t-59.5 -94.5t-30.5 -111.5q-8 -55 -2 -106.5z" />
<glyph unicode="&#x2206;" horiz-adv-x="1402" d="M16 0l758 1458h236l376 -1458h-1370zM358 213h734l-242 977z" />
<glyph unicode="&#x220f;" horiz-adv-x="1517" d="M127 -438v2048h1264v-2048h-234v1837h-797v-1837h-233z" />
<glyph unicode="&#x2211;" horiz-adv-x="1327" d="M51 -256l621 854l-594 829v183h1173v-211h-864l563 -799l-600 -827h928v-211h-1227v182z" />
<glyph unicode="&#x221a;" horiz-adv-x="1099" d="M-25 344l304 139l264 -559l344 1686h237l-432 -2048h-217l-311 649l-105 -51z" />
<glyph unicode="&#x221e;" horiz-adv-x="1669" d="M92 537q0 76 23.5 143.5t67.5 116.5t107.5 77.5t143.5 28.5q68 0 124 -20.5t104.5 -54t90.5 -77.5t83 -92q39 47 80.5 91.5t90 79t104.5 55t122 20.5q80 0 143.5 -28.5t108.5 -77.5t68.5 -116.5t23.5 -143.5q0 -78 -23.5 -145.5t-68.5 -119t-108.5 -80t-145.5 -28.5 q-63 0 -118.5 19.5t-103.5 51t-91.5 72.5t-81.5 86q-43 -45 -85 -86t-88.5 -72.5t-100.5 -50t-120 -18.5q-80 0 -145.5 28.5t-110.5 78t-69.5 117t-24.5 145.5zM276 532q0 -76 44.5 -121.5t119.5 -45.5q39 0 78 15t75 38.5t67.5 53t56.5 58.5q-25 27 -57.5 57.5t-69.5 57.5 t-77 44.5t-79 17.5q-72 0 -115 -52.5t-43 -122.5zM952 530q27 -31 57.5 -60.5t66.5 -53t76 -39t83 -15.5q76 0 117 49t41 121q0 74 -43 125.5t-121 51.5q-41 0 -79 -17.5t-74 -44t-67.5 -58.5t-56.5 -59z" />
<glyph unicode="&#x222b;" horiz-adv-x="1251" d="M186 -285q0 47 31 78t78 31q49 0 70.5 -23.5t33 -51.5t19.5 -51.5t28 -23.5q16 0 23.5 11.5t10.5 27t2 30.5t-1 26q0 53 -4 104t-4 104v1037q0 57 -1 123.5t3 133t19.5 128t48 108.5t88 75t139.5 28q35 0 75 -9.5t73.5 -28t55 -48t21.5 -72.5q0 -47 -29.5 -76.5 t-76.5 -29.5q-49 0 -70.5 23.5t-33 51t-20.5 51t-32 23.5t-28 -18.5t-5 -34.5q0 -63 4.5 -125t4.5 -125v-1206q0 -78 -10.5 -154t-41 -136.5t-89 -98t-154.5 -37.5q-37 0 -77 8t-74 26.5t-55.5 48t-21.5 72.5z" />
<glyph unicode="&#x2248;" horiz-adv-x="1363" d="M150 147q14 63 42.5 127t71.5 114t101.5 81t132.5 31q63 0 127.5 -21.5t129 -46t128 -46t125.5 -21.5q57 0 92 40.5t53 92.5h145q-16 -68 -44.5 -131.5t-71.5 -112.5t-102.5 -79t-135.5 -30q-61 0 -131 22.5t-137.5 48.5t-128 48.5t-103.5 22.5q-57 0 -95 -45t-54 -95 h-145zM213 571q14 63 43 127t72 114t101 82t132 32q63 0 128 -21.5t129.5 -46t128 -46t124.5 -21.5q57 0 92 40.5t54 92.5h145q-16 -68 -44 -131.5t-72 -112.5t-103.5 -79t-134.5 -30q-61 0 -131 22.5t-138.5 48.5t-129 48.5t-101.5 22.5q-57 0 -95 -46t-55 -96h-145z" />
<glyph unicode="&#x2260;" horiz-adv-x="1363" d="M209 332l31 209h370l101 159h-449l29 209h553l188 293l172 -90l-133 -203h256l-29 -209h-360l-100 -159h438l-31 -209h-540l-193 -295l-168 92l131 203h-266z" />
<glyph unicode="&#x2264;" horiz-adv-x="1363" d="M162 8l31 219h1036l-31 -219h-1036zM252 643l31 221l1087 363l-33 -232l-770 -241l703 -230l-31 -229z" />
<glyph unicode="&#x2265;" horiz-adv-x="1363" d="M162 8l31 219h1036l-31 -219h-1036zM203 295l30 229l768 230l-700 241l33 232l985 -363l-31 -221z" />
<glyph unicode="&#x25ca;" horiz-adv-x="1214" d="M141 729l363 801h205l364 -801l-364 -801h-205zM365 729l241 -586l244 586l-244 584z" />
<glyph unicode="&#x25fc;" horiz-adv-x="983" d="M0 0v983h983v-983h-983z" />
<glyph unicode="&#xf8ff;" horiz-adv-x="1048" d="M0 0v1470h1049v-1470h-1049zM102 102h844v1264h-844v-1264zM254 967q14 147 90 213.5t186 66.5q111 0 182.5 -72.5t71.5 -195.5q0 -66 -25.5 -120t-103.5 -126q-76 -68 -88 -106q-12 -41 -12 -148h-94l-4 35q0 115 26 166q14 27 37 56.5t58 64.5q66 61 84 97t18 73 q0 74 -46 124t-110 50q-63 0 -109 -45t-59 -150zM455 240v137h114v-137h-114z" />
<glyph unicode="&#xfb01;" horiz-adv-x="1214" d="M133 774l29 209h203l20 139q14 102 40 185.5t74 142.5t123.5 91t190.5 32q84 0 154 -14l-45 -209q-25 6 -49.5 10t-51.5 4q-51 0 -85 -16.5t-54 -44t-30.5 -64.5t-16.5 -78l-25 -178h228l-29 -209h-227l-109 -774h-246l109 774h-203zM860 0l137 983h246l-137 -983h-246z M1012 1317q8 59 58 103t118 44t108.5 -42t30.5 -105t-61.5 -105.5t-118.5 -42.5q-68 0 -105.5 44.5t-29.5 103.5z" />
<glyph unicode="&#xfb02;" horiz-adv-x="1214" d="M133 774l29 209h203l20 139q14 102 40 185.5t74 142.5t123.5 91t190.5 32q84 0 154 -14l-45 -209q-25 6 -49.5 10t-51.5 4q-51 0 -85 -16.5t-54 -44t-30.5 -64.5t-16.5 -78l-25 -178h228l-29 -209h-227l-109 -774h-246l109 774h-203zM860 0l217 1548h246l-217 -1548h-246 z" />
</font>
</defs>
</svg>
