<?xml version="1.0" standalone="no"?>
<!DOCTYPE svg PUBLIC "-//W3C//DTD SVG 1.1//EN" "http://www.w3.org/Graphics/SVG/1.1/DTD/svg11.dtd" >
<svg xmlns="http://www.w3.org/2000/svg">
<metadata></metadata>
<defs>
<font id="dhheavy" horiz-adv-x="1175" >
<font-face units-per-em="2048" ascent="1638" descent="-410" />
<missing-glyph horiz-adv-x="606" />
<glyph horiz-adv-x="0" />
<glyph unicode="&#xd;" horiz-adv-x="0" />
<glyph unicode=" "  horiz-adv-x="606" />
<glyph unicode="&#x09;" horiz-adv-x="606" />
<glyph unicode="&#xa0;" horiz-adv-x="606" />
<glyph unicode="!" horiz-adv-x="606" d="M139 143q0 66 48.5 113t115.5 47q66 0 115 -45t49 -111t-48 -112.5t-116 -46.5q-33 0 -62.5 12t-52 32.5t-36 49t-13.5 61.5zM180 455v995h246v-995h-246z" />
<glyph unicode="&#x22;" horiz-adv-x="1062" d="M246 909v541h209v-541h-209zM608 909v541h209v-541h-209z" />
<glyph unicode="#" horiz-adv-x="1212" d="M96 428v172h207l37 250h-184v172h206l62 428h180l-61 -428h211l61 428h178l-61 -428h184v-172h-209l-35 -250h185v-172h-205l-64 -428h-178l62 428h-213l-62 -428h-178l62 428h-185zM483 600h211l35 250h-211z" />
<glyph unicode="$" horiz-adv-x="1212" d="M63 158l187 190q49 -70 127 -106.5t164 -44.5v432l-11 2q-86 25 -163.5 54.5t-138 77.5t-95.5 116.5t-35 171.5q0 92 37 165.5t98.5 128t141.5 87t166 41.5v137h110v-135h19q104 0 213.5 -36t187.5 -106l-170 -190q-47 51 -112.5 80.5t-137.5 29.5v-409l8 -2 q86 -23 169 -51.5t147.5 -74.5t104.5 -116t40 -174q0 -102 -36.5 -181t-100 -135.5t-148.5 -89t-184 -43.5v-147h-110v145q-135 -2 -259 41t-219 142zM356 1063q0 -47 15.5 -76t40 -49t58.5 -33.5t71 -30.5v375q-72 -12 -128.5 -60t-56.5 -126zM651 197q43 8 81 25.5 t66.5 43t46 61t17.5 81.5q0 45 -19.5 75.5t-50 51t-67.5 35t-74 26.5v-399z" />
<glyph unicode="%" horiz-adv-x="1857" d="M61 1094q0 80 30 148.5t82 120.5t120.5 82t148.5 30t148.5 -30t121 -82t82 -120.5t29.5 -148.5t-29.5 -148.5t-82 -121t-121 -82t-148.5 -29.5t-148.5 29.5t-120.5 82t-82 121t-30 148.5zM258 1094q0 -78 53.5 -131.5t130.5 -53.5q78 0 131.5 53.5t53.5 131.5t-53.5 131 t-131.5 53t-131 -53.5t-53 -130.5zM420 12l852 1504l170 -78l-852 -1504zM1034 356q0 80 30 148.5t82 121t120.5 82t148.5 29.5t148.5 -29.5t121 -82t82 -121t29.5 -148.5t-29.5 -148.5t-82 -120.5t-121 -82t-148.5 -30t-148.5 30t-120.5 82t-82 120.5t-30 148.5zM1231 356 q0 -78 53 -131t131 -53t131 53t53 131t-53 131.5t-131 53.5t-131 -53.5t-53 -131.5z" />
<glyph unicode="&#x26;" horiz-adv-x="1517" d="M98 389q0 74 24.5 136.5t66.5 114.5t99.5 92t123.5 65q-35 39 -65 75.5t-52.5 75.5t-35.5 84t-13 98q0 88 33.5 156t91 112t133.5 66.5t158 22.5t155.5 -20.5t130 -62.5t90 -107.5t33.5 -153.5q0 -68 -24.5 -124t-65.5 -102.5t-93 -84t-106 -64.5l234 -252l162 246h288 l-290 -420l313 -342h-318l-153 166q-88 -104 -188.5 -153.5t-239.5 -49.5q-96 0 -185.5 27.5t-157 82t-108.5 133.5t-41 183zM369 403q0 -47 18.5 -88t50 -69.5t72.5 -45t88 -16.5q84 0 147.5 45t118.5 99l-297 323q-37 -23 -71.5 -46t-63.5 -52t-46 -65.5t-17 -84.5z M492 1120q0 -29 12 -56.5t32.5 -55t44 -52t48.5 -47.5q31 16 65.5 38t64 49.5t48 60.5t18.5 73q0 59 -46.5 97.5t-112.5 38.5q-72 0 -123 -40t-51 -106z" />
<glyph unicode="'" horiz-adv-x="606" d="M199 909v541h209v-541h-209z" />
<glyph unicode="(" horiz-adv-x="606" d="M98 590q0 250 79 482.5t220 426.5l174 -106l-2 -9q-123 -172 -192.5 -377.5t-69.5 -416.5q0 -213 69.5 -419t192.5 -378l-172 -112q-141 195 -220 426t-79 483z" />
<glyph unicode=")" horiz-adv-x="606" d="M35 -213l2 8q123 172 192.5 378t69.5 417q0 213 -69.5 417.5t-192.5 376.5l172 115q141 -195 220 -426t79 -483q0 -250 -79 -482.5t-220 -426.5z" />
<glyph unicode="*" horiz-adv-x="948" d="M57 1092l54 163l278 -96v291h172v-291l277 90l53 -164l-279 -90l176 -239l-141 -103l-176 242l-172 -236l-137 105l176 231z" />
<glyph unicode="+" horiz-adv-x="1363" d="M127 516v209h451v451h208v-451h451v-209h-451v-450h-208v450h-451z" />
<glyph unicode="," horiz-adv-x="606" d="M78 -258l143 541h250l-174 -541h-219z" />
<glyph unicode="-" horiz-adv-x="645" d="M70 399v209h505v-209h-505z" />
<glyph unicode="." horiz-adv-x="606" d="M139 143q0 66 48.5 113t115.5 47q66 0 115 -45t49 -111t-48 -112.5t-116 -46.5q-33 0 -62.5 12t-52 32.5t-36 49t-13.5 61.5z" />
<glyph unicode="/" horiz-adv-x="796" d="M-18 -37l639 1589l170 -65l-639 -1585z" />
<glyph unicode="0" horiz-adv-x="1212" d="M82 725q0 172 27.5 294t72.5 205t101.5 133t115 75.5t112.5 34t95 8.5t95.5 -8.5t112.5 -34t114.5 -75.5t101.5 -133t72.5 -205t27.5 -294t-27.5 -294t-72.5 -205t-101.5 -133t-114.5 -75.5t-112.5 -34t-95.5 -8.5t-95 8.5t-112.5 34t-115 75.5t-101.5 133t-72.5 205 t-27.5 294zM328 725q0 -68 9 -157t37.5 -169t84 -135t147.5 -55t147.5 55t84 135t38 169t9.5 157t-9.5 157t-38 168.5t-84 135t-147.5 55.5t-147.5 -55.5t-84 -135t-37.5 -168.5t-9 -157z" />
<glyph unicode="1" horiz-adv-x="1212" d="M133 1085l438 365h224v-1450h-246v1167l-273 -252z" />
<glyph unicode="2" horiz-adv-x="1212" d="M121 0v260l563 545q25 25 51.5 52.5t48 58t36 64.5t14.5 71q0 45 -17.5 79.5t-46.5 59t-66.5 38t-80.5 13.5q-92 0 -151.5 -53t-72.5 -144l-258 21q8 100 48 177t103.5 128t147.5 78t183 27q98 0 183 -26t148.5 -76t100.5 -128t37 -182q0 -137 -62.5 -236.5 t-161.5 -189.5l-448 -416h672v-221h-971z" />
<glyph unicode="3" horiz-adv-x="1212" d="M94 315l262 70q23 -90 80.5 -139t155.5 -49q49 0 93 16t78 46t53.5 72t19.5 93q0 70 -30 114t-76 67.5t-103.5 31.5t-112.5 8h-59v221h63q53 0 103.5 6.5t90.5 27t64.5 59t24.5 104.5q0 84 -57.5 137t-149.5 53q-74 0 -132.5 -42t-84.5 -117l-260 69q25 80 69.5 139.5 t106 97.5t135.5 56.5t154 18.5q94 0 178 -25t147.5 -73t101.5 -120.5t38 -169.5q0 -117 -66 -208t-182 -119v-4q139 -20 210.5 -118.5t71.5 -234.5q0 -104 -40 -184t-107.5 -134t-156.5 -82t-185 -28q-90 0 -170 19.5t-144.5 60.5t-111.5 105.5t-72 154.5z" />
<glyph unicode="4" horiz-adv-x="1212" d="M70 295v244l583 911h279v-934h211v-221h-211v-295h-246v295h-616zM319 516h367v586h-4z" />
<glyph unicode="5" horiz-adv-x="1212" d="M90 307l258 70q25 -78 84.5 -123t153.5 -45q55 0 101 18.5t80 52t52.5 78.5t18.5 99q0 76 -28 129t-75 87t-108.5 49t-128.5 15q-80 0 -159 -18.5t-144 -50.5l14 782h825v-221h-583l-7 -289q29 10 73 14t83 4q106 0 195.5 -33.5t153 -97t99 -151.5t35.5 -199 q0 -117 -39.5 -210t-110.5 -157.5t-167 -99.5t-207 -35q-174 0 -296 82t-173 250z" />
<glyph unicode="6" horiz-adv-x="1212" d="M90 469q0 115 38 208t97 189l371 584h299l-348 -537l4 -4q23 12 60.5 18.5t74.5 6.5q96 0 176 -37t138.5 -100.5t90 -147.5t31.5 -178q0 -113 -39 -205t-107.5 -156.5t-163.5 -99.5t-206 -35q-115 0 -209 34t-162.5 97.5t-106.5 155.5t-38 207zM348 473q0 -55 20.5 -103 t56.5 -84t84 -56.5t103 -20.5t103.5 20.5t84.5 56.5t56.5 84t20.5 103t-20.5 103.5t-56.5 84t-84 56t-104 20.5q-55 0 -103 -20.5t-84 -56t-56.5 -84t-20.5 -103.5z" />
<glyph unicode="7" horiz-adv-x="1212" d="M86 1217v233h985v-225l-579 -1225h-289l592 1217h-709z" />
<glyph unicode="8" horiz-adv-x="1212" d="M117 412q0 68 21.5 127t58 105t85 78t99.5 42v4q-111 33 -165 121t-54 205q0 92 34.5 162.5t95 118.5t141.5 74t173 26t173 -26t141.5 -74t95.5 -118.5t35 -162.5q0 -117 -54.5 -205t-165.5 -121v-4q51 -10 99.5 -42t85.5 -78t58.5 -105.5t21.5 -126.5q0 -109 -39 -190 t-104.5 -136t-155.5 -83t-191 -28q-102 0 -191 28t-154.5 83t-104.5 136t-39 190zM362 442q0 -104 69 -168.5t175 -64.5t175 64.5t69 168.5q0 49 -19.5 91t-52.5 73t-78 47.5t-94 16.5t-94 -16.5t-78 -47.5t-52.5 -72.5t-19.5 -91.5zM408 1069q0 -86 53 -144.5t145 -58.5 q41 0 77 15.5t63.5 43t43 64.5t15.5 80q0 82 -56.5 139.5t-142.5 57.5q-94 0 -146 -57.5t-52 -139.5z" />
<glyph unicode="9" horiz-adv-x="1212" d="M90 979q0 113 39 205t107.5 156.5t164 99.5t205.5 35q113 0 208 -34t164 -97.5t106.5 -155.5t37.5 -207t-37.5 -208t-97.5 -189l-371 -584h-299l349 537l-4 4q-23 -12 -61 -18.5t-75 -6.5q-96 0 -176 37t-138 100.5t-90 147.5t-32 178zM336 977q0 -55 20.5 -103.5 t56.5 -84t84 -56t103 -20.5t103.5 20.5t84 56t56 84t20.5 103.5t-20.5 103t-56 84t-84 56.5t-103.5 20.5t-103 -20.5t-84 -56.5t-56.5 -84t-20.5 -103z" />
<glyph unicode=":" horiz-adv-x="606" d="M139 143q0 66 48.5 113t115.5 47q66 0 115 -45t49 -111t-48 -112.5t-116 -46.5q-33 0 -62.5 12t-52 32.5t-36 49t-13.5 61.5zM139 838q0 66 48.5 112.5t115.5 46.5q66 0 115 -45t49 -110q0 -66 -48 -113t-116 -47q-33 0 -62.5 12.5t-52 33t-36 49t-13.5 61.5z" />
<glyph unicode=";" horiz-adv-x="606" d="M78 -258l143 541h250l-174 -541h-219zM139 838q0 66 48.5 112.5t115.5 46.5q66 0 115 -45t49 -110q0 -66 -48 -113t-116 -47q-33 0 -62.5 12.5t-52 33t-36 49t-13.5 61.5z" />
<glyph unicode="&#x3c;" horiz-adv-x="1363" d="M164 547v147l1036 461v-225l-692 -309l692 -310v-225z" />
<glyph unicode="=" horiz-adv-x="1363" d="M127 332v209h1110v-209h-1110zM127 700v209h1110v-209h-1110z" />
<glyph unicode="&#x3e;" horiz-adv-x="1363" d="M164 86v225l692 310l-692 309v225l1036 -461v-147z" />
<glyph unicode="?" horiz-adv-x="1062" d="M98 1073q12 98 51 175t101.5 130.5t144.5 81t180 27.5q92 0 171 -26.5t137.5 -77t91.5 -125t33 -171.5q0 -68 -18.5 -118.5t-49.5 -94t-71 -82t-85 -81.5q-29 -27 -49 -47.5t-33.5 -42t-19.5 -49t-6 -66.5v-78h-246v113q0 45 5 76.5t18.5 57t35 49.5t52.5 56l157 160 q51 51 52 133q0 80 -52.5 130t-132.5 50q-86 0 -141 -58t-64 -142zM389 143q0 66 48 113t116 47q66 0 115 -45t49 -111t-48 -112.5t-116 -46.5q-33 0 -62.5 12t-52 32.5t-36 49t-13.5 61.5z" />
<glyph unicode="@" horiz-adv-x="1638" d="M66 723q0 164 61 303t167.5 241.5t249 161t304.5 58.5q135 0 265 -44t232.5 -130t165 -212t62.5 -288q0 -109 -25.5 -188.5t-65.5 -135t-90.5 -90t-100.5 -53t-96 -26t-77 -7.5q-86 0 -123 35t-39 76h-4q-41 -41 -102.5 -76t-159.5 -35q-66 0 -120 26t-93 71t-60.5 108.5 t-21.5 138.5q0 90 29 173t81 147.5t128 102.5t172 38q82 0 136 -26.5t85 -90.5h4l17 93h192l-76 -404q-6 -29 -12 -57.5t-6 -59.5q0 -37 11 -56t44 -19t64.5 17t56.5 55t40 95.5t15 137.5q0 123 -40 216t-110.5 156.5t-169 95.5t-214.5 32q-127 0 -231.5 -43t-179.5 -121 t-116 -184.5t-41 -231.5q0 -135 45.5 -241.5t126 -180.5t191.5 -114t240 -40q117 0 214 33t173 92h225q-111 -152 -275.5 -230.5t-353.5 -78.5q-164 0 -308 56.5t-253 156.5t-171 240.5t-62 306.5zM604 686q0 -16 3 -48t18.5 -62.5t50.5 -54t98 -23.5q57 0 96 22.5t61.5 58 t32 79.5t9.5 87q0 82 -37 135.5t-115 53.5q-51 0 -92 -19.5t-68.5 -53.5t-42 -79t-14.5 -96z" />
<glyph unicode="A" horiz-adv-x="1478" d="M0 0l631 1450h223l625 -1450h-295l-135 332h-629l-131 -332h-289zM508 553h450l-223 590z" />
<glyph unicode="B" horiz-adv-x="1327" d="M162 0v1450h565q82 0 162 -19.5t142.5 -63.5t101 -113.5t38.5 -168.5q0 -123 -69.5 -202.5t-181.5 -114.5v-4q68 -8 126 -38t99 -76t64.5 -106.5t23.5 -129.5q0 -119 -47 -198t-124 -127t-176.5 -68.5t-201.5 -20.5h-522zM420 221h237q49 0 105.5 6t103.5 29t78 64.5 t31 113.5q0 115 -75 160t-232 45h-248v-418zM420 860h235q129 0 193.5 50.5t64.5 131.5q0 94 -66.5 140.5t-213.5 46.5h-213v-369z" />
<glyph unicode="C" horiz-adv-x="1402" d="M84 719q0 174 57.5 316.5t158.5 242.5t241.5 154.5t308.5 54.5q147 0 273 -52.5t235 -177.5l-201 -147q-80 86 -154.5 114.5t-150.5 28.5q-113 0 -204 -39.5t-156.5 -110.5t-101.5 -165t-36 -203q0 -117 36 -215t101.5 -169.5t156.5 -112.5t204 -41q88 0 171 42t155 134 l213 -152q-98 -135 -239.5 -196.5t-301.5 -61.5q-168 0 -308.5 54.5t-241.5 153.5t-158.5 238.5t-57.5 309.5z" />
<glyph unicode="D" horiz-adv-x="1554" d="M162 0v1450h571q143 0 276.5 -44t236 -134t163.5 -226.5t61 -320.5q0 -186 -70.5 -322.5t-182 -225.5t-247.5 -133t-268 -44h-540zM420 233h192q121 0 228.5 28t187.5 86.5t126 151.5t46 226q0 131 -41 225t-113.5 152.5t-172 86.5t-218.5 28h-235v-984z" />
<glyph unicode="E" horiz-adv-x="1251" d="M162 0v1450h960v-233h-702v-357h665v-233h-665v-394h739v-233h-997z" />
<glyph unicode="F" d="M162 0v1450h936v-233h-678v-381h639v-234h-639v-602h-258z" />
<glyph unicode="G" horiz-adv-x="1593" d="M84 719q0 174 57.5 316.5t158.5 242.5t241.5 154.5t308.5 54.5q166 0 311.5 -40t259.5 -142l-190 -193q-70 68 -169 104.5t-210 36.5q-113 0 -204 -39.5t-156.5 -110.5t-101.5 -165t-36 -203q0 -117 36 -215t101.5 -169.5t156.5 -112.5t204 -41q98 0 185 18t155 57v342 h-297v234h555v-742q-268 -143 -600 -143q-168 0 -308.5 54.5t-241.5 153.5t-158.5 238.5t-57.5 309.5z" />
<glyph unicode="H" horiz-adv-x="1517" d="M162 0v1450h258v-578h678v578h258v-1450h-258v639h-678v-639h-258z" />
<glyph unicode="I" horiz-adv-x="569" d="M156 0v1450h258v-1450h-258z" />
<glyph unicode="J" horiz-adv-x="1024" d="M10 297l242 57q12 -72 58 -114.5t114 -42.5q111 0 150.5 74.5t39.5 205.5v973h258v-1049q0 -86 -27.5 -165.5t-81.5 -140t-136 -96.5t-191 -36q-172 0 -281.5 80t-144.5 254z" />
<glyph unicode="K" horiz-adv-x="1402" d="M162 0v1450h258v-614h12l600 614h348l-678 -670l723 -780h-362l-629 713h-14v-713h-258z" />
<glyph unicode="L" horiz-adv-x="1062" d="M162 0v1450h258v-1217h616v-233h-874z" />
<glyph unicode="M" horiz-adv-x="1896" d="M168 0v1450h393l387 -1016l391 1016h390v-1450h-246v1204h-4l-441 -1204h-180l-440 1204h-4v-1204h-246z" />
<glyph unicode="N" horiz-adv-x="1630" d="M162 0v1450h342l702 -1077h4v1077h258v-1450h-327l-717 1112h-4v-1112h-258z" />
<glyph unicode="O" horiz-adv-x="1705" d="M84 719q0 174 57.5 316.5t158.5 242.5t241.5 154.5t308.5 54.5h12q164 -1 300 -51q142 -52 243.5 -152t159 -241.5t57.5 -315.5q0 -170 -57.5 -309t-159.5 -239.5t-243.5 -157t-311.5 -58.5q-168 0 -308.5 54.5t-241.5 153.5t-158.5 238.5t-57.5 309.5zM354 735 q0 -117 36 -215t101.5 -169.5t156.5 -112.5t204 -41t205 41t157.5 112.5t101.5 169.5t36 215q0 109 -36 203t-101.5 165t-157.5 110.5t-205 39.5t-204 -39.5t-156.5 -110.5t-101.5 -165t-36 -203z" />
<glyph unicode="P" horiz-adv-x="1251" d="M162 0v1450h487q104 0 201.5 -20.5t171.5 -68.5t118 -129t44 -202q0 -137 -47 -221t-127 -130t-185.5 -62.5t-220.5 -16.5h-184v-600h-258zM420 821h155q55 0 115 4t110 24.5t81.5 61.5t31.5 115q0 68 -28.5 108t-73.5 61.5t-100.5 27.5t-106.5 6h-184v-408z" />
<glyph unicode="Q" horiz-adv-x="1744" d="M84 756q0 160 60.5 294t165 231t242.5 151.5t294 54.5t294 -54.5t242.5 -151.5t165 -231.5t60.5 -293.5q0 -115 -28 -202t-73 -153.5t-99 -111.5t-105 -76v-4h415v-209h-844q-170 0 -314 52t-249.5 149.5t-166 238t-60.5 316.5zM354 750q0 -111 37 -206t102.5 -164 t154.5 -108t196 -39q106 0 197.5 39t157 108t102 164t36.5 206q0 109 -36.5 200.5t-102 159.5t-156.5 105.5t-202 37.5q-104 0 -193.5 -37.5t-154 -105.5t-101.5 -160t-37 -200z" />
<glyph unicode="R" horiz-adv-x="1290" d="M162 0v1450h504q104 0 201.5 -19.5t173 -66.5t120.5 -127t45 -203q0 -158 -87 -264t-249 -129l385 -641h-311l-336 614h-188v-614h-258zM420 836h201q55 0 110 5t101.5 24.5t75 59.5t28.5 111q0 63 -26.5 102.5t-69.5 59t-95.5 25.5t-101.5 6h-223v-393z" />
<glyph unicode="S" d="M63 160l195 188q47 -72 124 -111.5t163 -39.5q45 0 90 12t82 36.5t59.5 62.5t22.5 87q0 80 -51.5 123t-127 73t-165.5 56.5t-166 72.5t-127 123t-51 206q0 113 46 194.5t120.5 136t171 81t196.5 26.5q115 0 222.5 -35t193.5 -115l-189 -198q-41 59 -109.5 86.5 t-144.5 27.5q-45 0 -87 -10t-75.5 -32.5t-54 -58.5t-20.5 -85q0 -74 51 -113t127 -67.5t166 -55t166 -73.5t127 -125t51 -207q0 -117 -43 -204t-115.5 -144.5t-169 -86t-202.5 -28.5q-135 0 -260 45t-216 152z" />
<glyph unicode="T" d="M14 1217v233h1147v-233h-444v-1217h-258v1217h-445z" />
<glyph unicode="U" horiz-adv-x="1478" d="M156 532v918h258v-909q0 -53 16 -111.5t54 -108t100.5 -81t154.5 -31.5t154.5 31.5t100.5 81t54.5 107.5t16.5 112v909h258v-918q0 -131 -45 -236.5t-123 -179t-184.5 -113.5t-231.5 -40t-231.5 40t-185 113.5t-122.5 179t-44 236.5z" />
<glyph unicode="V" horiz-adv-x="1366" d="M-6 1450h297l395 -1096l408 1096h278l-586 -1450h-223z" />
<glyph unicode="W" horiz-adv-x="2009" d="M0 1450h283l272 -1044h4l326 1044h254l319 -1044h4l285 1044h262l-422 -1450h-246l-335 1104h-5l-335 -1104h-238z" />
<glyph unicode="X" horiz-adv-x="1402" d="M0 0l516 758l-483 692h325l342 -537l338 537h314l-475 -692l526 -758h-328l-383 612l-381 -612h-311z" />
<glyph unicode="Y" horiz-adv-x="1290" d="M-29 1450h324l356 -578l361 578h307l-545 -829v-621h-258v621z" />
<glyph unicode="Z" horiz-adv-x="1251" d="M72 0v233l774 984h-762v233h1083v-233l-780 -984h793v-233h-1108z" />
<glyph unicode="[" horiz-adv-x="569" d="M135 -319v1818h393v-160h-184v-1499h184v-159h-393z" />
<glyph unicode="\" horiz-adv-x="796" d="M6 1487l170 65l639 -1589l-170 -61z" />
<glyph unicode="]" horiz-adv-x="569" d="M41 -160h184v1499h-184v160h393v-1818h-393v159z" />
<glyph unicode="^" horiz-adv-x="1363" d="M141 702l457 748h168l457 -748h-242l-301 490l-297 -490h-242z" />
<glyph unicode="_" horiz-adv-x="1024" d="M0 -154h1024v-102h-1024v102z" />
<glyph unicode="`" horiz-adv-x="532" d="M-119 1450h279l202 -295h-192z" />
<glyph unicode="a" horiz-adv-x="1099" d="M74 270q0 80 28.5 136.5t76.5 94.5t111.5 60.5t132.5 33.5t138.5 14t130.5 3h62v27q0 92 -63.5 138t-162.5 46q-78 0 -145.5 -27.5t-116.5 -74.5l-129 129q82 84 191.5 121t226.5 37q104 0 176 -23.5t119 -60.5t72.5 -85t37 -97.5t13.5 -95.5t2 -81v-565h-221v135h-6 q-53 -84 -135.5 -122t-180.5 -38q-68 0 -132 18.5t-114.5 55.5t-81 92.5t-30.5 128.5zM319 289q0 -35 15.5 -58.5t40 -40t55.5 -23.5t62 -7q127 0 187 60.5t60 164.5v55h-51q-51 0 -114.5 -4t-120 -19.5t-95.5 -45t-39 -82.5z" />
<glyph unicode="b" horiz-adv-x="1290" d="M139 0v1548h246v-690h6q18 25 47 50.5t70 48t94 37t123 14.5q104 0 192.5 -40t150.5 -110t97 -164t35 -202q0 -109 -32.5 -203t-96 -164t-154 -110t-202.5 -40q-104 0 -194.5 41t-143.5 131h-4v-147h-234zM377 492q0 -57 19.5 -110.5t57.5 -94.5t91 -65.5t121 -24.5 t121 24.5t90.5 65.5t57 94.5t19.5 110.5t-19.5 110t-57 94t-91 65.5t-120.5 24.5q-68 0 -121 -24.5t-91 -65.5t-57.5 -94t-19.5 -110z" />
<glyph unicode="c" horiz-adv-x="987" d="M90 492q0 117 42 212t113.5 162.5t170 104.5t209.5 37q94 0 189 -36t167 -114l-170 -170q-43 45 -90 71.5t-96 26.5q-68 0 -121 -24.5t-91 -65.5t-57.5 -94t-19.5 -110t19.5 -110.5t57.5 -94.5t91 -65.5t121 -24.5q57 0 106 23.5t84 68.5l164 -176q-37 -37 -85 -63.5 t-97 -43t-94.5 -24t-77.5 -7.5q-111 0 -209.5 37t-170 104.5t-113.5 163t-42 212.5z" />
<glyph unicode="d" horiz-adv-x="1290" d="M90 492q0 109 35 202.5t97.5 163.5t150.5 110t192 40q70 0 123 -14.5t94 -37t70 -48t47 -50.5h6v690h246v-1548h-233v147h-5q-53 -90 -143 -131t-195 -41q-115 0 -203.5 40t-152 110t-96.5 164t-33 203zM336 492q0 -57 19.5 -110.5t57.5 -94.5t91 -65.5t121 -24.5 t121 24.5t90.5 65.5t57 94t19.5 111q0 57 -19.5 110t-57 94t-91 65.5t-120.5 24.5q-68 0 -121 -24.5t-91 -65.5t-57.5 -94t-19.5 -110z" />
<glyph unicode="e" d="M90 492q0 117 42 212t113.5 162.5t170 104.5t209.5 37q102 0 187 -36t145.5 -103.5t94 -167t33.5 -228.5v-67h-749q12 -111 86 -172.5t178 -61.5q92 0 154.5 38t109.5 95l176 -133q-86 -106 -192.5 -151.5t-222.5 -45.5q-111 0 -209.5 37t-170 104.5t-113.5 163 t-42 212.5zM336 590h504q-2 109 -67.5 171t-182.5 62q-111 0 -175.5 -63.5t-78.5 -169.5z" />
<glyph unicode="f" horiz-adv-x="720" d="M25 774v209h202v139q0 102 14.5 185.5t54.5 142.5t111.5 91t186.5 32q84 0 156 -14l-17 -209q-27 6 -51.5 10t-50.5 4q-51 0 -82 -16.5t-48.5 -44t-22.5 -64.5t-5 -78v-178h227v-209h-227v-774h-246v774h-202z" />
<glyph unicode="g" horiz-adv-x="1290" d="M90 492q0 109 33 202.5t96.5 163.5t152.5 110t203 40q104 0 194.5 -41t143.5 -131h5v147h233v-895q0 -133 -33 -240.5t-101.5 -182.5t-173 -116t-247.5 -41q-137 0 -260 35t-227 127l147 201q74 -68 153.5 -104.5t184.5 -36.5q88 0 148.5 24.5t96 67.5t51 103.5 t15.5 133.5v72h-4q-53 -72 -141 -107.5t-180 -35.5q-111 0 -201 40t-154.5 107.5t-99.5 159.5t-35 197zM336 494q0 -59 21.5 -110.5t60.5 -90.5t92 -61.5t115 -22.5q68 0 122 22.5t92 60.5t58.5 91t20.5 115q0 129 -78 208.5t-213 79.5q-66 0 -119 -21.5t-91 -59t-59.5 -92 t-21.5 -119.5z" />
<glyph unicode="h" d="M139 0v1548h246v-702h4q29 61 101.5 111.5t187.5 50.5q98 0 166.5 -33t111.5 -86t61.5 -123t18.5 -145v-621h-245v498q0 41 -4.5 91t-21.5 94t-54 73.5t-101 29.5q-61 0 -103 -20.5t-69.5 -55t-40 -79.5t-12.5 -94v-537h-246z" />
<glyph unicode="i" horiz-adv-x="532" d="M109 1317q0 59 44 103t111 44q68 0 114 -42t46 -105t-46 -105.5t-114 -42.5t-111.5 44.5t-43.5 103.5zM143 0v983h246v-983h-246z" />
<glyph unicode="j" horiz-adv-x="532" d="M-76 -473l19 213q20 -4 38.5 -7t38.5 -3q45 0 71 19.5t37 50t13 67.5t2 72v1044h246v-1042q0 -92 -12 -171t-48 -137.5t-101.5 -91.5t-170.5 -33q-35 0 -67.5 4.5t-65.5 14.5zM109 1317q0 59 44 103t111 44q68 0 114 -42t46 -105t-46 -105.5t-114 -42.5t-111.5 44.5 t-43.5 103.5z" />
<glyph unicode="k" horiz-adv-x="1099" d="M139 0v1548h246v-973l379 408h315l-422 -446l449 -537h-326l-391 502h-4v-502h-246z" />
<glyph unicode="l" horiz-adv-x="532" d="M143 0v1548h246v-1548h-246z" />
<glyph unicode="m" horiz-adv-x="1781" d="M129 0v983h233v-154h5q33 70 105.5 124.5t195.5 54.5q231 0 307 -183q53 94 133 138.5t190 44.5q98 0 166 -33t110 -90.5t60.5 -134t18.5 -164.5v-586h-246v557q0 45 -8 87t-28.5 74t-55.5 50t-90 18q-57 0 -97.5 -21.5t-66 -57t-36.5 -81.5t-11 -94v-532h-246v586 q0 92 -39 146t-129 54q-61 0 -103 -20.5t-70 -55t-40 -79.5t-12 -94v-537h-246z" />
<glyph unicode="n" d="M139 0v983h234v-158h4q35 74 106.5 128.5t194.5 54.5q98 0 166.5 -33t111.5 -86t61.5 -123t18.5 -145v-621h-245v498q0 41 -4.5 91t-21.5 94t-54 73.5t-101 29.5q-61 0 -103 -20.5t-69.5 -55t-40 -79.5t-12.5 -94v-537h-246z" />
<glyph unicode="o" horiz-adv-x="1249" d="M90 492q0 117 42 212t113.5 162.5t170 104.5t209.5 37t209 -37t169.5 -104.5t113.5 -163t42 -211.5q0 -117 -42 -212.5t-113.5 -163t-170 -104.5t-208.5 -37q-111 0 -209.5 37t-170 104.5t-113.5 163t-42 212.5zM336 492q0 -57 19.5 -110.5t57.5 -94.5t91 -65.5 t121 -24.5t121 24.5t90.5 65.5t57 94t19.5 111q0 57 -19.5 110t-57 94t-91 65.5t-120.5 24.5q-68 0 -121 -24.5t-91 -65.5t-57.5 -94t-19.5 -110z" />
<glyph unicode="p" horiz-adv-x="1290" d="M139 -467v1450h234v-147h4q53 90 143 131t195 41q113 0 203 -40t153.5 -110t96 -164t32.5 -202q0 -109 -35 -203t-97 -164t-150.5 -110t-192.5 -40q-70 0 -123 14.5t-94 37t-69.5 48t-47.5 50.5h-6v-592h-246zM377 492q0 -57 19.5 -110.5t57.5 -94.5t91 -65.5t121 -24.5 t121 24.5t90.5 65.5t57 94.5t19.5 110.5t-19.5 110t-57 94t-91 65.5t-120.5 24.5q-68 0 -121 -24.5t-91 -65.5t-57.5 -94t-19.5 -110z" />
<glyph unicode="q" horiz-adv-x="1290" d="M90 492q0 109 33 202.5t96.5 163.5t152.5 110t203 40q104 0 194.5 -41t143.5 -131h5v147h233v-1450h-246v592h-6q-18 -25 -47 -50.5t-70 -48t-94 -37t-123 -14.5q-104 0 -192 40t-150.5 110t-97.5 164t-35 203zM336 492q0 -57 19.5 -110.5t57.5 -94.5t91 -65.5t121 -24.5 t121 24.5t90.5 65.5t57 94t19.5 111q0 57 -19.5 110t-57 94t-91 65.5t-120.5 24.5q-68 0 -121 -24.5t-91 -65.5t-57.5 -94t-19.5 -110z" />
<glyph unicode="r" horiz-adv-x="796" d="M139 0v983h246v-156h4q41 86 117 133.5t174 47.5q23 0 44 -4.5t44 -10.5v-237q-31 8 -60.5 13t-58.5 5q-86 0 -138 -31.5t-80 -72.5t-37 -82t-9 -62v-526h-246z" />
<glyph unicode="s" horiz-adv-x="909" d="M51 127l164 154q47 -53 101.5 -87t132.5 -34q27 0 55 6t53 20.5t40 36t15 49.5q0 51 -38.5 76t-98 40t-128 28.5t-128 43t-98.5 83t-39 147.5q0 82 34 142.5t89 99.5t126.5 57.5t145.5 18.5q98 0 194.5 -34t155.5 -116l-163 -147q-72 100 -193 100q-49 0 -96 -24.5 t-47 -79.5q0 -45 39 -65.5t98 -35t128 -30t128 -47t98 -87t39 -151.5q0 -88 -38 -148.5t-98 -97.5t-136 -53.5t-152 -16.5q-115 0 -211 33t-172 119z" />
<glyph unicode="t" horiz-adv-x="796" d="M25 774v209h202v285h246v-285h270v-209h-270v-430q0 -74 27.5 -117t109.5 -43q33 0 72 7.5t61 23.5v-207q-39 -18 -95 -25.5t-99 -7.5q-98 0 -160.5 21.5t-98.5 65.5t-49.5 110t-13.5 152v450h-202z" />
<glyph unicode="u" d="M139 362v621h246v-498q0 -41 4 -91t21.5 -94t53.5 -73.5t101 -29.5q61 0 103.5 20.5t70 55t40 79.5t12.5 94v537h245v-983h-233v158h-4q-35 -74 -106.5 -128.5t-194.5 -54.5q-98 0 -167 32t-112 86t-61.5 124t-18.5 145z" />
<glyph unicode="v" horiz-adv-x="1062" d="M6 983h268l263 -688h4l264 688h252l-387 -983h-262z" />
<glyph unicode="w" horiz-adv-x="1630" d="M6 983h266l213 -688h4l199 688h266l213 -688h4l205 688h248l-334 -983h-243l-234 672h-4l-207 -672h-254z" />
<glyph unicode="x" horiz-adv-x="1099" d="M-2 0l395 528l-340 455h299l197 -295l213 295h280l-335 -455l395 -528h-299l-256 352l-258 -352h-291z" />
<glyph unicode="y" horiz-adv-x="1062" d="M6 983h270l275 -682h4l246 682h256l-465 -1194q-27 -70 -58.5 -122t-74.5 -88t-101.5 -53.5t-140.5 -17.5q-96 0 -188 25l30 221q29 -10 61 -17t64 -7q45 0 76 8t52.5 25.5t35.5 45t31 66.5l47 117z" />
<glyph unicode="z" horiz-adv-x="987" d="M70 0v227l526 555v4h-502v197h799v-223l-533 -563h558v-197h-848z" />
<glyph unicode="{" horiz-adv-x="569" d="M0 500v180q20 0 53 6t63.5 21.5t53.5 44t23 71.5v406q0 70 28.5 120t69.5 83.5t86 50t78 16.5h186v-172h-113q-43 0 -68.5 -14.5t-38.5 -36t-16.5 -46t-3.5 -46.5v-385q0 -59 -22.5 -98t-54 -63t-65.5 -34t-58 -12v-4q25 -2 58.5 -10.5t65 -31t54 -64.5t22.5 -113v-373 q0 -23 3.5 -47.5t16.5 -46t38.5 -35.5t68.5 -14h113v-172h-186q-33 0 -78 16t-86 50t-69.5 84t-28.5 120v391q0 49 -23 80t-53.5 48t-63.5 23.5t-53 6.5z" />
<glyph unicode="|" horiz-adv-x="454" d="M123 -512v2048h209v-2048h-209z" />
<glyph unicode="}" horiz-adv-x="569" d="M-72 -147h113q43 0 68.5 14t39 35.5t16.5 46t3 47.5v385q0 59 22.5 98t54 61.5t65.5 33t59 14.5v4q-25 2 -59 10t-65.5 30.5t-54 64.5t-22.5 114v373q0 23 -3 47t-16.5 45.5t-39 36t-68.5 14.5h-113v172h187q33 0 78 -16.5t85.5 -50t69.5 -84t29 -119.5v-391 q0 -49 21.5 -80t52 -48.5t63.5 -23.5t55 -6v-180q-23 0 -55.5 -6.5t-63 -21.5t-52 -44t-21.5 -72v-405q0 -70 -29 -120t-69.5 -84t-86 -50t-77.5 -16h-187v172z" />
<glyph unicode="~" horiz-adv-x="1363" d="M207 612q16 33 38.5 65t53.5 56.5t70 39.5t88 15q59 0 118.5 -19t118.5 -46q57 -25 111.5 -49.5t95.5 -24.5q31 0 57.5 13.5t48 33t40 44t36.5 48.5l74 -172q-23 -33 -48.5 -64.5t-55 -56t-67.5 -40t-85 -15.5q-57 0 -107.5 19.5t-101.5 48.5q-49 29 -106.5 50.5 t-128.5 21.5q-35 0 -62.5 -13.5t-49 -33t-37 -44t-27.5 -49.5z" />
<glyph unicode="&#xa1;" horiz-adv-x="606" d="M139 848q0 66 48.5 113t115.5 47q33 0 62.5 -12.5t52 -33t36 -49t13.5 -61.5q0 -66 -48 -113t-116 -47q-66 0 -115 45t-49 111zM180 -455v998h246v-998h-246z" />
<glyph unicode="&#xa2;" horiz-adv-x="1212" d="M160 494q0 215 121.5 350t332.5 164v137h111v-137q98 -4 191.5 -35t156.5 -107l-158 -159q-39 41 -87 64.5t-103 27.5v-615q57 0 109.5 27t89.5 68l149 -162q-66 -72 -159 -104.5t-189 -37.5v-147h-111v147q-104 8 -189 52.5t-143.5 113t-90 158.5t-31.5 195zM393 492 q0 -109 55.5 -194t165.5 -114v613q-57 -12 -98 -40t-68.5 -68t-41 -91t-13.5 -106z" />
<glyph unicode="&#xa3;" horiz-adv-x="1212" d="M135 0v197h209v448h-209v172h209v205q0 76 26.5 155.5t84 146.5t147.5 109t217 42q111 0 213.5 -32t177.5 -100l-166 -178q-45 41 -98 64.5t-119 23.5q-57 0 -101 -21.5t-74.5 -56t-46 -79.5t-15.5 -95v-184h332v-172h-332v-448h518v-197h-973z" />
<glyph unicode="&#xa4;" horiz-adv-x="1212" d="M74 317l100 101q-47 66 -73.5 143.5t-26.5 165.5q0 86 26.5 165t73.5 144l-100 101l123 120l100 -98q66 47 143.5 72.5t165.5 25.5t166 -25.5t143 -72.5l101 98l123 -120l-101 -101q100 -137 101 -309q0 -86 -27 -165t-74 -144l101 -101l-123 -122l-101 100 q-66 -47 -143.5 -73.5t-165.5 -26.5q-172 0 -309 100l-100 -100zM307 727q0 -141 81 -226t218 -85t218 85t81 226t-81 225t-218 84t-218 -84t-81 -225z" />
<glyph unicode="&#xa5;" horiz-adv-x="1212" d="M25 1450h276l317 -602l306 602h264l-332 -600h221v-160h-309l-39 -69v-99h348v-160h-348v-362h-246v362h-348v160h348v99l-39 69h-309v160h221z" />
<glyph unicode="&#xa6;" horiz-adv-x="454" d="M123 -358v716h209v-716h-209zM123 666v716h209v-716h-209z" />
<glyph unicode="&#xa7;" horiz-adv-x="1214" d="M109 -43l219 106q23 -78 90 -113.5t143 -35.5q31 0 64.5 7t61.5 22.5t45.5 41t17.5 62.5q0 57 -45.5 94t-114 68t-148.5 62.5t-148.5 75.5t-113.5 106.5t-45 158.5q0 113 54.5 184.5t142.5 118.5q-63 41 -99 98.5t-36 135.5q0 86 36.5 149.5t96 105.5t134.5 62.5 t150 20.5q59 0 121 -10.5t118 -35t102 -64.5t75 -97l-215 -121q-23 61 -76 96t-118 35q-61 0 -113.5 -32.5t-52.5 -102.5q0 -57 45 -95t113.5 -70t148.5 -64.5t148.5 -78.5t113.5 -111.5t45 -162.5q0 -86 -49 -156.5t-125 -105.5q59 -45 92 -107.5t33 -135.5q0 -92 -41 -161 t-106.5 -114t-147.5 -66.5t-162 -21.5q-74 0 -141.5 13.5t-126.5 42t-107.5 76.5t-78.5 120zM369 664q0 -37 16 -65t42 -47.5t56.5 -34.5t59.5 -28l198 -92q37 20 66 61.5t29 82.5q0 39 -15.5 65.5t-39 47t-53.5 36t-58 31.5l-183 86q-49 -23 -83.5 -53.5t-34.5 -89.5z" />
<glyph unicode="&#xa8;" horiz-adv-x="532" d="M-102 1303q0 59 44 103t111 44q68 0 114 -42t46 -105t-46 -105.5t-114 -42.5t-111.5 44.5t-43.5 103.5zM319 1303q0 59 44.5 103t111.5 44q68 0 114 -42t46 -105t-46 -105.5t-114 -42.5t-112 44.5t-44 103.5z" />
<glyph unicode="&#xa9;" horiz-adv-x="1638" d="M57 725q0 158 60.5 296t164 241.5t242 164t295.5 60.5q158 0 296 -60.5t241.5 -164t164 -241.5t60.5 -296t-60.5 -296t-164 -241.5t-241.5 -164t-296 -60.5t-296 60.5t-241.5 164t-164 241.5t-60.5 296zM254 725q0 -123 44 -230.5t120 -187.5t179 -126t222 -46t222.5 46 t179 126t119.5 187.5t44 230.5t-44 230.5t-119.5 187.5t-179 126t-222.5 46t-222 -46t-179 -126t-120 -187.5t-44 -230.5zM432 731q0 94 26.5 173t77 136.5t126 89t174.5 31.5q70 0 131 -18.5t110 -55t82 -93t45 -130.5h-192q-14 72 -59.5 98.5t-100.5 26.5 q-119 0 -171 -71.5t-52 -182.5q0 -57 14 -106t42 -86t69 -57.5t94 -20.5q66 0 113 31.5t51 111.5h192q-10 -78 -44 -136t-83 -98t-109.5 -60.5t-127.5 -20.5q-96 0 -172 33.5t-128.5 93t-80 139.5t-27.5 172z" />
<glyph unicode="&#xaa;" horiz-adv-x="714" d="M57 1051q0 72 41 112.5t101.5 61t131 25.5t132.5 5h35v17q0 35 -41 51t-101 16q-51 0 -92 -17t-78 -48l-88 108q53 47 127 70t156 23q147 0 211.5 -60.5t64.5 -185.5v-346h-159v80h-4q-31 -51 -91.5 -72t-119.5 -21q-27 0 -65 7.5t-73.5 27t-61.5 55t-26 91.5zM229 1057 q0 -31 32 -47.5t71 -16.5q88 0 122.5 36t34.5 91v13h-57q-25 0 -59.5 -2.5t-66.5 -10.5t-54.5 -22.5t-22.5 -40.5z" />
<glyph unicode="&#xab;" horiz-adv-x="1062" d="M61 508l312 459l153 -105l-235 -354l237 -358l-155 -105zM518 508l311 459l154 -105l-235 -354l237 -358l-156 -105z" />
<glyph unicode="&#xac;" horiz-adv-x="1363" d="M127 700v209h1110v-608h-209v399h-901z" />
<glyph unicode="&#xad;" horiz-adv-x="606" />
<glyph unicode="&#xae;" horiz-adv-x="1638" d="M57 725q0 158 60.5 296t164 241.5t242 164t295.5 60.5q158 0 296 -60.5t241.5 -164t164 -241.5t60.5 -296t-60.5 -296t-164 -241.5t-241.5 -164t-296 -60.5t-296 60.5t-241.5 164t-164 241.5t-60.5 296zM254 725q0 -123 44 -230.5t120 -187.5t179 -126t222 -46t222.5 46 t179 126t119.5 187.5t44 230.5t-44 230.5t-119.5 187.5t-179 126t-222.5 46t-222 -46t-179 -126t-120 -187.5t-44 -230.5zM526 334v799h256q70 0 134.5 -10.5t114.5 -36t81 -71.5t31 -118q0 -53 -16.5 -97t-42 -75t-57.5 -50.5t-64 -23.5l204 -317h-215l-182 307h-47v-307 h-197zM721 801h96q18 0 41 2t42.5 10t32.5 25.5t13 48.5t-13 48t-32.5 25.5t-42 10.5t-41.5 2h-96v-172z" />
<glyph unicode="&#xaf;" horiz-adv-x="532" d="M-61 1219v159h655v-159h-655z" />
<glyph unicode="&#xb0;" horiz-adv-x="819" d="M82 1147q0 68 25.5 127t70.5 104t104.5 71t127.5 26t127 -26t104 -71t70.5 -104.5t25.5 -126.5q0 -68 -25.5 -127t-70.5 -104.5t-104.5 -71t-126.5 -25.5q-68 0 -127.5 25.5t-104.5 71t-70.5 104.5t-25.5 127zM242 1147q0 -70 49 -119t119 -49t119 49t49 119t-49.5 119 t-118.5 49q-70 0 -119 -49t-49 -119z" />
<glyph unicode="&#xb1;" horiz-adv-x="1363" d="M127 66v208h1110v-208h-1110zM127 674v209h453v293h208v-293h449v-209h-449v-293h-208v293h-453z" />
<glyph unicode="&#xb2;" horiz-adv-x="788" d="M63 592v194l369 312q29 25 56.5 53.5t27.5 58.5q0 43 -33.5 61.5t-81.5 18.5q-55 0 -88.5 -31.5t-38.5 -78.5l-196 12q10 147 101 215t233 68q135 0 224 -66t89 -197q0 -133 -119 -223l-287 -221v-4h406v-172h-662z" />
<glyph unicode="&#xb3;" horiz-adv-x="788" d="M55 821l211 45q10 -47 41 -74.5t86 -27.5t93 22.5t38 75.5q0 35 -15 54.5t-40 28.5t-57.5 11t-65.5 2h-47v172h66q27 0 53 3.5t45.5 13.5t32 28.5t12.5 47.5q0 33 -29.5 50t-79.5 17q-47 0 -80.5 -23.5t-44.5 -66.5l-211 41q14 66 47 110t77 71.5t98.5 40t113.5 12.5 q61 0 118.5 -14.5t102 -43t71 -73t26.5 -103.5q0 -72 -42 -124t-120 -66v-4q86 -10 132 -69.5t46 -135.5q0 -66 -27.5 -115t-73.5 -82t-107.5 -49t-131.5 -16q-127 0 -218 55t-120 186z" />
<glyph unicode="&#xb4;" horiz-adv-x="532" d="M170 1155l203 295h278l-289 -295h-192z" />
<glyph unicode="&#xb5;" d="M139 -467v1450h246v-498q0 -41 4 -91t21.5 -94t53.5 -73.5t101 -29.5q61 0 103.5 20.5t70 55t40 79.5t12.5 94v537h245v-983h-233v158h-4q-35 -74 -106.5 -128.5t-194.5 -54.5q-68 0 -113 15v-457h-246z" />
<glyph unicode="&#xb6;" horiz-adv-x="1228" d="M63 1065q0 102 35 176t97.5 120t150.5 67.5t195 21.5h551v-1708h-185v1561h-219v-1561h-184v950q-100 0 -181 28t-138.5 78t-89.5 118.5t-32 148.5z" />
<glyph unicode="&#xb7;" horiz-adv-x="606" d="M139 596q0 66 48.5 113t115.5 47q66 0 115 -45t49 -111t-48 -113t-116 -47q-33 0 -62.5 12.5t-52 33t-36 49t-13.5 61.5z" />
<glyph unicode="&#xb8;" horiz-adv-x="532" d="M109 -434l45 94q78 -41 168 -41q16 0 36.5 4t38 13.5t29.5 27t12 41.5q0 41 -35.5 57.5t-68.5 16.5q-20 0 -39 -4t-37 -11l-55 52l127 184h119l-87 -123q45 0 89.5 -4t80 -21.5t57 -51t21.5 -93.5q0 -55 -27.5 -94t-68.5 -61.5t-92 -33t-96 -10.5q-115 0 -217 58z" />
<glyph unicode="&#xb9;" horiz-adv-x="788" d="M82 1223l307 239h186v-870h-208v649l-172 -154z" />
<glyph unicode="&#xba;" horiz-adv-x="813" d="M63 1171q0 68 27 123.5t73 95.5t107.5 62.5t132.5 22.5q72 0 135.5 -22.5t110.5 -62.5t74 -95.5t27 -123.5t-27 -123t-74 -95t-110.5 -61.5t-135.5 -21.5t-134 21.5t-108 61.5t-73 95.5t-25 122.5zM231 1171q0 -27 10.5 -53t32 -48.5t54 -37t75.5 -14.5t76 14.5t54.5 37 t33 49t11.5 52.5q0 27 -11.5 54.5t-33 50t-54.5 37t-76 14.5t-75.5 -14.5t-54 -37t-32 -50t-10.5 -54.5z" />
<glyph unicode="&#xbb;" horiz-adv-x="1062" d="M78 862l155 105l312 -463l-312 -459l-153 105l235 354zM535 862l155 105l311 -463l-311 -459l-153 105l235 354z" />
<glyph unicode="&#xbc;" horiz-adv-x="1820" d="M59 1223l308 239h186v-870h-209v649l-172 -154zM377 12l852 1504l170 -78l-852 -1504zM1038 174v160l385 536h230v-524h108v-172h-108v-174h-209v174h-406zM1247 346h197v275l-2 4z" />
<glyph unicode="&#xbd;" horiz-adv-x="1820" d="M66 1223l307 239h186v-870h-209v649l-172 -154zM381 12l852 1504l170 -78l-852 -1504zM1096 0v195l366 311q29 25 56.5 53.5t27.5 58.5q0 43 -33.5 61.5t-80.5 18.5q-55 0 -89 -31.5t-38 -78.5l-197 12q10 147 101 215t233 68q135 0 224 -65.5t89 -196.5 q0 -133 -119 -224l-286 -221v-4h405v-172h-659z" />
<glyph unicode="&#xbe;" horiz-adv-x="1820" d="M47 821l211 45q10 -47 41 -74.5t86 -27.5t93 22.5t38 75.5q0 35 -15.5 54.5t-40 28.5t-57 11t-65.5 2h-47v172h65q27 0 53.5 3.5t46 13.5t32 28.5t12.5 47.5q0 33 -30 50t-79 17q-47 0 -81 -23.5t-44 -66.5l-211 41q14 66 47 110t77 71.5t98.5 40t113.5 12.5 q61 0 118.5 -14.5t101.5 -43t71 -73t27 -103.5q0 -72 -42 -124t-120 -66v-4q86 -10 132 -69.5t46 -135.5q0 -66 -27.5 -115t-73.5 -82t-107.5 -49t-131.5 -16q-127 0 -218 55t-120 186zM432 12l852 1504l170 -78l-852 -1504zM1053 174v160l385 536h229v-524h107v-172h-107 v-174h-209v174h-405zM1219 322h245v364h-4l-241 -360v-4z" />
<glyph unicode="&#xbf;" horiz-adv-x="1062" d="M55 -92q0 68 18.5 119t49.5 94t70.5 82t85.5 82q29 27 49 47t33.5 41.5t19.5 48.5t6 67v78h246v-112q0 -47 -5 -78t-18.5 -56.5t-35 -49t-52.5 -56.5l-157 -160q-51 -51 -52 -133q0 -80 52.5 -130t132.5 -50q86 0 141 58.5t63 142.5l263 -21q-12 -98 -51.5 -175 t-101.5 -130t-144 -81t-181 -28q-92 0 -170.5 26t-137 77t-91.5 126t-33 171zM346 848q0 66 48 113t116 47q33 0 62.5 -12.5t52 -33t36 -49t13.5 -61.5q0 -66 -48 -113t-116 -47q-66 0 -115 45t-49 111z" />
<glyph unicode="&#xc0;" horiz-adv-x="1478" d="M0 0l631 1450h223l625 -1450h-295l-135 332h-629l-131 -332h-289zM354 1843h279l202 -295h-192zM508 553h450l-223 590z" />
<glyph unicode="&#xc1;" horiz-adv-x="1478" d="M0 0l631 1450h223l625 -1450h-295l-135 332h-629l-131 -332h-289zM508 553h450l-223 590zM643 1548l203 295h278l-289 -295h-192z" />
<glyph unicode="&#xc2;" horiz-adv-x="1478" d="M0 0l631 1450h223l625 -1450h-295l-135 332h-629l-131 -332h-289zM367 1548l235 295h277l233 -295h-233l-142 185l-141 -185h-229zM508 553h450l-223 590z" />
<glyph unicode="&#xc3;" horiz-adv-x="1478" d="M0 0l631 1450h223l625 -1450h-295l-135 332h-629l-131 -332h-289zM362 1556q8 49 23.5 96.5t42.5 83.5t66.5 58.5t97.5 22.5q41 0 83 -12.5t81 -26t72.5 -25.5t58.5 -12q41 0 62.5 25.5t31.5 60.5h135q-8 -49 -23.5 -96.5t-42 -83t-66.5 -58t-97 -22.5q-41 0 -83 12 t-81 26.5t-73 27t-58 12.5q-41 0 -62.5 -27t-31.5 -62h-136zM508 553h450l-223 590z" />
<glyph unicode="&#xc4;" horiz-adv-x="1478" d="M0 0l631 1450h223l625 -1450h-295l-135 332h-629l-131 -332h-289zM371 1696q0 59 44 103t111 44q68 0 114 -42t46 -105t-46 -105.5t-114 -42.5t-111.5 44.5t-43.5 103.5zM508 553h450l-223 590zM792 1696q0 59 44.5 103t111.5 44q68 0 114 -42t46 -105t-46 -105.5 t-114 -42.5t-112 44.5t-44 103.5z" />
<glyph unicode="&#xc5;" horiz-adv-x="1478" d="M0 0l631 1450h223l625 -1450h-295l-135 332h-629l-131 -332h-289zM508 553h450l-223 590zM524 1712q0 45 16.5 84t45 66.5t67.5 44t86 16.5q92 0 153.5 -58.5t61.5 -150.5t-61.5 -150.5t-153.5 -58.5t-153.5 57.5t-61.5 149.5zM623 1714q0 -47 34.5 -78.5t81.5 -31.5 t82 30.5t35 79.5q0 47 -35 79t-82 32t-81.5 -32t-34.5 -79z" />
<glyph unicode="&#xc6;" horiz-adv-x="2048" d="M-12 0l927 1450h1016v-233h-590v-357h553v-233h-553v-394h615v-233h-873v381h-548l-234 -381h-313zM670 602h413v615h-30z" />
<glyph unicode="&#xc7;" horiz-adv-x="1402" d="M84 719q0 174 57.5 316.5t158.5 242.5t241.5 154.5t308.5 54.5q147 0 273 -52.5t235 -177.5l-201 -147q-80 86 -154.5 114.5t-150.5 28.5q-113 0 -204 -39.5t-156.5 -110.5t-101.5 -165t-36 -203q0 -117 36 -215t101.5 -169.5t156.5 -112.5t204 -41q88 0 171 42t155 134 l213 -152q-98 -135 -235.5 -195.5t-297.5 -62.5l-59 -86q45 0 89 -4t80 -21.5t57.5 -51t21.5 -93.5q0 -55 -28 -94t-69 -61.5t-92 -33t-96 -10.5q-115 0 -217 58l45 94q78 -41 168 -41q16 0 36.5 4t38 13.5t29.5 27t12 41.5q0 41 -35.5 57.5t-68.5 16.5q-20 0 -38.5 -4 t-37.5 -11l-55 52l104 153q-147 16 -268 78t-208 159t-135 227t-48 286z" />
<glyph unicode="&#xc8;" horiz-adv-x="1251" d="M162 0v1450h960v-233h-702v-357h665v-233h-665v-394h739v-233h-997zM241 1843h279l202 -295h-192z" />
<glyph unicode="&#xc9;" horiz-adv-x="1251" d="M162 0v1450h960v-233h-702v-357h665v-233h-665v-394h739v-233h-997zM530 1548l203 295h278l-289 -295h-192z" />
<glyph unicode="&#xca;" horiz-adv-x="1251" d="M162 0v1450h960v-233h-702v-357h665v-233h-665v-394h739v-233h-997zM254 1548l235 295h277l233 -295h-233l-142 185l-141 -185h-229z" />
<glyph unicode="&#xcb;" horiz-adv-x="1251" d="M162 0v1450h960v-233h-702v-357h665v-233h-665v-394h739v-233h-997zM258 1696q0 59 44 103t111 44q68 0 114 -42t46 -105t-46 -105.5t-114 -42.5t-111.5 44.5t-43.5 103.5zM679 1696q0 59 44.5 103t111.5 44q68 0 114 -42t46 -105t-46 -105.5t-114 -42.5t-112 44.5 t-44 103.5z" />
<glyph unicode="&#xcc;" horiz-adv-x="569" d="M-101 1843h279l202 -295h-192zM156 0v1450h258v-1450h-258z" />
<glyph unicode="&#xcd;" horiz-adv-x="569" d="M156 0v1450h258v-1450h-258zM188 1548l203 295h278l-289 -295h-192z" />
<glyph unicode="&#xce;" horiz-adv-x="569" d="M-88 1548l235 295h277l233 -295h-233l-142 185l-141 -185h-229zM156 0v1450h258v-1450h-258z" />
<glyph unicode="&#xcf;" horiz-adv-x="569" d="M-84 1696q0 59 44 103t111 44q68 0 114 -42t46 -105t-46 -105.5t-114 -42.5t-111.5 44.5t-43.5 103.5zM156 0v1450h258v-1450h-258zM337 1696q0 59 44.5 103t111.5 44q68 0 114 -42t46 -105t-46 -105.5t-114 -42.5t-112 44.5t-44 103.5z" />
<glyph unicode="&#xd0;" horiz-adv-x="1554" d="M27 664v172h135v614h571q143 0 276.5 -44t236 -134t163.5 -226.5t61 -320.5q0 -186 -70.5 -322.5t-182 -225.5t-247.5 -133t-268 -44h-540v664h-135zM420 233h192q121 0 228.5 28t187.5 86.5t126 151.5t46 226q0 131 -41 225t-113.5 152.5t-172 86.5t-218.5 28h-235v-381 h442v-172h-442v-431z" />
<glyph unicode="&#xd1;" horiz-adv-x="1630" d="M162 0v1450h342l702 -1077h4v1077h258v-1450h-327l-717 1112h-4v-1112h-258zM438 1556q8 49 23.5 96.5t42.5 83.5t66.5 58.5t97.5 22.5q41 0 83 -12.5t81 -26t72.5 -25.5t58.5 -12q41 0 62.5 25.5t31.5 60.5h135q-8 -49 -23.5 -96.5t-42 -83t-66.5 -58t-97 -22.5 q-41 0 -83 12t-81 26.5t-73 27t-58 12.5q-41 0 -62.5 -27t-31.5 -62h-136z" />
<glyph unicode="&#xd2;" horiz-adv-x="1705" d="M84 719q0 174 57.5 316.5t158.5 242.5t241.5 154.5t308.5 54.5q170 2 311.5 -50.5t243.5 -152.5t159.5 -241.5t57.5 -315.5q0 -170 -57.5 -309t-159.5 -239.5t-243.5 -157t-311.5 -58.5q-168 0 -308.5 54.5t-241.5 153.5t-158.5 238.5t-57.5 309.5zM354 735 q0 -117 36 -215t101.5 -169.5t156.5 -112.5t204 -41t205 41t157.5 112.5t101.5 169.5t36 215q0 109 -36 203t-101.5 165t-157.5 110.5t-205 39.5t-204 -39.5t-156.5 -110.5t-101.5 -165t-36 -203zM469 1843h279l202 -295h-192z" />
<glyph unicode="&#xd3;" horiz-adv-x="1705" d="M84 719q0 174 57.5 316.5t158.5 242.5t241.5 154.5t308.5 54.5q170 2 311.5 -50.5t243.5 -152.5t159.5 -241.5t57.5 -315.5q0 -170 -57.5 -309t-159.5 -239.5t-243.5 -157t-311.5 -58.5q-168 0 -308.5 54.5t-241.5 153.5t-158.5 238.5t-57.5 309.5zM354 735 q0 -117 36 -215t101.5 -169.5t156.5 -112.5t204 -41t205 41t157.5 112.5t101.5 169.5t36 215q0 109 -36 203t-101.5 165t-157.5 110.5t-205 39.5t-204 -39.5t-156.5 -110.5t-101.5 -165t-36 -203zM758 1548l203 295h278l-289 -295h-192z" />
<glyph unicode="&#xd4;" horiz-adv-x="1705" d="M84 719q0 174 57.5 316.5t158.5 242.5t241.5 154.5t308.5 54.5q170 2 311.5 -50.5t243.5 -152.5t159.5 -241.5t57.5 -315.5q0 -170 -57.5 -309t-159.5 -239.5t-243.5 -157t-311.5 -58.5q-168 0 -308.5 54.5t-241.5 153.5t-158.5 238.5t-57.5 309.5zM354 735 q0 -117 36 -215t101.5 -169.5t156.5 -112.5t204 -41t205 41t157.5 112.5t101.5 169.5t36 215q0 109 -36 203t-101.5 165t-157.5 110.5t-205 39.5t-204 -39.5t-156.5 -110.5t-101.5 -165t-36 -203zM482 1548l235 295h277l233 -295h-233l-142 185l-141 -185h-229z" />
<glyph unicode="&#xd5;" horiz-adv-x="1705" d="M84 719q0 174 57.5 316.5t158.5 242.5t241.5 154.5t308.5 54.5q170 2 311.5 -50.5t243.5 -152.5t159.5 -241.5t57.5 -315.5q0 -170 -57.5 -309t-159.5 -239.5t-243.5 -157t-311.5 -58.5q-168 0 -308.5 54.5t-241.5 153.5t-158.5 238.5t-57.5 309.5zM354 735 q0 -117 36 -215t101.5 -169.5t156.5 -112.5t204 -41t205 41t157.5 112.5t101.5 169.5t36 215q0 109 -36 203t-101.5 165t-157.5 110.5t-205 39.5t-204 -39.5t-156.5 -110.5t-101.5 -165t-36 -203zM477 1556q8 49 23.5 96.5t42.5 83.5t66.5 58.5t97.5 22.5q41 0 83 -12.5 t81 -26t72.5 -25.5t58.5 -12q41 0 62.5 25.5t31.5 60.5h135q-8 -49 -23.5 -96.5t-42 -83t-66.5 -58t-97 -22.5q-41 0 -83 12t-81 26.5t-73 27t-58 12.5q-41 0 -62.5 -27t-31.5 -62h-136z" />
<glyph unicode="&#xd6;" horiz-adv-x="1705" d="M84 719q0 174 57.5 316.5t158.5 242.5t241.5 154.5t308.5 54.5q170 2 311.5 -50.5t243.5 -152.5t159.5 -241.5t57.5 -315.5q0 -170 -57.5 -309t-159.5 -239.5t-243.5 -157t-311.5 -58.5q-168 0 -308.5 54.5t-241.5 153.5t-158.5 238.5t-57.5 309.5zM354 735 q0 -117 36 -215t101.5 -169.5t156.5 -112.5t204 -41t205 41t157.5 112.5t101.5 169.5t36 215q0 109 -36 203t-101.5 165t-157.5 110.5t-205 39.5t-204 -39.5t-156.5 -110.5t-101.5 -165t-36 -203zM486 1696q0 59 44 103t111 44q68 0 114 -42t46 -105t-46 -105.5t-114 -42.5 t-111.5 44.5t-43.5 103.5zM907 1696q0 59 44.5 103t111.5 44q68 0 114 -42t46 -105t-46 -105.5t-114 -42.5t-112 44.5t-44 103.5z" />
<glyph unicode="&#xd7;" horiz-adv-x="1363" d="M158 242l379 372l-377 381l147 146l375 -375l373 373l143 -144l-371 -370l379 -381l-151 -152l-375 371l-371 -371z" />
<glyph unicode="&#xd8;" horiz-adv-x="1705" d="M84 719q0 174 57.5 316.5t158.5 242.5t241.5 154.5t308.5 54.5q137 4 255 -32t216 -101l178 192l100 -88l-176 -192q96 -100 147.5 -236.5t51.5 -302.5q0 -170 -57.5 -309t-159.5 -239.5t-243.5 -157t-311.5 -58.5q-141 0 -264 40t-219 112l-174 -189l-103 88l178 193 q-88 98 -136 227t-48 285zM354 735q0 -96 24.5 -180t70.5 -152l696 758q-127 92 -293 92q-113 0 -204 -39.5t-156.5 -110.5t-101.5 -165t-36 -203zM541 303q63 -51 141 -78.5t170 -27.5q113 0 205 41t157.5 112.5t101.5 169.5t36 215q0 199 -111 332z" />
<glyph unicode="&#xd9;" horiz-adv-x="1478" d="M156 532v918h258v-909q0 -53 16 -111.5t54 -108t100.5 -81t154.5 -31.5t154.5 31.5t100.5 81t54.5 107.5t16.5 112v909h258v-918q0 -131 -45 -236.5t-123 -179t-184.5 -113.5t-231.5 -40t-231.5 40t-185 113.5t-122.5 179t-44 236.5zM354 1843h279l202 -295h-192z" />
<glyph unicode="&#xda;" horiz-adv-x="1478" d="M156 532v918h258v-909q0 -53 16 -111.5t54 -108t100.5 -81t154.5 -31.5t154.5 31.5t100.5 81t54.5 107.5t16.5 112v909h258v-918q0 -131 -45 -236.5t-123 -179t-184.5 -113.5t-231.5 -40t-231.5 40t-185 113.5t-122.5 179t-44 236.5zM643 1548l203 295h278l-289 -295 h-192z" />
<glyph unicode="&#xdb;" horiz-adv-x="1478" d="M156 532v918h258v-909q0 -53 16 -111.5t54 -108t100.5 -81t154.5 -31.5t154.5 31.5t100.5 81t54.5 107.5t16.5 112v909h258v-918q0 -131 -45 -236.5t-123 -179t-184.5 -113.5t-231.5 -40t-231.5 40t-185 113.5t-122.5 179t-44 236.5zM367 1548l235 295h277l233 -295h-233 l-142 185l-141 -185h-229z" />
<glyph unicode="&#xdc;" horiz-adv-x="1478" d="M156 532v918h258v-909q0 -53 16 -111.5t54 -108t100.5 -81t154.5 -31.5t154.5 31.5t100.5 81t54.5 107.5t16.5 112v909h258v-918q0 -131 -45 -236.5t-123 -179t-184.5 -113.5t-231.5 -40t-231.5 40t-185 113.5t-122.5 179t-44 236.5zM371 1696q0 59 44 103t111 44 q68 0 114 -42t46 -105t-46 -105.5t-114 -42.5t-111.5 44.5t-43.5 103.5zM792 1696q0 59 44.5 103t111.5 44q68 0 114 -42t46 -105t-46 -105.5t-114 -42.5t-112 44.5t-44 103.5z" />
<glyph unicode="&#xdd;" horiz-adv-x="1290" d="M-29 1450h324l356 -578l361 578h307l-545 -829v-621h-258v621zM549 1548l203 295h278l-289 -295h-192z" />
<glyph unicode="&#xde;" horiz-adv-x="1251" d="M162 0v1450h258v-281h229q104 0 201.5 -20.5t171.5 -68.5t118 -129t44 -201q0 -137 -47 -221.5t-127 -130.5t-185.5 -62.5t-220.5 -16.5h-184v-319h-258zM420 541h155q55 0 115 4t110 24.5t81.5 61.5t31.5 114q0 68 -28.5 108t-73.5 61.5t-100.5 27.5t-106.5 6h-184v-407 z" />
<glyph unicode="&#xdf;" horiz-adv-x="1251" d="M115 0v1047q0 279 121.5 402.5t369.5 123.5q88 0 169 -23.5t142.5 -71.5t97.5 -119t36 -165q0 -113 -56.5 -197t-160.5 -127v-4q82 -10 143 -47t102 -93t61.5 -128t20.5 -152q0 -104 -35.5 -191t-99 -149.5t-153 -96.5t-193.5 -34q-43 0 -86 5.5t-86 17.5v207 q29 -12 55.5 -16.5t57.5 -4.5q129 0 211.5 76t82.5 207q0 145 -87 219t-224 74h-29v209h17q92 0 152.5 50t60.5 142q0 86 -60.5 138.5t-146.5 52.5q-123 0 -180.5 -71t-57.5 -177v-1104h-245z" />
<glyph unicode="&#xe0;" horiz-adv-x="1099" d="M74 270q0 80 28.5 136.5t76.5 94.5t111.5 60.5t132.5 33.5t138.5 14t130.5 3h62v27q0 92 -63.5 138t-162.5 46q-78 0 -145.5 -27.5t-116.5 -74.5l-129 129q82 84 191.5 121t226.5 37q104 0 176 -23.5t119 -60.5t72.5 -85t37 -97.5t13.5 -95.5t2 -81v-565h-221v135h-6 q-53 -84 -135.5 -122t-180.5 -38q-68 0 -132 18.5t-114.5 55.5t-81 92.5t-30.5 128.5zM166 1450h279l202 -295h-192zM319 289q0 -35 15.5 -58.5t40 -40t55.5 -23.5t62 -7q127 0 187 60.5t60 164.5v55h-51q-51 0 -114.5 -4t-120 -19.5t-95.5 -45t-39 -82.5z" />
<glyph unicode="&#xe1;" horiz-adv-x="1099" d="M74 270q0 80 28.5 136.5t76.5 94.5t111.5 60.5t132.5 33.5t138.5 14t130.5 3h62v27q0 92 -63.5 138t-162.5 46q-78 0 -145.5 -27.5t-116.5 -74.5l-129 129q82 84 191.5 121t226.5 37q104 0 176 -23.5t119 -60.5t72.5 -85t37 -97.5t13.5 -95.5t2 -81v-565h-221v135h-6 q-53 -84 -135.5 -122t-180.5 -38q-68 0 -132 18.5t-114.5 55.5t-81 92.5t-30.5 128.5zM319 289q0 -35 15.5 -58.5t40 -40t55.5 -23.5t62 -7q127 0 187 60.5t60 164.5v55h-51q-51 0 -114.5 -4t-120 -19.5t-95.5 -45t-39 -82.5zM455 1155l203 295h278l-289 -295h-192z" />
<glyph unicode="&#xe2;" horiz-adv-x="1099" d="M74 270q0 80 28.5 136.5t76.5 94.5t111.5 60.5t132.5 33.5t138.5 14t130.5 3h62v27q0 92 -63.5 138t-162.5 46q-78 0 -145.5 -27.5t-116.5 -74.5l-129 129q82 84 191.5 121t226.5 37q104 0 176 -23.5t119 -60.5t72.5 -85t37 -97.5t13.5 -95.5t2 -81v-565h-221v135h-6 q-53 -84 -135.5 -122t-180.5 -38q-68 0 -132 18.5t-114.5 55.5t-81 92.5t-30.5 128.5zM179 1155l235 295h277l233 -295h-233l-142 184l-141 -184h-229zM319 289q0 -35 15.5 -58.5t40 -40t55.5 -23.5t62 -7q127 0 187 60.5t60 164.5v55h-51q-51 0 -114.5 -4t-120 -19.5 t-95.5 -45t-39 -82.5z" />
<glyph unicode="&#xe3;" horiz-adv-x="1099" d="M74 270q0 80 28.5 136.5t76.5 94.5t111.5 60.5t132.5 33.5t138.5 14t130.5 3h62v27q0 92 -63.5 138t-162.5 46q-78 0 -145.5 -27.5t-116.5 -74.5l-129 129q82 84 191.5 121t226.5 37q104 0 176 -23.5t119 -60.5t72.5 -85t37 -97.5t13.5 -95.5t2 -81v-565h-221v135h-6 q-53 -84 -135.5 -122t-180.5 -38q-68 0 -132 18.5t-114.5 55.5t-81 92.5t-30.5 128.5zM174 1163q8 49 23.5 96.5t42.5 83t66.5 58t97.5 22.5q41 0 83 -12t81 -25.5t72.5 -25.5t58.5 -12q41 0 62.5 25.5t31.5 60.5h135q-8 -49 -23.5 -96.5t-42 -83t-66.5 -58t-97 -22.5 q-41 0 -83 12t-81 26.5t-73 26.5t-58 12q-41 0 -62.5 -26.5t-31.5 -61.5h-136zM319 289q0 -35 15.5 -58.5t40 -40t55.5 -23.5t62 -7q127 0 187 60.5t60 164.5v55h-51q-51 0 -114.5 -4t-120 -19.5t-95.5 -45t-39 -82.5z" />
<glyph unicode="&#xe4;" horiz-adv-x="1099" d="M74 270q0 80 28.5 136.5t76.5 94.5t111.5 60.5t132.5 33.5t138.5 14t130.5 3h62v27q0 92 -63.5 138t-162.5 46q-78 0 -145.5 -27.5t-116.5 -74.5l-129 129q82 84 191.5 121t226.5 37q104 0 176 -23.5t119 -60.5t72.5 -85t37 -97.5t13.5 -95.5t2 -81v-565h-221v135h-6 q-53 -84 -135.5 -122t-180.5 -38q-68 0 -132 18.5t-114.5 55.5t-81 92.5t-30.5 128.5zM183 1303q0 59 44 103t111 44q68 0 114 -42t46 -105t-46 -105.5t-114 -42.5t-111.5 44.5t-43.5 103.5zM319 289q0 -35 15.5 -58.5t40 -40t55.5 -23.5t62 -7q127 0 187 60.5t60 164.5v55 h-51q-51 0 -114.5 -4t-120 -19.5t-95.5 -45t-39 -82.5zM604 1303q0 59 44.5 103t111.5 44q68 0 114 -42t46 -105t-46 -105.5t-114 -42.5t-112 44.5t-44 103.5z" />
<glyph unicode="&#xe5;" horiz-adv-x="1099" d="M74 270q0 80 28.5 136.5t76.5 94.5t111.5 60.5t132.5 33.5t138.5 14t130.5 3h62v27q0 92 -63.5 138t-162.5 46q-78 0 -145.5 -27.5t-116.5 -74.5l-129 129q82 84 191.5 121t226.5 37q104 0 176 -23.5t119 -60.5t72.5 -85t37 -97.5t13.5 -95.5t2 -81v-565h-221v135h-6 q-53 -84 -135.5 -122t-180.5 -38q-68 0 -132 18.5t-114.5 55.5t-81 92.5t-30.5 128.5zM319 289q0 -35 15.5 -58.5t40 -40t55.5 -23.5t62 -7q127 0 187 60.5t60 164.5v55h-51q-51 0 -114.5 -4t-120 -19.5t-95.5 -45t-39 -82.5zM336 1339q0 45 16.5 84t45 67t67.5 44t86 16 q92 0 153.5 -58.5t61.5 -150.5t-61.5 -150t-153.5 -58t-153.5 58t-61.5 148zM435 1341q0 -47 34.5 -78.5t81.5 -31.5t82 30.5t35 79.5q0 47 -35 79t-82 32t-81.5 -31.5t-34.5 -79.5z" />
<glyph unicode="&#xe6;" horiz-adv-x="1744" d="M74 272q0 174 124 246t351 72h201q0 109 -55.5 172t-166.5 63q-78 0 -145.5 -27.5t-116.5 -74.5l-129 129q82 84 191.5 121t226.5 37q86 4 176 -32t150 -114q59 66 135 106t182 38q119 0 208 -41t148.5 -112t88 -166t28.5 -204v-67h-717q-2 -59 20.5 -107.5t58.5 -82 t79 -51t82 -17.5q92 0 153.5 38t108.5 95l170 -121q-82 -104 -189.5 -150.5t-242.5 -46.5q-125 0 -219 51.5t-148 125.5q-66 -100 -169 -137.5t-226 -37.5q-66 0 -130 17.5t-114.5 53.5t-82 91.5t-31.5 132.5zM319 289q0 -35 17.5 -59.5t43.5 -40t55 -21.5t54 -6 q61 0 110.5 20.5t82.5 52t50.5 73.5t17.5 85v25h-123q-51 0 -105.5 -5t-99.5 -18.5t-74 -39t-29 -66.5zM958 590h476q-6 104 -67.5 168.5t-170.5 64.5q-102 0 -166.5 -65.5t-71.5 -167.5z" />
<glyph unicode="&#xe7;" horiz-adv-x="987" d="M90 492q0 117 42 212t113.5 162.5t170 104.5t209.5 37q94 0 189 -36t167 -114l-170 -170q-43 45 -90 71.5t-96 26.5q-68 0 -121 -24.5t-91 -65.5t-57.5 -94t-19.5 -110t19.5 -110.5t57.5 -94.5t91 -65.5t121 -24.5q57 0 106 23.5t84 68.5l164 -176q-37 -37 -84 -62.5 t-95 -43t-93 -25t-78 -7.5l-70 -98q45 0 89 -4t80 -21.5t57.5 -51t21.5 -93.5q0 -55 -27.5 -94t-68.5 -61.5t-92.5 -33t-96.5 -10.5q-115 0 -217 58l45 94q78 -41 168 -41q16 0 36.5 4t38 13.5t30 27t12.5 41.5q0 41 -36 57.5t-69 16.5q-20 0 -38.5 -4t-36.5 -11l-56 52 l117 170q-92 16 -170 59t-134 108.5t-89 150.5t-33 188z" />
<glyph unicode="&#xe8;" d="M90 492q0 117 42 212t113.5 162.5t170 104.5t209.5 37q102 0 187 -36t145.5 -103.5t94 -167t33.5 -228.5v-67h-749q12 -111 86 -172.5t178 -61.5q92 0 154.5 38t109.5 95l176 -133q-86 -106 -192.5 -151.5t-222.5 -45.5q-111 0 -209.5 37t-170 104.5t-113.5 163 t-42 212.5zM203 1450h279l202 -295h-192zM336 590h504q-2 109 -67.5 171t-182.5 62q-111 0 -175.5 -63.5t-78.5 -169.5z" />
<glyph unicode="&#xe9;" d="M90 492q0 117 42 212t113.5 162.5t170 104.5t209.5 37q102 0 187 -36t145.5 -103.5t94 -167t33.5 -228.5v-67h-749q12 -111 86 -172.5t178 -61.5q92 0 154.5 38t109.5 95l176 -133q-86 -106 -192.5 -151.5t-222.5 -45.5q-111 0 -209.5 37t-170 104.5t-113.5 163 t-42 212.5zM336 590h504q-2 109 -67.5 171t-182.5 62q-111 0 -175.5 -63.5t-78.5 -169.5zM492 1155l203 295h278l-289 -295h-192z" />
<glyph unicode="&#xea;" d="M90 492q0 117 42 212t113.5 162.5t170 104.5t209.5 37q102 0 187 -36t145.5 -103.5t94 -167t33.5 -228.5v-67h-749q12 -111 86 -172.5t178 -61.5q92 0 154.5 38t109.5 95l176 -133q-86 -106 -192.5 -151.5t-222.5 -45.5q-111 0 -209.5 37t-170 104.5t-113.5 163 t-42 212.5zM216 1155l235 295h277l233 -295h-233l-142 184l-141 -184h-229zM336 590h504q-2 109 -67.5 171t-182.5 62q-111 0 -175.5 -63.5t-78.5 -169.5z" />
<glyph unicode="&#xeb;" d="M90 492q0 117 42 212t113.5 162.5t170 104.5t209.5 37q102 0 187 -36t145.5 -103.5t94 -167t33.5 -228.5v-67h-749q12 -111 86 -172.5t178 -61.5q92 0 154.5 38t109.5 95l176 -133q-86 -106 -192.5 -151.5t-222.5 -45.5q-111 0 -209.5 37t-170 104.5t-113.5 163 t-42 212.5zM220 1303q0 59 44 103t111 44q68 0 114 -42t46 -105t-46 -105.5t-114 -42.5t-111.5 44.5t-43.5 103.5zM336 590h504q-2 109 -67.5 171t-182.5 62q-111 0 -175.5 -63.5t-78.5 -169.5zM641 1303q0 59 44.5 103t111.5 44q68 0 114 -42t46 -105t-46 -105.5 t-114 -42.5t-112 44.5t-44 103.5z" />
<glyph unicode="&#xec;" horiz-adv-x="532" d="M-94 1450h279l202 -295h-192zM143 0v983h246v-983h-246z" />
<glyph unicode="&#xed;" horiz-adv-x="532" d="M143 0v983h246v-983h-246zM154 1155l203 295h278l-289 -295h-192z" />
<glyph unicode="&#xee;" horiz-adv-x="532" d="M-106 1155l235 295h277l233 -295h-233l-142 184l-141 -184h-229zM143 0v983h246v-983h-246z" />
<glyph unicode="&#xef;" horiz-adv-x="532" d="M-102 1303q0 59 44 103t111 44q68 0 114 -42t46 -105t-46 -105.5t-114 -42.5t-111.5 44.5t-43.5 103.5zM143 0v983h246v-983h-246zM319 1303q0 59 44.5 103t111.5 44q68 0 114 -42t46 -105t-46 -105.5t-114 -42.5t-112 44.5t-44 103.5z" />
<glyph unicode="&#xf0;" horiz-adv-x="1249" d="M90 492q0 117 41 212t111.5 162.5t164 104.5t197.5 37q68 0 128.5 -17.5t105.5 -60.5l4 4q-53 86 -120 161.5t-138 149.5l-6 6l-218 -100l-122 117l219 102q-14 14 -35 31.5t-43.5 36t-44 36t-35.5 29.5l205 119q55 -43 103 -87t71 -67l227 105l131 -115l-239 -110 q74 -80 139 -169t115.5 -186.5t79 -204t28.5 -221.5q0 -129 -33.5 -237.5t-101.5 -187.5t-168 -123t-231 -44q-111 0 -209.5 37t-170 104.5t-113.5 163t-42 212.5zM336 492q0 -57 19.5 -110.5t57.5 -94.5t91 -65.5t121 -24.5t121 24.5t90.5 65.5t57 94t19.5 111 q0 57 -19.5 110t-57 94t-91 65.5t-120.5 24.5q-68 0 -121 -24.5t-91 -65.5t-57.5 -94t-19.5 -110z" />
<glyph unicode="&#xf1;" d="M139 0v983h234v-158h4q35 74 106.5 128.5t194.5 54.5q98 0 166.5 -33t111.5 -86t61.5 -123t18.5 -145v-621h-245v498q0 41 -4.5 91t-21.5 94t-54 73.5t-101 29.5q-61 0 -103 -20.5t-69.5 -55t-40 -79.5t-12.5 -94v-537h-246zM211 1163q8 49 23.5 96.5t42.5 83t66.5 58 t97.5 22.5q41 0 83 -12t81 -25.5t72.5 -25.5t58.5 -12q41 0 62.5 25.5t31.5 60.5h135q-8 -49 -23.5 -96.5t-42 -83t-66.5 -58t-97 -22.5q-41 0 -83 12t-81 26.5t-73 26.5t-58 12q-41 0 -62.5 -26.5t-31.5 -61.5h-136z" />
<glyph unicode="&#xf2;" horiz-adv-x="1249" d="M90 492q0 117 42 212t113.5 162.5t170 104.5t209.5 37t209 -37t169.5 -104.5t113.5 -163t42 -211.5q0 -117 -42 -212.5t-113.5 -163t-170 -104.5t-208.5 -37q-111 0 -209.5 37t-170 104.5t-113.5 163t-42 212.5zM239 1450h279l202 -295h-192zM336 492q0 -57 19.5 -110.5 t57.5 -94.5t91 -65.5t121 -24.5t121 24.5t90.5 65.5t57 94t19.5 111q0 57 -19.5 110t-57 94t-91 65.5t-120.5 24.5q-68 0 -121 -24.5t-91 -65.5t-57.5 -94t-19.5 -110z" />
<glyph unicode="&#xf3;" horiz-adv-x="1249" d="M90 492q0 117 42 212t113.5 162.5t170 104.5t209.5 37t209 -37t169.5 -104.5t113.5 -163t42 -211.5q0 -117 -42 -212.5t-113.5 -163t-170 -104.5t-208.5 -37q-111 0 -209.5 37t-170 104.5t-113.5 163t-42 212.5zM336 492q0 -57 19.5 -110.5t57.5 -94.5t91 -65.5 t121 -24.5t121 24.5t90.5 65.5t57 94t19.5 111q0 57 -19.5 110t-57 94t-91 65.5t-120.5 24.5q-68 0 -121 -24.5t-91 -65.5t-57.5 -94t-19.5 -110zM528 1155l203 295h278l-289 -295h-192z" />
<glyph unicode="&#xf4;" horiz-adv-x="1249" d="M90 492q0 117 42 212t113.5 162.5t170 104.5t209.5 37t209 -37t169.5 -104.5t113.5 -163t42 -211.5q0 -117 -42 -212.5t-113.5 -163t-170 -104.5t-208.5 -37q-111 0 -209.5 37t-170 104.5t-113.5 163t-42 212.5zM252 1155l235 295h277l233 -295h-233l-142 184l-141 -184 h-229zM336 492q0 -57 19.5 -110.5t57.5 -94.5t91 -65.5t121 -24.5t121 24.5t90.5 65.5t57 94t19.5 111q0 57 -19.5 110t-57 94t-91 65.5t-120.5 24.5q-68 0 -121 -24.5t-91 -65.5t-57.5 -94t-19.5 -110z" />
<glyph unicode="&#xf5;" horiz-adv-x="1249" d="M90 492q0 117 42 212t113.5 162.5t170 104.5t209.5 37t209 -37t169.5 -104.5t113.5 -163t42 -211.5q0 -117 -42 -212.5t-113.5 -163t-170 -104.5t-208.5 -37q-111 0 -209.5 37t-170 104.5t-113.5 163t-42 212.5zM247 1163q8 49 23.5 96.5t42.5 83t66.5 58t97.5 22.5 q41 0 83 -12t81 -25.5t72.5 -25.5t58.5 -12q41 0 62.5 25.5t31.5 60.5h135q-8 -49 -23.5 -96.5t-42 -83t-66.5 -58t-97 -22.5q-41 0 -83 12t-81 26.5t-73 26.5t-58 12q-41 0 -62.5 -26.5t-31.5 -61.5h-136zM336 492q0 -57 19.5 -110.5t57.5 -94.5t91 -65.5t121 -24.5 t121 24.5t90.5 65.5t57 94t19.5 111q0 57 -19.5 110t-57 94t-91 65.5t-120.5 24.5q-68 0 -121 -24.5t-91 -65.5t-57.5 -94t-19.5 -110z" />
<glyph unicode="&#xf6;" horiz-adv-x="1249" d="M90 492q0 117 42 212t113.5 162.5t170 104.5t209.5 37t209 -37t169.5 -104.5t113.5 -163t42 -211.5q0 -117 -42 -212.5t-113.5 -163t-170 -104.5t-208.5 -37q-111 0 -209.5 37t-170 104.5t-113.5 163t-42 212.5zM256 1303q0 59 44 103t111 44q68 0 114 -42t46 -105 t-46 -105.5t-114 -42.5t-111.5 44.5t-43.5 103.5zM336 492q0 -57 19.5 -110.5t57.5 -94.5t91 -65.5t121 -24.5t121 24.5t90.5 65.5t57 94t19.5 111q0 57 -19.5 110t-57 94t-91 65.5t-120.5 24.5q-68 0 -121 -24.5t-91 -65.5t-57.5 -94t-19.5 -110zM677 1303q0 59 44.5 103 t111.5 44q68 0 114 -42t46 -105t-46 -105.5t-114 -42.5t-112 44.5t-44 103.5z" />
<glyph unicode="&#xf7;" horiz-adv-x="1363" d="M127 516v209h1110v-209h-1110zM528 252q0 63 45 108.5t109 45.5q63 0 108.5 -45.5t45.5 -108.5t-45.5 -108.5t-108.5 -45.5t-108.5 45.5t-45.5 108.5zM528 989q0 63 45 108.5t109 45.5q63 0 108.5 -45t45.5 -109q0 -63 -45.5 -108t-108.5 -45t-108.5 45t-45.5 108z" />
<glyph unicode="&#xf8;" horiz-adv-x="1249" d="M74 14l137 140q-57 66 -89 150.5t-32 187.5q0 117 42 212t113.5 162.5t170 104.5t209.5 37q94 0 178 -27t151 -76l146 148l86 -82l-144 -146q53 -66 85 -149.5t32 -183.5q0 -117 -42 -212.5t-113.5 -163t-170 -104.5t-208.5 -37q-94 0 -177 27t-149 74l-143 -146z M336 492q0 -92 47 -164l403 409q-33 23 -73.5 36t-87.5 13q-68 0 -121 -24.5t-91 -65.5t-57.5 -94t-19.5 -110zM465 244q66 -47 160 -47q68 0 121 24.5t90.5 65.5t57 94t19.5 111q0 88 -43 159z" />
<glyph unicode="&#xf9;" d="M139 362v621h246v-498q0 -41 4 -91t21.5 -94t53.5 -73.5t101 -29.5q61 0 103.5 20.5t70 55t40 79.5t12.5 94v537h245v-983h-233v158h-4q-35 -74 -106.5 -128.5t-194.5 -54.5q-98 0 -167 32t-112 86t-61.5 124t-18.5 145zM203 1450h279l202 -295h-192z" />
<glyph unicode="&#xfa;" d="M139 362v621h246v-498q0 -41 4 -91t21.5 -94t53.5 -73.5t101 -29.5q61 0 103.5 20.5t70 55t40 79.5t12.5 94v537h245v-983h-233v158h-4q-35 -74 -106.5 -128.5t-194.5 -54.5q-98 0 -167 32t-112 86t-61.5 124t-18.5 145zM492 1155l203 295h278l-289 -295h-192z" />
<glyph unicode="&#xfb;" d="M139 362v621h246v-498q0 -41 4 -91t21.5 -94t53.5 -73.5t101 -29.5q61 0 103.5 20.5t70 55t40 79.5t12.5 94v537h245v-983h-233v158h-4q-35 -74 -106.5 -128.5t-194.5 -54.5q-98 0 -167 32t-112 86t-61.5 124t-18.5 145zM216 1155l235 295h277l233 -295h-233l-142 184 l-141 -184h-229z" />
<glyph unicode="&#xfc;" d="M139 362v621h246v-498q0 -41 4 -91t21.5 -94t53.5 -73.5t101 -29.5q61 0 103.5 20.5t70 55t40 79.5t12.5 94v537h245v-983h-233v158h-4q-35 -74 -106.5 -128.5t-194.5 -54.5q-98 0 -167 32t-112 86t-61.5 124t-18.5 145zM220 1303q0 59 44 103t111 44q68 0 114 -42 t46 -105t-46 -105.5t-114 -42.5t-111.5 44.5t-43.5 103.5zM641 1303q0 59 44.5 103t111.5 44q68 0 114 -42t46 -105t-46 -105.5t-114 -42.5t-112 44.5t-44 103.5z" />
<glyph unicode="&#xfd;" horiz-adv-x="1062" d="M6 983h270l275 -682h4l246 682h256l-465 -1194q-27 -70 -58.5 -122t-74.5 -88t-101.5 -53.5t-140.5 -17.5q-96 0 -188 25l30 221q29 -10 61 -17t64 -7q45 0 76 8t52.5 25.5t35.5 45t31 66.5l47 117zM436 1155l203 295h278l-289 -295h-192z" />
<glyph unicode="&#xfe;" horiz-adv-x="1290" d="M139 -467v2015h246v-692h4q45 74 133 113t193 39q113 0 203 -40t153.5 -110t96 -164t32.5 -202q0 -109 -35 -203t-97 -164t-150.5 -110t-192.5 -40q-70 0 -123 14.5t-94 37t-69.5 48t-47.5 50.5h-6v-592h-246zM377 492q0 -57 19.5 -110.5t57.5 -94.5t91 -65.5t121 -24.5 t121 24.5t90.5 65.5t57 94.5t19.5 110.5t-19.5 110t-57 94t-91 65.5t-120.5 24.5q-68 0 -121 -24.5t-91 -65.5t-57.5 -94t-19.5 -110z" />
<glyph unicode="&#xff;" horiz-adv-x="1062" d="M6 983h270l275 -682h4l246 682h256l-465 -1194q-27 -70 -58.5 -122t-74.5 -88t-101.5 -53.5t-140.5 -17.5q-96 0 -188 25l30 221q29 -10 61 -17t64 -7q45 0 76 8t52.5 25.5t35.5 45t31 66.5l47 117zM164 1303q0 59 44 103t111 44q68 0 114 -42t46 -105t-46 -105.5 t-114 -42.5t-111.5 44.5t-43.5 103.5zM585 1303q0 59 44.5 103t111.5 44q68 0 114 -42t46 -105t-46 -105.5t-114 -42.5t-112 44.5t-44 103.5z" />
<glyph unicode="&#x100;" horiz-adv-x="1478" d="M0 0l631 1450h223l625 -1450h-295l-135 332h-629l-131 -332h-289zM406 1612v160h655v-160h-655zM508 553h450l-223 590z" />
<glyph unicode="&#x101;" horiz-adv-x="1099" d="M74 270q0 80 28.5 136.5t76.5 94.5t111.5 60.5t132.5 33.5t138.5 14t130.5 3h62v27q0 92 -63.5 138t-162.5 46q-78 0 -145.5 -27.5t-116.5 -74.5l-129 129q82 84 191.5 121t226.5 37q104 0 176 -23.5t119 -60.5t72.5 -85t37 -97.5t13.5 -95.5t2 -81v-565h-221v135h-6 q-53 -84 -135.5 -122t-180.5 -38q-68 0 -132 18.5t-114.5 55.5t-81 92.5t-30.5 128.5zM254 1219v159h655v-159h-655zM319 289q0 -35 15.5 -58.5t40 -40t55.5 -23.5t62 -7q127 0 187 60.5t60 164.5v55h-51q-51 0 -114.5 -4t-120 -19.5t-95.5 -45t-39 -82.5z" />
<glyph unicode="&#x102;" horiz-adv-x="1478" d="M0 0l631 1450h223l625 -1450h-295l-135 332h-629l-131 -332h-289zM385 1843h137q14 -78 73.5 -106.5t137.5 -28.5q88 0 139.5 24.5t73.5 110.5h135q-16 -154 -109 -224.5t-241 -70.5q-147 0 -241.5 71t-104.5 224zM508 553h450l-223 590z" />
<glyph unicode="&#x103;" horiz-adv-x="1099" d="M74 270q0 80 28.5 136.5t76.5 94.5t111.5 60.5t132.5 33.5t138.5 14t130.5 3h62v27q0 92 -63.5 138t-162.5 46q-78 0 -145.5 -27.5t-116.5 -74.5l-129 129q82 84 191.5 121t226.5 37q104 0 176 -23.5t119 -60.5t72.5 -85t37 -97.5t13.5 -95.5t2 -81v-565h-221v135h-6 q-53 -84 -135.5 -122t-180.5 -38q-68 0 -132 18.5t-114.5 55.5t-81 92.5t-30.5 128.5zM233 1450h137q14 -78 73.5 -106.5t137.5 -28.5q88 0 139.5 24.5t73.5 110.5h135q-16 -152 -109 -223.5t-241 -71.5q-147 0 -241.5 70.5t-104.5 224.5zM319 289q0 -35 15.5 -58.5t40 -40 t55.5 -23.5t62 -7q127 0 187 60.5t60 164.5v55h-51q-51 0 -114.5 -4t-120 -19.5t-95.5 -45t-39 -82.5z" />
<glyph unicode="&#x104;" horiz-adv-x="1478" d="M0 0l631 1450h223l625 -1450h-168q-25 -23 -51.5 -52.5t-50 -63.5t-39 -68.5t-15.5 -65.5q0 -39 27.5 -66.5t66.5 -27.5q29 0 58.5 12.5t52.5 30.5l51 -100q-43 -35 -95 -56.5t-110 -21.5q-41 0 -78.5 11t-67.5 34.5t-47.5 57.5t-17.5 79q0 41 17.5 83t45 81t60.5 72.5 t66 60.5l-135 332h-629l-131 -332h-289zM508 553h450l-223 590z" />
<glyph unicode="&#x105;" horiz-adv-x="1099" d="M74 270q0 80 28.5 136.5t76.5 94.5t111.5 60.5t132.5 33.5t138.5 14t130.5 3h62v27q0 92 -63.5 138t-162.5 46q-78 0 -145.5 -27.5t-116.5 -74.5l-129 129q82 86 191.5 122t226.5 36q104 0 176 -23.5t119 -60.5t72.5 -85t37 -97.5t13.5 -95.5t2 -81v-565h-94 q-25 -23 -51.5 -52.5t-50 -63.5t-39 -68.5t-15.5 -65.5q0 -39 27.5 -66.5t66.5 -27.5q29 0 58.5 12.5t52.5 30.5l51 -100q-43 -35 -95 -56.5t-110 -21.5q-41 0 -79 11t-67.5 34.5t-47 57.5t-17.5 79q0 41 17.5 83t45 81t60.5 72.5t66 60.5v135h-6q-53 -86 -135.5 -123 t-180.5 -37q-68 0 -132 18.5t-114.5 55.5t-81 92.5t-30.5 128.5zM319 289q0 -35 15.5 -58.5t40 -40t55.5 -23.5t62 -7q129 0 188 60.5t59 164.5v55h-51q-51 0 -114.5 -4t-120 -19.5t-95.5 -46t-39 -81.5z" />
<glyph unicode="&#x106;" horiz-adv-x="1402" d="M84 719q0 174 57.5 316.5t158.5 242.5t241.5 154.5t308.5 54.5q147 0 273 -52.5t235 -177.5l-201 -147q-80 86 -154.5 114.5t-150.5 28.5q-113 0 -204 -39.5t-156.5 -110.5t-101.5 -165t-36 -203q0 -117 36 -215t101.5 -169.5t156.5 -112.5t204 -41q88 0 171 42t155 134 l213 -152q-98 -135 -239.5 -196.5t-301.5 -61.5q-168 0 -308.5 54.5t-241.5 153.5t-158.5 238.5t-57.5 309.5zM698 1548l203 295h278l-289 -295h-192z" />
<glyph unicode="&#x107;" horiz-adv-x="987" d="M90 492q0 117 42 212t113.5 162.5t170 104.5t209.5 37q94 0 189 -36t167 -114l-170 -170q-43 45 -90 71.5t-96 26.5q-68 0 -121 -24.5t-91 -65.5t-57.5 -94t-19.5 -110t19.5 -110.5t57.5 -94.5t91 -65.5t121 -24.5q57 0 106 23.5t84 68.5l164 -176q-37 -37 -85 -63.5 t-97 -43t-94.5 -24t-77.5 -7.5q-111 0 -209.5 37t-170 104.5t-113.5 163t-42 212.5zM496 1155l203 295h278l-289 -295h-192z" />
<glyph unicode="&#x108;" horiz-adv-x="1402" d="M84 719q0 174 57.5 316.5t158.5 242.5t241.5 154.5t308.5 54.5q147 0 273 -52.5t235 -177.5l-201 -147q-80 86 -154.5 114.5t-150.5 28.5q-113 0 -204 -39.5t-156.5 -110.5t-101.5 -165t-36 -203q0 -117 36 -215t101.5 -169.5t156.5 -112.5t204 -41q88 0 171 42t155 134 l213 -152q-98 -135 -239.5 -196.5t-301.5 -61.5q-168 0 -308.5 54.5t-241.5 153.5t-158.5 238.5t-57.5 309.5zM472 1548l235 295h277l233 -295h-233l-142 185l-141 -185h-229z" />
<glyph unicode="&#x109;" horiz-adv-x="987" d="M90 492q0 117 42 212t113.5 162.5t170 104.5t209.5 37q94 0 189 -36t167 -114l-170 -170q-43 45 -90 71.5t-96 26.5q-68 0 -121 -24.5t-91 -65.5t-57.5 -94t-19.5 -110t19.5 -110.5t57.5 -94.5t91 -65.5t121 -24.5q57 0 106 23.5t84 68.5l164 -176q-37 -37 -85 -63.5 t-97 -43t-94.5 -24t-77.5 -7.5q-111 0 -209.5 37t-170 104.5t-113.5 163t-42 212.5zM230 1155l235 295h277l233 -295h-233l-142 184l-141 -184h-229z" />
<glyph unicode="&#x10a;" horiz-adv-x="1402" d="M84 719q0 174 57.5 316.5t158.5 242.5t241.5 154.5t308.5 54.5q147 0 273 -52.5t235 -177.5l-201 -147q-80 86 -154.5 114.5t-150.5 28.5q-113 0 -204 -39.5t-156.5 -110.5t-101.5 -165t-36 -203q0 -117 36 -215t101.5 -169.5t156.5 -112.5t204 -41q88 0 171 42t155 134 l213 -152q-98 -135 -239.5 -196.5t-301.5 -61.5q-168 0 -308.5 54.5t-241.5 153.5t-158.5 238.5t-57.5 309.5zM687 1696q0 59 44 103t111 44q68 0 114 -42t46 -105t-46 -105.5t-114 -42.5t-111.5 44.5t-43.5 103.5z" />
<glyph unicode="&#x10b;" horiz-adv-x="987" d="M90 492q0 117 42 212t113.5 162.5t170 104.5t209.5 37q94 0 189 -36t167 -114l-170 -170q-43 45 -90 71.5t-96 26.5q-68 0 -121 -24.5t-91 -65.5t-57.5 -94t-19.5 -110t19.5 -110.5t57.5 -94.5t91 -65.5t121 -24.5q57 0 106 23.5t84 68.5l164 -176q-37 -37 -85 -63.5 t-97 -43t-94.5 -24t-77.5 -7.5q-111 0 -209.5 37t-170 104.5t-113.5 163t-42 212.5zM445 1303q0 59 44 103t111 44q68 0 114 -42t46 -105t-46 -105.5t-114 -42.5t-111.5 44.5t-43.5 103.5z" />
<glyph unicode="&#x10c;" horiz-adv-x="1402" d="M84 719q0 174 57.5 316.5t158.5 242.5t241.5 154.5t308.5 54.5q147 0 273 -52.5t235 -177.5l-201 -147q-80 86 -154.5 114.5t-150.5 28.5q-113 0 -204 -39.5t-156.5 -110.5t-101.5 -165t-36 -203q0 -117 36 -215t101.5 -169.5t156.5 -112.5t204 -41q88 0 171 42t155 134 l213 -152q-98 -135 -239.5 -196.5t-301.5 -61.5q-168 0 -308.5 54.5t-241.5 153.5t-158.5 238.5t-57.5 309.5zM474 1843h233l141 -184l142 184h225l-236 -295h-272z" />
<glyph unicode="&#x10d;" horiz-adv-x="987" d="M90 492q0 117 42 212t113.5 162.5t170 104.5t209.5 37q94 0 189 -36t167 -114l-170 -170q-43 45 -90 71.5t-96 26.5q-68 0 -121 -24.5t-91 -65.5t-57.5 -94t-19.5 -110t19.5 -110.5t57.5 -94.5t91 -65.5t121 -24.5q57 0 106 23.5t84 68.5l164 -176q-37 -37 -85 -63.5 t-97 -43t-94.5 -24t-77.5 -7.5q-111 0 -209.5 37t-170 104.5t-113.5 163t-42 212.5zM230 1450h233l141 -184l142 184h225l-236 -295h-272z" />
<glyph unicode="&#x10e;" horiz-adv-x="1554" d="M162 0v1450h571q143 0 276.5 -44t236 -134t163.5 -226.5t61 -320.5q0 -186 -70.5 -322.5t-182 -225.5t-247.5 -133t-268 -44h-540zM312 1843h233l141 -184l142 184h225l-236 -295h-272zM420 233h192q121 0 228.5 28t187.5 86.5t126 151.5t46 226q0 131 -41 225 t-113.5 152.5t-172 86.5t-218.5 28h-235v-984z" />
<glyph unicode="&#x10f;" horiz-adv-x="1290" d="M90 492q0 109 35 202.5t97.5 163.5t150.5 110t192 40q70 0 123 -14.5t94 -37t70 -48t47 -50.5h6v690h246v-1548h-233v147h-5q-53 -90 -143 -131t-195 -41q-115 0 -203.5 40t-152 110t-96.5 164t-33 203zM336 492q0 -57 19.5 -110.5t57.5 -94.5t91 -65.5t121 -24.5 t121 24.5t90.5 65.5t57 94t19.5 111q0 57 -19.5 110t-57 94t-91 65.5t-120.5 24.5q-68 0 -121 -24.5t-91 -65.5t-57.5 -94t-19.5 -110zM1249 1044l123 406h250l-174 -406h-199z" />
<glyph unicode="&#x110;" horiz-adv-x="1554" d="M27 664v172h135v614h571q143 0 276.5 -44t236 -134t163.5 -226.5t61 -320.5q0 -186 -70.5 -322.5t-182 -225.5t-247.5 -133t-268 -44h-540v664h-135zM420 233h192q121 0 228.5 28t187.5 86.5t126 151.5t46 226q0 131 -41 225t-113.5 152.5t-172 86.5t-218.5 28h-235v-381 h442v-172h-442v-431z" />
<glyph unicode="&#x111;" horiz-adv-x="1290" d="M90 492q0 109 35 202.5t97.5 163.5t150.5 110t192 40q68 0 122 -14.5t95 -37t70 -48t47 -50.5h6v299h-264v160h264v231h246v-231h145v-160h-145v-1157h-233v147h-5q-53 -92 -143 -132t-195 -40q-115 0 -203.5 40t-152 110t-96.5 164t-33 203zM336 492q0 -57 19.5 -110.5 t57.5 -94.5t91 -65.5t121 -24.5t121 24.5t90.5 65.5t57 94t19.5 111q0 57 -19.5 110t-57 94t-91 65.5t-120.5 24.5q-68 0 -121 -24.5t-91 -65.5t-57.5 -94t-19.5 -110z" />
<glyph unicode="&#x112;" horiz-adv-x="1251" d="M162 0v1450h960v-233h-702v-357h665v-233h-665v-394h739v-233h-997zM328 1612v160h655v-160h-655z" />
<glyph unicode="&#x113;" d="M90 492q0 117 42 212t113.5 162.5t170 104.5t209.5 37q102 0 187 -36t145.5 -103.5t94 -167t33.5 -228.5v-67h-749q12 -111 86 -172.5t178 -61.5q92 0 154.5 38t109.5 95l176 -133q-86 -106 -192.5 -151.5t-222.5 -45.5q-111 0 -209.5 37t-170 104.5t-113.5 163 t-42 212.5zM287 1219v159h655v-159h-655zM336 590h504q-2 109 -67.5 171t-182.5 62q-111 0 -175.5 -63.5t-78.5 -169.5z" />
<glyph unicode="&#x114;" horiz-adv-x="1251" d="M162 0v1450h960v-233h-702v-357h665v-233h-665v-394h739v-233h-997zM313 1843h137q14 -78 73.5 -106.5t137.5 -28.5q88 0 139.5 24.5t73.5 110.5h135q-16 -154 -109 -224.5t-241 -70.5q-147 0 -241.5 71t-104.5 224z" />
<glyph unicode="&#x115;" d="M90 492q0 117 42 212t113.5 162.5t170 104.5t209.5 37q102 0 187 -36t145.5 -103.5t94 -167t33.5 -228.5v-67h-749q12 -111 86 -172.5t178 -61.5q92 0 154.5 38t109.5 95l176 -133q-86 -106 -192.5 -151.5t-222.5 -45.5q-111 0 -209.5 37t-170 104.5t-113.5 163 t-42 212.5zM266 1450h137q14 -78 73.5 -106.5t137.5 -28.5q88 0 139.5 24.5t73.5 110.5h135q-16 -152 -109 -223.5t-241 -71.5q-147 0 -241.5 70.5t-104.5 224.5zM336 590h504q-2 109 -67.5 171t-182.5 62q-111 0 -175.5 -63.5t-78.5 -169.5z" />
<glyph unicode="&#x116;" horiz-adv-x="1251" d="M162 0v1450h960v-233h-702v-357h665v-233h-665v-394h739v-233h-997zM529 1696q0 59 44 103t111 44q68 0 114 -42t46 -105t-46 -105.5t-114 -42.5t-111.5 44.5t-43.5 103.5z" />
<glyph unicode="&#x117;" d="M90 492q0 117 42 212t113.5 162.5t170 104.5t209.5 37q102 0 187 -36t145.5 -103.5t94 -167t33.5 -228.5v-67h-749q12 -111 86 -172.5t178 -61.5q92 0 154.5 38t109.5 95l176 -133q-86 -106 -192.5 -151.5t-222.5 -45.5q-111 0 -209.5 37t-170 104.5t-113.5 163 t-42 212.5zM336 590h504q-2 109 -67.5 171t-182.5 62q-111 0 -175.5 -63.5t-78.5 -169.5zM457 1303q0 59 44 103t111 44q68 0 114 -42t46 -105t-46 -105.5t-114 -42.5t-111.5 44.5t-43.5 103.5z" />
<glyph unicode="&#x118;" horiz-adv-x="1251" d="M162 0v1450h960v-233h-702v-357h665v-233h-665v-394h739v-233h-121q-25 -23 -51 -52.5t-50 -63.5t-39 -68.5t-15 -65.5q0 -39 27.5 -66.5t66.5 -27.5q29 0 58.5 12.5t51.5 30.5l52 -100q-43 -35 -95.5 -56.5t-109.5 -21.5q-41 0 -79 11t-67.5 34.5t-47 57.5t-17.5 79 q0 41 17.5 83t45 81t60.5 72.5t65 60.5h-749z" />
<glyph unicode="&#x119;" d="M90 492q0 117 42 212t113.5 162.5t170 104.5t209.5 37q102 0 187 -36t145.5 -103.5t94 -167t33.5 -228.5v-67h-749q12 -111 86 -172.5t178 -61.5q92 0 154.5 38t109.5 95l176 -133q-66 -82 -144.5 -126t-164.5 -60q-23 -23 -47.5 -51.5t-45 -59.5t-33.5 -63.5t-13 -61.5 q0 -39 27.5 -66.5t66.5 -27.5q29 0 58.5 12.5t52.5 30.5l51 -100q-43 -35 -95.5 -56.5t-109.5 -21.5q-41 0 -79 11t-67.5 34.5t-47 57.5t-17.5 79q0 37 14.5 75t37 72.5t51 67.5t57.5 59q-104 6 -196.5 45t-160 106t-106.5 159t-39 205zM336 590h504q-2 111 -67.5 172 t-182.5 61q-111 0 -175.5 -63.5t-78.5 -169.5z" />
<glyph unicode="&#x11a;" horiz-adv-x="1251" d="M162 0v1450h960v-233h-702v-357h665v-233h-665v-394h739v-233h-997zM295 1843h233l141 -184l142 184h225l-236 -295h-272z" />
<glyph unicode="&#x11b;" d="M90 492q0 117 42 212t113.5 162.5t170 104.5t209.5 37q102 0 187 -36t145.5 -103.5t94 -167t33.5 -228.5v-67h-749q12 -111 86 -172.5t178 -61.5q92 0 154.5 38t109.5 95l176 -133q-86 -106 -192.5 -151.5t-222.5 -45.5q-111 0 -209.5 37t-170 104.5t-113.5 163 t-42 212.5zM244 1450h233l141 -184l142 184h225l-236 -295h-272zM336 590h504q-2 109 -67.5 171t-182.5 62q-111 0 -175.5 -63.5t-78.5 -169.5z" />
<glyph unicode="&#x11c;" horiz-adv-x="1593" d="M84 719q0 174 57.5 316.5t158.5 242.5t241.5 154.5t308.5 54.5q166 0 311.5 -40t259.5 -142l-190 -193q-70 68 -169 104.5t-210 36.5q-113 0 -204 -39.5t-156.5 -110.5t-101.5 -165t-36 -203q0 -117 36 -215t101.5 -169.5t156.5 -112.5t204 -41q98 0 185 18t155 57v342 h-297v234h555v-742q-268 -143 -600 -143q-168 0 -308.5 54.5t-241.5 153.5t-158.5 238.5t-57.5 309.5zM469 1548l235 295h277l233 -295h-233l-142 185l-141 -185h-229z" />
<glyph unicode="&#x11d;" horiz-adv-x="1290" d="M90 492q0 109 33 202.5t96.5 163.5t152.5 110t203 40q104 0 194.5 -41t143.5 -131h5v147h233v-895q0 -133 -33 -240.5t-101.5 -182.5t-173 -116t-247.5 -41q-137 0 -260 35t-227 127l147 201q74 -68 153.5 -104.5t184.5 -36.5q88 0 148.5 24.5t96 67.5t51 103.5 t15.5 133.5v72h-4q-53 -72 -141 -107.5t-180 -35.5q-111 0 -201 40t-154.5 107.5t-99.5 159.5t-35 197zM297 1155l235 295h277l233 -295h-233l-142 184l-141 -184h-229zM336 494q0 -59 21.5 -110.5t60.5 -90.5t92 -61.5t115 -22.5q68 0 122 22.5t92 60.5t58.5 91t20.5 115 q0 129 -78 208.5t-213 79.5q-66 0 -119 -21.5t-91 -59t-59.5 -92t-21.5 -119.5z" />
<glyph unicode="&#x11e;" horiz-adv-x="1593" d="M84 719q0 174 57.5 316.5t158.5 242.5t241.5 154.5t308.5 54.5q166 0 311.5 -40t259.5 -142l-190 -193q-70 68 -169 104.5t-210 36.5q-113 0 -204 -39.5t-156.5 -110.5t-101.5 -165t-36 -203q0 -117 36 -215t101.5 -169.5t156.5 -112.5t204 -41q98 0 185 18t155 57v342 h-297v234h555v-742q-268 -143 -600 -143q-168 0 -308.5 54.5t-241.5 153.5t-158.5 238.5t-57.5 309.5zM498 1843h137q14 -78 73.5 -106.5t137.5 -28.5q88 0 139.5 24.5t73.5 110.5h135q-16 -154 -109 -224.5t-241 -70.5q-147 0 -241.5 71t-104.5 224z" />
<glyph unicode="&#x11f;" horiz-adv-x="1290" d="M90 492q0 109 33 202.5t96.5 163.5t152.5 110t203 40q104 0 194.5 -41t143.5 -131h5v147h233v-895q0 -133 -33 -240.5t-101.5 -182.5t-173 -116t-247.5 -41q-137 0 -260 35t-227 127l147 201q74 -68 153.5 -104.5t184.5 -36.5q88 0 148.5 24.5t96 67.5t51 103.5 t15.5 133.5v72h-4q-53 -72 -141 -107.5t-180 -35.5q-111 0 -201 40t-154.5 107.5t-99.5 159.5t-35 197zM321 1450h137q14 -78 73.5 -106.5t137.5 -28.5q88 0 139.5 24.5t73.5 110.5h135q-16 -152 -109 -223.5t-241 -71.5q-147 0 -241.5 70.5t-104.5 224.5zM336 494 q0 -59 21.5 -110.5t60.5 -90.5t92 -61.5t115 -22.5q68 0 122 22.5t92 60.5t58.5 91t20.5 115q0 129 -78 208.5t-213 79.5q-66 0 -119 -21.5t-91 -59t-59.5 -92t-21.5 -119.5z" />
<glyph unicode="&#x120;" horiz-adv-x="1593" d="M84 719q0 174 57.5 316.5t158.5 242.5t241.5 154.5t308.5 54.5q166 0 311.5 -40t259.5 -142l-190 -193q-70 68 -169 104.5t-210 36.5q-113 0 -204 -39.5t-156.5 -110.5t-101.5 -165t-36 -203q0 -117 36 -215t101.5 -169.5t156.5 -112.5t204 -41q98 0 185 18t155 57v342 h-297v234h555v-742q-268 -143 -600 -143q-168 0 -308.5 54.5t-241.5 153.5t-158.5 238.5t-57.5 309.5zM691 1696q0 59 44 103t111 44q68 0 114 -42t46 -105t-46 -105.5t-114 -42.5t-111.5 44.5t-43.5 103.5z" />
<glyph unicode="&#x121;" horiz-adv-x="1290" d="M90 492q0 109 33 202.5t96.5 163.5t152.5 110t203 40q104 0 194.5 -41t143.5 -131h5v147h233v-895q0 -133 -33 -240.5t-101.5 -182.5t-173 -116t-247.5 -41q-137 0 -260 35t-227 127l147 201q74 -68 153.5 -104.5t184.5 -36.5q88 0 148.5 24.5t96 67.5t51 103.5 t15.5 133.5v72h-4q-53 -72 -141 -107.5t-180 -35.5q-111 0 -201 40t-154.5 107.5t-99.5 159.5t-35 197zM336 494q0 -59 21.5 -110.5t60.5 -90.5t92 -61.5t115 -22.5q68 0 122 22.5t92 60.5t58.5 91t20.5 115q0 129 -78 208.5t-213 79.5q-66 0 -119 -21.5t-91 -59t-59.5 -92 t-21.5 -119.5zM492 1303q0 59 44 103t111 44q68 0 114 -42t46 -105t-46 -105.5t-114 -42.5t-111.5 44.5t-43.5 103.5z" />
<glyph unicode="&#x122;" horiz-adv-x="1593" d="M84 719q0 174 57.5 316.5t158.5 242.5t241.5 154.5t308.5 54.5q166 0 311.5 -40t259.5 -142l-190 -193q-70 68 -169 104.5t-210 36.5q-113 0 -204 -39.5t-156.5 -110.5t-101.5 -165t-36 -203q0 -117 36 -215t101.5 -169.5t156.5 -112.5t204 -41q98 0 185 18t155 57v342 h-297v234h555v-742q-268 -143 -600 -143q-168 0 -308.5 54.5t-241.5 153.5t-158.5 238.5t-57.5 309.5zM632 -528l144 405h250l-175 -405h-219z" />
<glyph unicode="&#x123;" horiz-adv-x="1290" d="M90 492q0 109 33 202.5t96.5 163.5t152.5 110t203 40q104 0 194.5 -41t143.5 -131h5v147h233v-895q0 -133 -33 -240.5t-101.5 -182.5t-173 -116t-247.5 -41q-137 0 -260 35t-227 127l147 201q74 -68 153.5 -104.5t184.5 -36.5q88 0 148.5 24.5t96 67.5t51 103.5 t15.5 133.5v72h-4q-53 -72 -141 -107.5t-180 -35.5q-111 0 -201 40t-154.5 107.5t-99.5 159.5t-35 197zM336 494q0 -59 21.5 -110.5t60.5 -90.5t92 -61.5t115 -22.5q68 0 122 22.5t92 60.5t58.5 91t20.5 115q0 129 -78 208.5t-213 79.5q-66 0 -119 -21.5t-91 -59t-59.5 -92 t-21.5 -119.5zM481 1196l174 406h219l-143 -406h-250z" />
<glyph unicode="&#x124;" horiz-adv-x="1517" d="M162 0v1450h258v-578h678v578h258v-1450h-258v639h-678v-639h-258zM386 1548l235 295h277l233 -295h-233l-142 185l-141 -185h-229z" />
<glyph unicode="&#x125;" d="M139 0v1548h246v-702h4q29 61 101.5 111.5t187.5 50.5q98 0 166.5 -33t111.5 -86t61.5 -123t18.5 -145v-621h-245v498q0 41 -4.5 91t-21.5 94t-54 73.5t-101 29.5q-61 0 -103 -20.5t-69.5 -55t-40 -79.5t-12.5 -94v-537h-246zM222 1630l235 295h277l233 -295h-233 l-142 185l-141 -185h-229z" />
<glyph unicode="&#x126;" horiz-adv-x="1517" d="M162 0v1450h258v-182h678v182h258v-1450h-258v639h-678v-639h-258zM420 872h678v236h-678v-236z" />
<glyph unicode="&#x127;" d="M-6 1157v160h145v231h246v-231h264v-160h-264v-311h4q29 61 100.5 111.5t188.5 50.5q98 0 166.5 -33t111.5 -86t61.5 -123t18.5 -145v-621h-245v498q0 41 -4.5 91t-21.5 94t-54 73.5t-101 29.5q-61 0 -103 -20.5t-69.5 -55t-40 -79.5t-12.5 -94v-537h-246v1157h-145z" />
<glyph unicode="&#x128;" horiz-adv-x="569" d="M-91 1556q8 49 23.5 96.5t42.5 83.5t66.5 58.5t97.5 22.5q41 0 83 -12.5t81 -26t72.5 -25.5t58.5 -12q41 0 62.5 25.5t31.5 60.5h135q-8 -49 -23.5 -96.5t-42 -83t-66.5 -58t-97 -22.5q-41 0 -83 12t-81 26.5t-73 27t-58 12.5q-41 0 -62.5 -27t-31.5 -62h-136zM156 0 v1450h258v-1450h-258z" />
<glyph unicode="&#x129;" horiz-adv-x="532" d="M-107 1163q8 49 23.5 96.5t42.5 83t66.5 58t97.5 22.5q41 0 83 -12t81 -25.5t72.5 -25.5t58.5 -12q41 0 62.5 25.5t31.5 60.5h135q-8 -49 -23.5 -96.5t-42 -83t-66.5 -58t-97 -22.5q-41 0 -83 12t-81 26.5t-73 26.5t-58 12q-41 0 -62.5 -26.5t-31.5 -61.5h-136zM143 0 v983h246v-983h-246z" />
<glyph unicode="&#x12a;" horiz-adv-x="569" d="M-45 1612v160h655v-160h-655zM156 0v1450h258v-1450h-258z" />
<glyph unicode="&#x12b;" horiz-adv-x="532" d="M-57 1219v159h655v-159h-655zM143 0v983h246v-983h-246z" />
<glyph unicode="&#x12c;" horiz-adv-x="569" d="M-64 1847h137q14 -78 73.5 -106.5t137.5 -28.5q88 0 139.5 24.5t73.5 110.5h135q-16 -152 -109 -223.5t-241 -71.5q-147 0 -241.5 70.5t-104.5 224.5zM156 0v1450h258v-1450h-258z" />
<glyph unicode="&#x12d;" horiz-adv-x="532" d="M-82 1384h137q14 -78 73.5 -106.5t137.5 -28.5q88 0 139.5 24.5t73.5 110.5h135q-16 -152 -109 -223.5t-241 -71.5q-147 0 -241.5 70.5t-104.5 224.5zM143 0v983h246v-983h-246z" />
<glyph unicode="&#x12e;" horiz-adv-x="569" d="M25 -297q0 41 17 83t45 81t60.5 72.5t65.5 60.5h-57v1450h258v-1450h-74q-25 -23 -51.5 -52.5t-50 -63.5t-39 -68.5t-15.5 -65.5q0 -39 28 -66.5t67 -27.5q29 0 58.5 12.5t51.5 30.5l51 -100q-43 -35 -95 -56.5t-109 -21.5q-41 0 -79 11t-68 34.5t-47 57.5t-17 79z" />
<glyph unicode="&#x12f;" horiz-adv-x="532" d="M-45 -297q0 41 17.5 83t45 81t60.5 72.5t65 60.5v983h246v-983h-119q-25 -23 -51 -52.5t-50 -63.5t-39 -68.5t-15 -65.5q0 -39 27.5 -66.5t66.5 -27.5q29 0 58.5 12.5t51.5 30.5l52 -100q-43 -35 -95.5 -56.5t-109.5 -21.5q-41 0 -79 11t-67.5 34.5t-47 57.5t-17.5 79z M109 1317q0 59 44 103t111 44q68 0 114 -42t46 -105t-46 -105.5t-114 -42.5t-111.5 44.5t-43.5 103.5z" />
<glyph unicode="&#x130;" horiz-adv-x="569" d="M129 1696q0 59 44 103t111 44q68 0 114 -42t46 -105t-46 -105.5t-114 -42.5t-111.5 44.5t-43.5 103.5zM156 0v1450h258v-1450h-258z" />
<glyph unicode="&#x131;" horiz-adv-x="532" d="M143 0v983h246v-983h-246z" />
<glyph unicode="&#x132;" horiz-adv-x="1570" d="M156 0v1450h258v-1450h-258zM557 297l242 57q12 -72 58 -114.5t114 -42.5q111 0 150.5 74.5t39.5 205.5v973h258v-1049q0 -86 -27.5 -165.5t-81.5 -140t-136 -96.5t-191 -36q-172 0 -281.5 80t-144.5 254z" />
<glyph unicode="&#x133;" horiz-adv-x="991" d="M109 1317q0 59 44 103t111 44q68 0 114 -42t46 -105t-46 -105.5t-114 -42.5t-111.5 44.5t-43.5 103.5zM143 0v983h246v-983h-246zM383 -473l19 213q20 -4 38.5 -7t38.5 -3q45 0 71 19.5t37 50t13 67.5t2 72v1044h246v-1042q0 -92 -12 -171t-48 -137.5t-101.5 -91.5 t-170.5 -33q-35 0 -67.5 4.5t-65.5 14.5zM568 1317q0 59 44 103t111 44q68 0 114 -42t46 -105t-46 -105.5t-114 -42.5t-111.5 44.5t-43.5 103.5z" />
<glyph unicode="&#x134;" horiz-adv-x="1024" d="M10 297l242 57q12 -72 58 -114.5t114 -42.5q111 0 150.5 74.5t39.5 205.5v973h258v-1049q0 -86 -27.5 -165.5t-81.5 -140t-136 -96.5t-191 -36q-172 0 -281.5 80t-144.5 254zM373 1548l235 295h277l233 -295h-233l-142 185l-141 -185h-229z" />
<glyph unicode="&#x135;" horiz-adv-x="532" d="M-106 1155l235 295h277l233 -295h-233l-142 184l-141 -184h-229zM-76 -473l19 213q20 -4 38.5 -7t38.5 -3q45 0 71 19.5t37 50t13 67.5t2 72v1044h246v-1042q0 -92 -12 -171t-48 -137.5t-101.5 -91.5t-170.5 -33q-35 0 -67.5 4.5t-65.5 14.5z" />
<glyph unicode="&#x136;" horiz-adv-x="1402" d="M162 0v1450h258v-614h12l600 614h348l-678 -670l723 -780h-362l-629 713h-14v-713h-258zM434 -528l144 405h250l-175 -405h-219z" />
<glyph unicode="&#x137;" horiz-adv-x="1099" d="M139 0v1548h246v-973l379 408h315l-422 -446l449 -537h-326l-391 502h-4v-502h-246zM290 -528l144 405h250l-175 -405h-219z" />
<glyph unicode="&#x139;" horiz-adv-x="1062" d="M135 1548l203 295h278l-289 -295h-192zM162 0v1450h258v-1217h616v-233h-874z" />
<glyph unicode="&#x13a;" horiz-adv-x="532" d="M113 1630l203 295h278l-289 -295h-192zM143 0v1548h246v-1548h-246z" />
<glyph unicode="&#x13b;" horiz-adv-x="1062" d="M162 0v1450h258v-1217h616v-233h-874zM321 -528l144 405h250l-175 -405h-219z" />
<glyph unicode="&#x13c;" horiz-adv-x="532" d="M39 -528l144 405h250l-175 -405h-219zM143 0v1548h246v-1548h-246z" />
<glyph unicode="&#x13d;" horiz-adv-x="1062" d="M162 0v1450h258v-1217h616v-233h-874zM528 1044l123 406h250l-174 -406h-199z" />
<glyph unicode="&#x13e;" horiz-adv-x="532" d="M143 0v1548h246v-1548h-246zM506 1044l123 406h250l-174 -406h-199z" />
<glyph unicode="&#x13f;" horiz-adv-x="1062" d="M162 0v1450h258v-1217h616v-233h-874zM689 779q0 59 44 103t111 44q68 0 114 -42t46 -105t-46 -105.5t-114 -42.5t-111.5 44.5t-43.5 103.5z" />
<glyph unicode="&#x140;" horiz-adv-x="786" d="M143 0v1548h246v-1548h-246zM496 781q0 59 44 103t111 44q68 0 114 -42t46 -105t-46 -105.5t-114 -42.5t-111.5 44.5t-43.5 103.5z" />
<glyph unicode="&#x141;" horiz-adv-x="1062" d="M18 256v225l144 127v842h258v-614l422 370v-223l-422 -373v-377h616v-233h-874v383z" />
<glyph unicode="&#x142;" horiz-adv-x="532" d="M2 418v223l141 141v766h246v-522l141 141v-219l-141 -139v-809h-246v559z" />
<glyph unicode="&#x143;" horiz-adv-x="1630" d="M162 0v1450h342l702 -1077h4v1077h258v-1450h-327l-717 1112h-4v-1112h-258zM705 1548l203 295h278l-289 -295h-192z" />
<glyph unicode="&#x144;" d="M139 0v983h234v-158h4q35 74 106.5 128.5t194.5 54.5q98 0 166.5 -33t111.5 -86t61.5 -123t18.5 -145v-621h-245v498q0 41 -4.5 91t-21.5 94t-54 73.5t-101 29.5q-61 0 -103 -20.5t-69.5 -55t-40 -79.5t-12.5 -94v-537h-246zM430 1155l203 295h278l-289 -295h-192z" />
<glyph unicode="&#x145;" horiz-adv-x="1630" d="M162 0v1450h342l702 -1077h4v1077h258v-1450h-327l-717 1112h-4v-1112h-258zM534 -528l144 405h250l-175 -405h-219z" />
<glyph unicode="&#x146;" d="M139 0v983h234v-158h4q35 74 106.5 128.5t194.5 54.5q98 0 166.5 -33t111.5 -86t61.5 -123t18.5 -145v-621h-245v498q0 41 -4.5 91t-21.5 94t-54 73.5t-101 29.5q-61 0 -103 -20.5t-69.5 -55t-40 -79.5t-12.5 -94v-537h-246zM327 -528l144 405h250l-175 -405h-219z" />
<glyph unicode="&#x147;" horiz-adv-x="1630" d="M162 0v1450h342l702 -1077h4v1077h258v-1450h-327l-717 1112h-4v-1112h-258zM443 1843h233l141 -184l142 184h225l-236 -295h-272z" />
<glyph unicode="&#x148;" d="M139 0v983h234v-158h4q35 74 106.5 128.5t194.5 54.5q98 0 166.5 -33t111.5 -86t61.5 -123t18.5 -145v-621h-245v498q0 41 -4.5 91t-21.5 94t-54 73.5t-101 29.5q-61 0 -103 -20.5t-69.5 -55t-40 -79.5t-12.5 -94v-537h-246zM228 1450h233l141 -184l142 184h225 l-236 -295h-272z" />
<glyph unicode="&#x149;" d="M-125 1044l123 406h250l-174 -406h-199zM139 0v983h234v-158h4q35 74 106.5 128.5t194.5 54.5q98 0 166.5 -33t111.5 -86t61.5 -123t18.5 -145v-621h-245v498q0 41 -4.5 91t-21.5 94t-54 73.5t-101 29.5q-61 0 -103 -20.5t-69.5 -55t-40 -79.5t-12.5 -94v-537h-246z" />
<glyph unicode="&#x14c;" horiz-adv-x="1705" d="M84 719q0 174 57.5 316.5t158.5 242.5t241.5 154.5t308.5 54.5q170 2 311.5 -50.5t243.5 -152.5t159.5 -241.5t57.5 -315.5q0 -170 -57.5 -309t-159.5 -239.5t-243.5 -157t-311.5 -58.5q-168 0 -308.5 54.5t-241.5 153.5t-158.5 238.5t-57.5 309.5zM354 735 q0 -117 36 -215t101.5 -169.5t156.5 -112.5t204 -41t205 41t157.5 112.5t101.5 169.5t36 215q0 109 -36 203t-101.5 165t-157.5 110.5t-205 39.5t-204 -39.5t-156.5 -110.5t-101.5 -165t-36 -203zM523 1612v160h655v-160h-655z" />
<glyph unicode="&#x14d;" horiz-adv-x="1249" d="M90 492q0 117 42 212t113.5 162.5t170 104.5t209.5 37t209 -37t169.5 -104.5t113.5 -163t42 -211.5q0 -117 -42 -212.5t-113.5 -163t-170 -104.5t-208.5 -37q-111 0 -209.5 37t-170 104.5t-113.5 163t-42 212.5zM297 1219v159h655v-159h-655zM336 492q0 -57 19.5 -110.5 t57.5 -94.5t91 -65.5t121 -24.5t121 24.5t90.5 65.5t57 94t19.5 111q0 57 -19.5 110t-57 94t-91 65.5t-120.5 24.5q-68 0 -121 -24.5t-91 -65.5t-57.5 -94t-19.5 -110z" />
<glyph unicode="&#x14e;" horiz-adv-x="1705" d="M84 719q0 174 57.5 316.5t158.5 242.5t241.5 154.5t308.5 54.5q170 2 311.5 -50.5t243.5 -152.5t159.5 -241.5t57.5 -315.5q0 -170 -57.5 -309t-159.5 -239.5t-243.5 -157t-311.5 -58.5q-168 0 -308.5 54.5t-241.5 153.5t-158.5 238.5t-57.5 309.5zM354 735 q0 -117 36 -215t101.5 -169.5t156.5 -112.5t204 -41t205 41t157.5 112.5t101.5 169.5t36 215q0 109 -36 203t-101.5 165t-157.5 110.5t-205 39.5t-204 -39.5t-156.5 -110.5t-101.5 -165t-36 -203zM502 1843h137q14 -78 73.5 -106.5t137.5 -28.5q88 0 139.5 24.5t73.5 110.5 h135q-16 -154 -109 -224.5t-241 -70.5q-147 0 -241.5 71t-104.5 224z" />
<glyph unicode="&#x14f;" horiz-adv-x="1249" d="M90 492q0 117 42 212t113.5 162.5t170 104.5t209.5 37t209 -37t169.5 -104.5t113.5 -163t42 -211.5q0 -117 -42 -212.5t-113.5 -163t-170 -104.5t-208.5 -37q-111 0 -209.5 37t-170 104.5t-113.5 163t-42 212.5zM280 1450h137q14 -78 73.5 -106.5t137.5 -28.5 q88 0 139.5 24.5t73.5 110.5h135q-16 -152 -109 -223.5t-241 -71.5q-147 0 -241.5 70.5t-104.5 224.5zM336 492q0 -57 19.5 -110.5t57.5 -94.5t91 -65.5t121 -24.5t121 24.5t90.5 65.5t57 94t19.5 111q0 57 -19.5 110t-57 94t-91 65.5t-120.5 24.5q-68 0 -121 -24.5 t-91 -65.5t-57.5 -94t-19.5 -110z" />
<glyph unicode="&#x150;" horiz-adv-x="1705" d="M84 719q0 174 57.5 316.5t158.5 242.5t241.5 154.5t308.5 54.5q170 2 311.5 -50.5t243.5 -152.5t159.5 -241.5t57.5 -315.5q0 -170 -57.5 -309t-159.5 -239.5t-243.5 -157t-311.5 -58.5q-168 0 -308.5 54.5t-241.5 153.5t-158.5 238.5t-57.5 309.5zM354 735 q0 -117 36 -215t101.5 -169.5t156.5 -112.5t204 -41t205 41t157.5 112.5t101.5 169.5t36 215q0 109 -36 203t-101.5 165t-157.5 110.5t-205 39.5t-204 -39.5t-156.5 -110.5t-101.5 -165t-36 -203zM541 1548l203 295h278l-288 -295h-193zM961 1548l203 295h278l-289 -295 h-192z" />
<glyph unicode="&#x151;" horiz-adv-x="1249" d="M90 492q0 117 42 212t113.5 162.5t170 104.5t209.5 37t209 -37t169.5 -104.5t113.5 -163t42 -211.5q0 -117 -42 -212.5t-113.5 -163t-170 -104.5t-208.5 -37q-111 0 -209.5 37t-170 104.5t-113.5 163t-42 212.5zM295 1155l203 295h278l-288 -295h-193zM336 492 q0 -57 19.5 -110.5t57.5 -94.5t91 -65.5t121 -24.5t121 24.5t90.5 65.5t57 94t19.5 111q0 57 -19.5 110t-57 94t-91 65.5t-120.5 24.5q-68 0 -121 -24.5t-91 -65.5t-57.5 -94t-19.5 -110zM715 1155l203 295h278l-289 -295h-192z" />
<glyph unicode="&#x152;" horiz-adv-x="2048" d="M102 725q0 156 55.5 288t162 229t259 152.5t349.5 55.5h983v-233h-590v-357h553v-233h-553v-394h625v-233h-1018q-197 0 -349.5 55.5t-259 153.5t-162 230t-55.5 286zM385 725q0 -98 27.5 -174t72.5 -130t103.5 -90t119 -57.5t120 -31t106.5 -9.5h129v984h-129 q-47 0 -106.5 -9.5t-120 -31t-119 -57.5t-103.5 -90t-72.5 -130t-27.5 -174z" />
<glyph unicode="&#x153;" horiz-adv-x="1896" d="M74 492q0 117 42 212t113.5 162.5t170 104.5t208.5 37q111 0 207 -39t170 -121q66 82 160 121t205 39q119 0 208 -41t148 -112t88 -166t29 -204v-67h-717q-2 -55 20.5 -100.5t58.5 -78t79 -50t82 -17.5q92 0 153.5 38t108.5 95l170 -121q-82 -115 -189.5 -162t-242.5 -47 q-123 0 -215.5 41t-149.5 117q-74 -82 -169 -120t-204 -38q-111 0 -209 37t-169.5 104.5t-113.5 163t-42 212.5zM319 492q0 -61 19.5 -118t57.5 -99t91.5 -66.5t120.5 -24.5q70 0 124 24.5t92 66.5t57.5 98.5t19.5 118.5q0 61 -19.5 117.5t-57.5 98.5t-92 66.5t-124 24.5 q-68 0 -121 -24.5t-91 -66.5t-57.5 -98.5t-19.5 -117.5zM1098 590h479q-2 109 -65.5 171t-161.5 62q-43 0 -88 -15t-81 -44t-58.5 -73t-24.5 -101z" />
<glyph unicode="&#x154;" horiz-adv-x="1290" d="M162 0v1450h504q104 0 201.5 -19.5t173 -66.5t120.5 -127t45 -203q0 -158 -87 -264t-249 -129l385 -641h-311l-336 614h-188v-614h-258zM420 836h201q55 0 110 5t101.5 24.5t75 59.5t28.5 111q0 63 -26.5 102.5t-69.5 59t-95.5 25.5t-101.5 6h-223v-393zM430 1548 l203 295h278l-289 -295h-192z" />
<glyph unicode="&#x155;" horiz-adv-x="796" d="M139 0v983h246v-156h4q41 86 117 133.5t174 47.5q23 0 44 -4.5t44 -10.5v-237q-31 8 -60.5 13t-58.5 5q-86 0 -138 -31.5t-80 -72.5t-37 -82t-9 -62v-526h-246zM272 1155l203 295h278l-289 -295h-192z" />
<glyph unicode="&#x156;" horiz-adv-x="1290" d="M162 0v1450h504q104 0 201.5 -19.5t173 -66.5t120.5 -127t45 -203q0 -158 -87 -264t-249 -129l385 -641h-311l-336 614h-188v-614h-258zM350 -528l144 405h250l-175 -405h-219zM420 836h201q55 0 110 5t101.5 24.5t75 59.5t28.5 111q0 63 -26.5 102.5t-69.5 59 t-95.5 25.5t-101.5 6h-223v-393z" />
<glyph unicode="&#x157;" horiz-adv-x="796" d="M129 -528l144 405h250l-175 -405h-219zM139 0v983h246v-156h4q41 86 117 133.5t174 47.5q23 0 44 -4.5t44 -10.5v-237q-31 8 -60.5 13t-58.5 5q-86 0 -138 -31.5t-80 -72.5t-37 -82t-9 -62v-526h-246z" />
<glyph unicode="&#x158;" horiz-adv-x="1290" d="M162 0v1450h504q104 0 201.5 -19.5t173 -66.5t120.5 -127t45 -203q0 -158 -87 -264t-249 -129l385 -641h-311l-336 614h-188v-614h-258zM277 1843h233l141 -184l142 184h225l-236 -295h-272zM420 836h201q55 0 110 5t101.5 24.5t75 59.5t28.5 111q0 63 -26.5 102.5 t-69.5 59t-95.5 25.5t-101.5 6h-223v-393z" />
<glyph unicode="&#x159;" horiz-adv-x="796" d="M56 1450h233l141 -184l142 184h225l-236 -295h-272zM139 0v983h246v-156h4q41 86 117 133.5t174 47.5q23 0 44 -4.5t44 -10.5v-237q-31 8 -60.5 13t-58.5 5q-86 0 -138 -31.5t-80 -72.5t-37 -82t-9 -62v-526h-246z" />
<glyph unicode="&#x15a;" d="M63 160l195 188q47 -72 124 -111.5t163 -39.5q45 0 90 12t82 36.5t59.5 62.5t22.5 87q0 80 -51.5 123t-127 73t-165.5 56.5t-166 72.5t-127 123t-51 206q0 113 46 194.5t120.5 136t171 81t196.5 26.5q115 0 222.5 -35t193.5 -115l-189 -198q-41 59 -109.5 86.5 t-144.5 27.5q-45 0 -87 -10t-75.5 -32.5t-54 -58.5t-20.5 -85q0 -74 51 -113t127 -67.5t166 -55t166 -73.5t127 -125t51 -207q0 -117 -43 -204t-115.5 -144.5t-169 -86t-202.5 -28.5q-135 0 -260 45t-216 152zM477 1548l203 295h278l-289 -295h-192z" />
<glyph unicode="&#x15b;" horiz-adv-x="909" d="M51 127l164 154q47 -53 101.5 -87t132.5 -34q27 0 55 6t53 20.5t40 36t15 49.5q0 51 -38.5 76t-98 40t-128 28.5t-128 43t-98.5 83t-39 147.5q0 82 34 142.5t89 99.5t126.5 57.5t145.5 18.5q98 0 194.5 -34t155.5 -116l-163 -147q-72 100 -193 100q-49 0 -96 -24.5 t-47 -79.5q0 -45 39 -65.5t98 -35t128 -30t128 -47t98 -87t39 -151.5q0 -88 -38 -148.5t-98 -97.5t-136 -53.5t-152 -16.5q-115 0 -211 33t-172 119zM322 1155l203 295h278l-289 -295h-192z" />
<glyph unicode="&#x15c;" d="M63 160l195 188q47 -72 124 -111.5t163 -39.5q45 0 90 12t82 36.5t59.5 62.5t22.5 87q0 80 -51.5 123t-127 73t-165.5 56.5t-166 72.5t-127 123t-51 206q0 113 46 194.5t120.5 136t171 81t196.5 26.5q115 0 222.5 -35t193.5 -115l-189 -198q-41 59 -109.5 86.5 t-144.5 27.5q-45 0 -87 -10t-75.5 -32.5t-54 -58.5t-20.5 -85q0 -74 51 -113t127 -67.5t166 -55t166 -73.5t127 -125t51 -207q0 -117 -43 -204t-115.5 -144.5t-169 -86t-202.5 -28.5q-135 0 -260 45t-216 152zM246 1548l235 295h277l233 -295h-233l-142 185l-141 -185h-229z " />
<glyph unicode="&#x15d;" horiz-adv-x="909" d="M51 127l164 154q47 -53 101.5 -87t132.5 -34q27 0 55 6t53 20.5t40 36t15 49.5q0 51 -38.5 76t-98 40t-128 28.5t-128 43t-98.5 83t-39 147.5q0 82 34 142.5t89 99.5t126.5 57.5t145.5 18.5q98 0 194.5 -34t155.5 -116l-163 -147q-72 100 -193 100q-49 0 -96 -24.5 t-47 -79.5q0 -45 39 -65.5t98 -35t128 -30t128 -47t98 -87t39 -151.5q0 -88 -38 -148.5t-98 -97.5t-136 -53.5t-152 -16.5q-115 0 -211 33t-172 119zM111 1155l235 295h277l233 -295h-233l-142 184l-141 -184h-229z" />
<glyph unicode="&#x15e;" d="M63 160l195 188q47 -72 124 -111.5t163 -39.5q45 0 90 12t82 36.5t59.5 62.5t22.5 87q0 80 -51.5 123t-127 73t-165.5 56.5t-166 72.5t-127 123t-51 206q0 113 46 194.5t120.5 136t171 81t196.5 26.5q117 0 223.5 -35t192.5 -115l-189 -198q-41 59 -109.5 86.5 t-144.5 27.5q-45 0 -87 -10t-75.5 -32.5t-54 -58.5t-20.5 -85q0 -74 51 -113t127 -67.5t166 -55t166 -73.5t127 -125t51 -207q0 -104 -35 -185t-94 -137.5t-140 -90t-173 -44.5l-64 -92q45 0 89 -4t80 -21.5t57.5 -51t21.5 -93.5q0 -55 -27.5 -94t-68.5 -61.5t-92.5 -33 t-96.5 -10.5q-117 0 -217 58l45 94q78 -41 168 -41q16 0 37 4t38 13.5t29.5 27t12.5 41.5q0 41 -36 57.5t-68 16.5q-20 0 -39 -4t-37 -11l-56 52l103 147q-129 4 -242.5 50t-200.5 147z" />
<glyph unicode="&#x15f;" horiz-adv-x="909" d="M51 127l164 154q47 -53 101.5 -87t132.5 -34q27 0 55 6t53 20.5t40 36t15 49.5q0 51 -38.5 76t-98 40t-128 28.5t-128 43t-98.5 83t-39 147.5q0 82 34 142.5t89 99.5t126.5 57.5t145.5 18.5q98 0 194.5 -34t155.5 -116l-163 -147q-70 100 -193 100q-49 0 -96 -24.5 t-47 -79.5q0 -45 39 -65.5t98 -35t128 -30t128 -47t98 -87t39 -151.5q0 -74 -26.5 -127t-71.5 -91t-103.5 -59.5t-121.5 -29.5l-74 -107q45 0 89 -4t80 -21.5t57.5 -51t21.5 -93.5q0 -55 -28 -94t-69 -61.5t-92 -33t-96 -10.5q-117 0 -217 58l45 94q78 -41 168 -41 q16 0 36.5 4t38 13.5t30 27t12.5 41.5q0 41 -36 57.5t-69 16.5q-20 0 -38.5 -4t-37.5 -11l-55 52l109 159q-106 4 -196.5 38t-162.5 114z" />
<glyph unicode="&#x160;" d="M63 160l195 188q47 -72 124 -111.5t163 -39.5q45 0 90 12t82 36.5t59.5 62.5t22.5 87q0 80 -51.5 123t-127 73t-165.5 56.5t-166 72.5t-127 123t-51 206q0 113 46 194.5t120.5 136t171 81t196.5 26.5q115 0 222.5 -35t193.5 -115l-189 -198q-41 59 -109.5 86.5 t-144.5 27.5q-45 0 -87 -10t-75.5 -32.5t-54 -58.5t-20.5 -85q0 -74 51 -113t127 -67.5t166 -55t166 -73.5t127 -125t51 -207q0 -117 -43 -204t-115.5 -144.5t-169 -86t-202.5 -28.5q-135 0 -260 45t-216 152zM218 1843h233l141 -184l142 184h225l-236 -295h-272z" />
<glyph unicode="&#x161;" horiz-adv-x="909" d="M51 127l164 154q47 -53 101.5 -87t132.5 -34q27 0 55 6t53 20.5t40 36t15 49.5q0 51 -38.5 76t-98 40t-128 28.5t-128 43t-98.5 83t-39 147.5q0 82 34 142.5t89 99.5t126.5 57.5t145.5 18.5q98 0 194.5 -34t155.5 -116l-163 -147q-72 100 -193 100q-49 0 -96 -24.5 t-47 -79.5q0 -45 39 -65.5t98 -35t128 -30t128 -47t98 -87t39 -151.5q0 -88 -38 -148.5t-98 -97.5t-136 -53.5t-152 -16.5q-115 0 -211 33t-172 119zM84 1450h233l141 -184l142 184h225l-236 -295h-272z" />
<glyph unicode="&#x162;" d="M14 1217v233h1147v-233h-444v-1217h-258v1217h-445zM287 -434l45 94q78 -41 168 -41q16 0 36.5 4t38 13.5t29.5 27t12 41.5q0 41 -35.5 57.5t-68.5 16.5q-20 0 -39 -4t-37 -11l-55 52l127 184h118l-86 -123q45 0 89.5 -4t80 -21.5t57 -51t21.5 -93.5q0 -55 -27.5 -94 t-68.5 -61.5t-92 -33t-96 -10.5q-115 0 -217 58z" />
<glyph unicode="&#x163;" horiz-adv-x="796" d="M25 774v209h202v285h246v-285h270v-209h-270v-430q0 -74 27.5 -117t109.5 -43q33 0 72 7.5t61 23.5v-207q-39 -18 -95 -25.5t-99 -7.5q-98 0 -160.5 21.5t-98.5 65.5t-49.5 110t-13.5 152v450h-202zM205 -434l45 94q78 -41 168 -41q16 0 36.5 4t38 13.5t29.5 27t12 41.5 q0 41 -35.5 57.5t-68.5 16.5q-20 0 -39 -4t-37 -11l-55 52l127 184h118l-86 -123q45 0 89.5 -4t80 -21.5t57 -51t21.5 -93.5q0 -55 -27.5 -94t-68.5 -61.5t-92 -33t-96 -10.5q-115 0 -217 58z" />
<glyph unicode="&#x164;" d="M14 1217v233h1147v-233h-444v-1217h-258v1217h-445zM218 1843h233l141 -184l142 184h225l-236 -295h-272z" />
<glyph unicode="&#x165;" horiz-adv-x="796" d="M25 774v209h202v285h246v-285h270v-209h-270v-430q0 -74 27.5 -117t109.5 -43q33 0 72 7.5t61 23.5v-207q-39 -18 -95 -25.5t-99 -7.5q-98 0 -160.5 21.5t-98.5 65.5t-49.5 110t-13.5 152v450h-202zM581 1126l123 406h250l-174 -406h-199z" />
<glyph unicode="&#x166;" d="M14 1217v233h1147v-233h-444v-230h307v-160h-307v-827h-258v827h-295v160h295v230h-445z" />
<glyph unicode="&#x167;" horiz-adv-x="796" d="M25 774v209h202v285h246v-285h270v-209h-270v-125h215v-160h-215v-145q0 -74 27.5 -117t109.5 -43q33 0 72 7.5t61 23.5v-207q-39 -18 -95 -25.5t-99 -7.5q-98 0 -160.5 21.5t-98.5 65.5t-49.5 110t-13.5 152v165h-153v160h153v125h-202z" />
<glyph unicode="&#x168;" horiz-adv-x="1478" d="M156 532v918h258v-909q0 -53 16 -111.5t54 -108t100.5 -81t154.5 -31.5t154.5 31.5t100.5 81t54.5 107.5t16.5 112v909h258v-918q0 -131 -45 -236.5t-123 -179t-184.5 -113.5t-231.5 -40t-231.5 40t-185 113.5t-122.5 179t-44 236.5zM372 1556q8 49 23.5 96.5t42.5 83.5 t66.5 58.5t97.5 22.5q41 0 83 -12.5t81 -26t72.5 -25.5t58.5 -12q41 0 62.5 25.5t31.5 60.5h135q-8 -49 -23.5 -96.5t-42 -83t-66.5 -58t-97 -22.5q-41 0 -83 12t-81 26.5t-73 27t-58 12.5q-41 0 -62.5 -27t-31.5 -62h-136z" />
<glyph unicode="&#x169;" d="M139 362v621h246v-498q0 -41 4 -91t21.5 -94t53.5 -73.5t101 -29.5q61 0 103.5 20.5t70 55t40 79.5t12.5 94v537h245v-983h-233v158h-4q-35 -74 -106.5 -128.5t-194.5 -54.5q-98 0 -167 32t-112 86t-61.5 124t-18.5 145zM217 1163q8 49 23.5 96.5t42.5 83t66.5 58 t97.5 22.5q41 0 83 -12t81 -25.5t72.5 -25.5t58.5 -12q41 0 62.5 25.5t31.5 60.5h135q-8 -49 -23.5 -96.5t-42 -83t-66.5 -58t-97 -22.5q-41 0 -83 12t-81 26.5t-73 26.5t-58 12q-41 0 -62.5 -26.5t-31.5 -61.5h-136z" />
<glyph unicode="&#x16a;" horiz-adv-x="1478" d="M156 532v918h258v-909q0 -53 16 -111.5t54 -108t100.5 -81t154.5 -31.5t154.5 31.5t100.5 81t54.5 107.5t16.5 112v909h258v-918q0 -131 -45 -236.5t-123 -179t-184.5 -113.5t-231.5 -40t-231.5 40t-185 113.5t-122.5 179t-44 236.5zM404 1612v160h655v-160h-655z" />
<glyph unicode="&#x16b;" d="M139 362v621h246v-498q0 -41 4 -91t21.5 -94t53.5 -73.5t101 -29.5q61 0 103.5 20.5t70 55t40 79.5t12.5 94v537h245v-983h-233v158h-4q-35 -74 -106.5 -128.5t-194.5 -54.5q-98 0 -167 32t-112 86t-61.5 124t-18.5 145zM258 1219v159h655v-159h-655z" />
<glyph unicode="&#x16c;" horiz-adv-x="1478" d="M156 532v918h258v-909q0 -53 16 -111.5t54 -108t100.5 -81t154.5 -31.5t154.5 31.5t100.5 81t54.5 107.5t16.5 112v909h258v-918q0 -131 -45 -236.5t-123 -179t-184.5 -113.5t-231.5 -40t-231.5 40t-185 113.5t-122.5 179t-44 236.5zM383 1843h137q14 -78 73.5 -106.5 t137.5 -28.5q88 0 139.5 24.5t73.5 110.5h135q-16 -154 -109 -224.5t-241 -70.5q-147 0 -241.5 71t-104.5 224z" />
<glyph unicode="&#x16d;" d="M139 362v621h246v-498q0 -41 4 -91t21.5 -94t53.5 -73.5t101 -29.5q61 0 103.5 20.5t70 55t40 79.5t12.5 94v537h245v-983h-233v158h-4q-35 -74 -106.5 -128.5t-194.5 -54.5q-98 0 -167 32t-112 86t-61.5 124t-18.5 145zM244 1450h137q14 -78 73.5 -106.5t137.5 -28.5 q88 0 139.5 24.5t73.5 110.5h135q-16 -152 -109 -223.5t-241 -71.5q-147 0 -241.5 70.5t-104.5 224.5z" />
<glyph unicode="&#x16e;" horiz-adv-x="1478" d="M156 532v918h258v-909q0 -53 16 -111.5t54 -108t100.5 -81t154.5 -31.5t154.5 31.5t100.5 81t54.5 107.5t16.5 112v909h258v-918q0 -131 -45 -236.5t-123 -179t-184.5 -113.5t-231.5 -40t-231.5 40t-185 113.5t-122.5 179t-44 236.5zM526 1712q0 45 16.5 84t45 66.5 t67.5 44t86 16.5q92 0 153.5 -58.5t61.5 -150.5t-61.5 -150.5t-153.5 -58.5t-153.5 57.5t-61.5 149.5zM625 1714q0 -47 34.5 -78.5t81.5 -31.5t82 30.5t35 79.5q0 47 -35 79t-82 32t-81.5 -32t-34.5 -79z" />
<glyph unicode="&#x16f;" d="M139 362v621h246v-498q0 -41 4 -91t21.5 -94t53.5 -73.5t101 -29.5q61 0 103.5 20.5t70 55t40 79.5t12.5 94v537h245v-983h-233v158h-4q-35 -74 -106.5 -128.5t-194.5 -54.5q-98 0 -167 32t-112 86t-61.5 124t-18.5 145zM366 1339q0 45 16.5 84t45 67t67.5 44t86 16 q92 0 153.5 -58.5t61.5 -150.5t-61.5 -150t-153.5 -58t-153.5 58t-61.5 148zM465 1341q0 -47 34.5 -78.5t81.5 -31.5t82 30.5t35 79.5q0 47 -35 79t-82 32t-81.5 -31.5t-34.5 -79.5z" />
<glyph unicode="&#x170;" horiz-adv-x="1478" d="M156 532v918h258v-909q0 -53 16 -111.5t54 -108t100.5 -81t154.5 -31.5t154.5 31.5t100.5 81t54.5 107.5t16.5 112v909h258v-918q0 -131 -45 -236.5t-123 -179t-184.5 -113.5t-231.5 -40t-231.5 40t-185 113.5t-122.5 179t-44 236.5zM420 1548l203 295h278l-288 -295 h-193zM840 1548l203 295h278l-289 -295h-192z" />
<glyph unicode="&#x171;" d="M139 362v621h246v-498q0 -41 4 -91t21.5 -94t53.5 -73.5t101 -29.5q61 0 103.5 20.5t70 55t40 79.5t12.5 94v537h245v-983h-233v158h-4q-35 -74 -106.5 -128.5t-194.5 -54.5q-98 0 -167 32t-112 86t-61.5 124t-18.5 145zM256 1155l203 295h278l-288 -295h-193zM676 1155 l203 295h278l-289 -295h-192z" />
<glyph unicode="&#x172;" horiz-adv-x="1478" d="M156 532v918h258v-909q0 -53 16 -111.5t54 -108t100.5 -81t154.5 -31.5t154.5 31.5t100.5 81t54.5 107.5t16.5 112v909h258v-918q0 -117 -36 -214t-99.5 -168.5t-151.5 -117.5t-192 -61q-23 -23 -45.5 -50t-40 -56t-28.5 -58.5t-11 -56.5q0 -39 27.5 -66.5t66.5 -27.5 q29 0 58.5 12.5t52.5 30.5l51 -100q-43 -35 -95.5 -56.5t-109.5 -21.5q-41 0 -79 11t-67.5 34.5t-47 57.5t-17.5 79q0 70 45 139.5t103 122.5q-119 6 -219.5 48t-174 115t-115.5 175.5t-42 228.5z" />
<glyph unicode="&#x173;" d="M139 362v621h246v-498q0 -41 4 -91t21.5 -94t53.5 -73.5t101 -29.5q61 0 103.5 20.5t70 55t40 79.5t12.5 94v537h245v-983h-106q-25 -23 -51.5 -52.5t-50 -63.5t-39 -68.5t-15.5 -65.5q0 -39 27.5 -66.5t66.5 -27.5q29 0 58.5 12.5t52.5 30.5l51 -100q-43 -35 -95 -56.5 t-110 -21.5q-41 0 -78.5 11t-67.5 34.5t-47.5 57.5t-17.5 79q0 41 17.5 83t45.5 81t60.5 72.5t65.5 60.5v158h-4q-35 -74 -106.5 -128.5t-194.5 -54.5q-98 0 -167 32t-112 86t-61.5 124t-18.5 145z" />
<glyph unicode="&#x174;" horiz-adv-x="2009" d="M0 1450h283l272 -1044h4l326 1044h254l319 -1044h4l285 1044h262l-422 -1450h-246l-335 1104h-5l-335 -1104h-238zM633 1548l235 295h277l233 -295h-233l-142 185l-141 -185h-229z" />
<glyph unicode="&#x175;" horiz-adv-x="1630" d="M6 983h266l213 -688h4l199 688h266l213 -688h4l205 688h248l-334 -983h-243l-234 672h-4l-207 -672h-254zM439 1155l235 295h277l233 -295h-233l-142 184l-141 -184h-229z" />
<glyph unicode="&#x176;" horiz-adv-x="1290" d="M-29 1450h324l356 -578l361 578h307l-545 -829v-621h-258v621zM279 1548l235 295h277l233 -295h-233l-142 185l-141 -185h-229z" />
<glyph unicode="&#x177;" horiz-adv-x="1062" d="M6 983h270l275 -682h4l246 682h256l-465 -1194q-27 -70 -58.5 -122t-74.5 -88t-101.5 -53.5t-140.5 -17.5q-96 0 -188 25l30 221q29 -10 61 -17t64 -7q45 0 76 8t52.5 25.5t35.5 45t31 66.5l47 117zM179 1155l235 295h277l233 -295h-233l-142 184l-141 -184h-229z" />
<glyph unicode="&#x178;" horiz-adv-x="1290" d="M-29 1450h324l356 -578l361 578h307l-545 -829v-621h-258v621zM277 1696q0 59 44 103t111 44q68 0 114 -42t46 -105t-46 -105.5t-114 -42.5t-111.5 44.5t-43.5 103.5zM698 1696q0 59 44.5 103t111.5 44q68 0 114 -42t46 -105t-46 -105.5t-114 -42.5t-112 44.5t-44 103.5z " />
<glyph unicode="&#x179;" horiz-adv-x="1251" d="M72 0v233l774 984h-762v233h1083v-233l-780 -984h793v-233h-1108zM494 1548l203 295h278l-289 -295h-192z" />
<glyph unicode="&#x17a;" horiz-adv-x="987" d="M70 0v227l526 555v4h-502v197h799v-223l-533 -563h558v-197h-848zM358 1155l203 295h278l-289 -295h-192z" />
<glyph unicode="&#x17b;" horiz-adv-x="1251" d="M72 0v233l774 984h-762v233h1083v-233l-780 -984h793v-233h-1108zM517 1696q0 59 44 103t111 44q68 0 114 -42t46 -105t-46 -105.5t-114 -42.5t-111.5 44.5t-43.5 103.5z" />
<glyph unicode="&#x17c;" horiz-adv-x="987" d="M70 0v227l526 555v4h-502v197h799v-223l-533 -563h558v-197h-848zM379 1303q0 59 44 103t111 44q68 0 114 -42t46 -105t-46 -105.5t-114 -42.5t-111.5 44.5t-43.5 103.5z" />
<glyph unicode="&#x17d;" horiz-adv-x="1251" d="M72 0v233l774 984h-762v233h1083v-233l-780 -984h793v-233h-1108zM256 1843h233l141 -184l142 184h225l-236 -295h-272z" />
<glyph unicode="&#x17e;" horiz-adv-x="987" d="M70 0v227l526 555v4h-502v197h799v-223l-533 -563h558v-197h-848zM123 1450h233l141 -184l142 184h225l-236 -295h-272z" />
<glyph unicode="&#x192;" horiz-adv-x="1212" d="M-8 -236l92 189q20 -14 46 -21.5t50 -7.5q80 0 113 60.5t51 152.5l109 551h-232v184h268l46 228q14 76 40.5 144.5t69.5 119.5t105.5 81t152.5 30q66 0 124 -16.5t116 -47.5l-94 -190q-55 33 -113 32q-45 0 -73.5 -19.5t-47 -49t-28 -66.5t-17.5 -74l-37 -172h250v-184 h-283l-116 -590q-39 -197 -131.5 -290t-251.5 -93q-53 0 -107.5 12.5t-101.5 36.5z" />
<glyph unicode="&#x2c6;" horiz-adv-x="532" d="M-106 1155l235 295h277l233 -295h-233l-142 184l-141 -184h-229z" />
<glyph unicode="&#x2c7;" horiz-adv-x="532" d="M-104 1450h233l141 -184l142 184h225l-236 -295h-272z" />
<glyph unicode="&#x2d8;" horiz-adv-x="532" d="M-82 1450h137q14 -78 73.5 -106.5t137.5 -28.5q88 0 139.5 24.5t73.5 110.5h135q-16 -152 -109 -223.5t-241 -71.5q-147 0 -241.5 70.5t-104.5 224.5z" />
<glyph unicode="&#x2d9;" horiz-adv-x="532" d="M109 1303q0 59 44 103t111 44q68 0 114 -42t46 -105t-46 -105.5t-114 -42.5t-111.5 44.5t-43.5 103.5z" />
<glyph unicode="&#x2da;" horiz-adv-x="532" d="M51 1339q0 45 16.5 84t45 67t67.5 44t86 16q92 0 153.5 -58.5t61.5 -150.5t-61.5 -150t-153.5 -58t-153.5 58t-61.5 148zM150 1341q0 -47 34.5 -78.5t81.5 -31.5t82 30.5t35 79.5q0 47 -35 79t-82 32t-81.5 -31.5t-34.5 -79.5z" />
<glyph unicode="&#x2db;" horiz-adv-x="532" d="M-2 -297q0 43 19.5 88t50 85t66.5 76t69 60h125q-25 -20 -53.5 -51t-55 -66.5t-44 -73.5t-17.5 -71q0 -39 27.5 -66.5t66.5 -27.5q29 0 58.5 12.5t51.5 30.5l52 -100q-43 -35 -95.5 -56.5t-109.5 -21.5q-41 0 -79 11t-67.5 34.5t-47 57.5t-17.5 79z" />
<glyph unicode="&#x2dc;" horiz-adv-x="532" d="M-111 1163q8 49 23.5 96.5t42.5 83t66.5 58t97.5 22.5q41 0 83 -12t81 -25.5t72.5 -25.5t58.5 -12q41 0 62.5 25.5t31.5 60.5h135q-8 -49 -23.5 -96.5t-42 -83t-66.5 -58t-97 -22.5q-41 0 -83 12t-81 26.5t-73 26.5t-58 12q-41 0 -62.5 -26.5t-31.5 -61.5h-136z" />
<glyph unicode="&#x2dd;" horiz-adv-x="532" d="M-41 1155l203 295h278l-288 -295h-193zM379 1155l203 295h278l-289 -295h-192z" />
<glyph unicode="&#x3a9;" horiz-adv-x="1611" d="M74 831q0 152 58 274t159.5 207t237 130t288.5 45q152 0 284 -47t229 -133t153.5 -206t56.5 -267q0 -109 -39 -203t-100.5 -168t-138 -122t-152.5 -62v-72h399v-207h-602v397q162 41 253 144.5t91 279.5q0 205 -119.5 315.5t-318.5 110.5q-98 0 -182 -28.5t-143.5 -83 t-93.5 -133t-34 -181.5q0 -90 27 -163.5t75 -127t113.5 -87t143.5 -46.5v-397h-602v207h383v72q-82 14 -159 61t-136.5 119.5t-95 167t-35.5 204.5z" />
<glyph unicode="&#x3c0;" horiz-adv-x="1230" d="M150 0v995h931v-995h-258v793h-417v-793h-256z" />
<glyph unicode="&#x2000;" horiz-adv-x="962" />
<glyph unicode="&#x2001;" horiz-adv-x="1925" />
<glyph unicode="&#x2002;" horiz-adv-x="962" />
<glyph unicode="&#x2003;" horiz-adv-x="1925" />
<glyph unicode="&#x2004;" horiz-adv-x="641" />
<glyph unicode="&#x2005;" horiz-adv-x="481" />
<glyph unicode="&#x2006;" horiz-adv-x="320" />
<glyph unicode="&#x2007;" horiz-adv-x="320" />
<glyph unicode="&#x2008;" horiz-adv-x="240" />
<glyph unicode="&#x2009;" horiz-adv-x="385" />
<glyph unicode="&#x200a;" horiz-adv-x="106" />
<glyph unicode="&#x2010;" horiz-adv-x="645" d="M70 399v209h505v-209h-505z" />
<glyph unicode="&#x2011;" horiz-adv-x="645" d="M70 399v209h505v-209h-505z" />
<glyph unicode="&#x2012;" horiz-adv-x="645" d="M70 399v209h505v-209h-505z" />
<glyph unicode="&#x2013;" horiz-adv-x="1024" d="M0 406v196h1024v-196h-1024z" />
<glyph unicode="&#x2014;" horiz-adv-x="2048" d="M0 406v196h2048v-196h-2048z" />
<glyph unicode="&#x2018;" horiz-adv-x="606" d="M106 909l175 541h219l-144 -541h-250z" />
<glyph unicode="&#x2019;" horiz-adv-x="606" d="M106 909l144 541h250l-174 -541h-220z" />
<glyph unicode="&#x201a;" horiz-adv-x="606" d="M106 -258l144 541h250l-174 -541h-220z" />
<glyph unicode="&#x201c;" horiz-adv-x="1062" d="M119 909l174 541h219l-143 -541h-250zM551 909l174 541h219l-143 -541h-250z" />
<glyph unicode="&#x201d;" horiz-adv-x="1062" d="M119 909l143 541h250l-174 -541h-219zM551 909l143 541h250l-174 -541h-219z" />
<glyph unicode="&#x201e;" horiz-adv-x="1062" d="M121 -258l143 541h250l-174 -541h-219zM549 -258l143 541h250l-174 -541h-219z" />
<glyph unicode="&#x2020;" horiz-adv-x="1214" d="M84 838v196h405v416h234v-416h407v-196h-407v-1096h-234v1096h-405z" />
<glyph unicode="&#x2021;" horiz-adv-x="1214" d="M96 123v196h393v555h-393v197h393v379h234v-379h395v-197h-395v-555h395v-196h-395v-381h-234v381h-393z" />
<glyph unicode="&#x2022;" horiz-adv-x="1024" d="M150 725q0 76 28.5 141.5t77.5 114.5t114.5 77.5t141.5 28.5t141.5 -28.5t114.5 -77.5t77.5 -114.5t28.5 -141.5t-28.5 -141.5t-77.5 -114.5t-114.5 -78t-141.5 -29t-141.5 29t-114.5 78t-77.5 114.5t-28.5 141.5z" />
<glyph unicode="&#x2026;" horiz-adv-x="2048" d="M178 143q0 66 48 113t116 47q66 0 115 -45t49 -111t-48 -112.5t-116 -46.5q-33 0 -62.5 12t-52 32.5t-36 49t-13.5 61.5zM860 143q0 66 48 113t116 47q66 0 115 -45t49 -111t-48 -112.5t-116 -46.5q-33 0 -62.5 12t-52 32.5t-36 49t-13.5 61.5zM1542 143q0 66 48 113 t116 47q66 0 115 -45t49 -111t-48 -112.5t-116 -46.5q-33 0 -62.5 12t-52 32.5t-36 49t-13.5 61.5z" />
<glyph unicode="&#x202f;" horiz-adv-x="385" />
<glyph unicode="&#x2030;" horiz-adv-x="2390" d="M14 1114q0 74 29 139.5t78 114.5t114.5 78t139.5 29t140.5 -29t115.5 -78t77.5 -114.5t28.5 -139.5t-28.5 -140.5t-77.5 -115.5t-115.5 -77.5t-140.5 -28.5t-139.5 28.5t-114.5 77.5t-78 115.5t-29 140.5zM199 1114q0 -78 49 -128t127 -50t128 50t50 128t-50 127t-128 49 t-127 -49t-49 -127zM274 12l852 1504l170 -78l-852 -1504zM842 338q0 74 28.5 139.5t77.5 114.5t114.5 77.5t139.5 28.5t140.5 -28.5t115.5 -77.5t78 -114.5t29 -139.5t-29 -140.5t-78 -115.5t-115.5 -78t-140.5 -29t-139.5 29t-114.5 78t-77.5 115.5t-28.5 140.5zM1026 338 q0 -78 49 -128t127 -50t128 50t50 128t-50 127t-128 49t-127 -49t-49 -127zM1653 338q0 74 28.5 139.5t77.5 114.5t114.5 77.5t139.5 28.5t140.5 -28.5t115.5 -77.5t78 -114.5t29 -139.5t-29 -140.5t-78 -115.5t-115.5 -78t-140.5 -29t-139.5 29t-114.5 78t-77.5 115.5 t-28.5 140.5zM1837 338q0 -78 49 -128t127 -50t128 50t50 128t-50 127t-128 49t-127 -49t-49 -127z" />
<glyph unicode="&#x2039;" horiz-adv-x="606" d="M61 508l312 459l153 -105l-235 -354l237 -358l-155 -105z" />
<glyph unicode="&#x203a;" horiz-adv-x="606" d="M78 862l155 105l312 -463l-312 -459l-153 105l235 354z" />
<glyph unicode="&#x2044;" horiz-adv-x="342" d="M-340 12l852 1504l170 -78l-852 -1504z" />
<glyph unicode="&#x205f;" horiz-adv-x="481" />
<glyph unicode="&#x20ac;" horiz-adv-x="1249" d="M31 455l57 176h92q-2 10 -2 22.5v22.5v45q0 25 1 50.5t5 47.5h-147l61 176h113q31 113 90 203t142 154.5t188.5 99.5t228.5 35q98 0 185.5 -19.5t142.5 -48.5l-78 -205q-47 29 -116.5 43.5t-145.5 14.5q-61 0 -122.5 -18.5t-114 -53.5t-92.5 -86t-60 -119h590l-58 -176 h-571q-6 -43 -6 -100v-43q0 -12 1 -23.5t3 -21.5h524l-55 -176h-438q14 -57 48.5 -107.5t86 -87.5t117 -58.5t143.5 -21.5q154 0 268 68l84 -197q-59 -39 -154.5 -63.5t-205.5 -24.5q-139 0 -247 39t-185.5 106.5t-127 156.5t-73.5 190h-172z" />
<glyph unicode="&#x2122;" horiz-adv-x="2048" d="M82 1266v184h709v-184h-250v-660h-209v660h-250zM983 606v844h291l201 -549l200 549h291v-844h-209v549h-4l-207 -549h-143l-207 549h-4v-549h-209z" />
<glyph unicode="&#x2202;" horiz-adv-x="1138" d="M82 440q0 98 31.5 181.5t90 143.5t140.5 94t180 34q86 0 157 -29.5t136 -83.5v58q2 74 -12 154.5t-50 148t-96.5 112.5t-150.5 45q-72 0 -133.5 -27.5t-116.5 -72.5l-121 143q86 66 167 101t192 35q160 0 266 -65.5t170.5 -172t92.5 -239t28 -267.5q0 -131 -21.5 -266 t-79 -244.5t-159 -179.5t-263.5 -70q-102 0 -184 36t-141.5 98.5t-91 147.5t-31.5 185zM305 428q0 -55 13.5 -106.5t42 -90t72.5 -62.5t106 -24q72 0 125 39t87.5 97.5t50 128t13.5 131.5l-2 51q-53 59 -112.5 95t-145.5 36q-63 0 -110.5 -24.5t-78 -64.5t-46 -94.5 t-15.5 -111.5z" />
<glyph unicode="&#x2206;" horiz-adv-x="1402" d="M16 0l553 1458h236l581 -1458h-1370zM330 213h733l-379 977z" />
<glyph unicode="&#x220f;" horiz-adv-x="1517" d="M127 -438v2048h1264v-2048h-234v1837h-797v-1837h-233z" />
<glyph unicode="&#x2211;" horiz-adv-x="1327" d="M51 -256l621 854l-594 829v183h1173v-211h-864l563 -799l-600 -827h928v-211h-1227v182z" />
<glyph unicode="&#x221a;" horiz-adv-x="1099" d="M-25 344l304 139l264 -559l344 1686h237l-432 -2048h-217l-311 649l-105 -51z" />
<glyph unicode="&#x221e;" horiz-adv-x="1669" d="M92 537q0 76 23.5 143.5t67.5 116.5t107.5 77.5t143.5 28.5q68 0 124 -20.5t104.5 -54t90.5 -77.5t83 -92q39 47 80.5 91.5t90 79t104.5 55t122 20.5q80 0 143.5 -28.5t108.5 -77.5t68.5 -116.5t23.5 -143.5q0 -78 -23.5 -145.5t-68.5 -119t-108.5 -80t-145.5 -28.5 q-63 0 -118.5 19.5t-103.5 51t-91.5 72.5t-81.5 86q-43 -45 -85 -86t-88.5 -72.5t-100.5 -50t-120 -18.5q-80 0 -145.5 28.5t-110.5 78t-69.5 117t-24.5 145.5zM276 532q0 -76 44.5 -121.5t119.5 -45.5q39 0 78 15t75 38.5t67.5 53t56.5 58.5q-25 27 -57.5 57.5t-69.5 57.5 t-77 44.5t-79 17.5q-72 0 -115 -52.5t-43 -122.5zM952 530q27 -31 57.5 -60.5t66.5 -53t76 -39t83 -15.5q76 0 117 49t41 121q0 74 -43 125.5t-121 51.5q-41 0 -79 -17.5t-74 -44t-67.5 -58.5t-56.5 -59z" />
<glyph unicode="&#x222b;" horiz-adv-x="1251" d="M186 -285q0 47 31 78t78 31q49 0 70.5 -23.5t33 -51.5t19.5 -51.5t28 -23.5q16 0 23.5 11.5t10.5 27t2 30.5t-1 26q0 53 -4 104t-4 104v1037q0 57 -1 123.5t3 133t19.5 128t48 108.5t88 75t139.5 28q35 0 75 -9.5t73.5 -28t55 -48t21.5 -72.5q0 -47 -29.5 -76.5 t-76.5 -29.5q-49 0 -70.5 23.5t-33 51t-20.5 51t-32 23.5t-28 -18.5t-5 -34.5q0 -63 4.5 -125t4.5 -125v-1206q0 -78 -10.5 -154t-41 -136.5t-89 -98t-154.5 -37.5q-37 0 -77 8t-74 26.5t-55.5 48t-21.5 72.5z" />
<glyph unicode="&#x2248;" horiz-adv-x="1363" d="M129 147q6 63 25.5 127t55.5 114t90 81t128 31q63 0 131 -21.5t135.5 -46t134 -46t127.5 -21.5q57 0 87 40.5t40 92.5h146q-6 -68 -25.5 -131.5t-55.5 -112.5t-91.5 -79t-130.5 -30q-61 0 -134 22.5t-145 48.5t-135 48.5t-106 22.5q-57 0 -89 -45t-43 -95h-145zM133 571 q6 63 25.5 127t55.5 114t90 82t128 32q63 0 131 -21.5t135.5 -46t134 -46t128.5 -21.5q57 0 86.5 40.5t39.5 92.5h146q-6 -68 -25.5 -131.5t-56.5 -112.5t-92 -79t-131 -30q-61 0 -134 22.5t-144.5 48.5t-135 48.5t-104.5 22.5q-57 0 -89 -46t-42 -96h-146z" />
<glyph unicode="&#x2260;" horiz-adv-x="1363" d="M164 332v209h371l77 159h-448v209h553l147 293l185 -90l-105 -203h256v-209h-360l-78 -159h438v-209h-541l-151 -295l-180 92l102 203h-266z" />
<glyph unicode="&#x2264;" horiz-adv-x="1363" d="M164 8v219h1036v-219h-1036zM164 643v221l1036 363v-232l-735 -241l735 -230v-229z" />
<glyph unicode="&#x2265;" horiz-adv-x="1363" d="M164 8v219h1036v-219h-1036zM164 295v229l735 230l-735 241v232l1036 -363v-221z" />
<glyph unicode="&#x25ca;" horiz-adv-x="1214" d="M141 729l363 801h205l364 -801l-364 -801h-205zM365 729l241 -586l244 586l-244 584z" />
<glyph unicode="&#x25fc;" horiz-adv-x="983" d="M0 0v983h983v-983h-983z" />
<glyph unicode="&#xf8ff;" horiz-adv-x="1794" d="M213 653q0 180 111 326q119 156 299 156q86 0 145 -25q129 -53 160 -53q55 0 116 24q135 53 185 54q119 0 184 -48q31 -25 123 -131q-86 -39 -137 -121.5t-51 -177.5q0 -113 41 -172q39 -59 91 -105t89 -56q-10 -29 -18.5 -51.5t-16.5 -39.5q-47 -102 -98 -159 q-82 -90 -119 -117q-53 -35 -123 -35q-59 0 -141 35q-78 33 -121 33q-39 0 -154 -45q-61 -23 -98 -23q-100 0 -211 119q-45 47 -90 115q-84 123 -125 236.5t-41 260.5zM891 1128q0 63 29 125q16 35 71 107q49 59 112.5 89t106.5 30q0 -137 -94 -244q-94 -106 -225 -107z" />
<glyph unicode="&#xfb01;" horiz-adv-x="1214" d="M25 774v209h202v139q0 102 14.5 185.5t54.5 142.5t111.5 91t186.5 32q84 0 156 -14l-17 -209q-27 6 -51.5 10t-50.5 4q-51 0 -82 -16.5t-48.5 -44t-22.5 -64.5t-5 -78v-178h227v-209h-227v-774h-246v774h-202zM827 1317q0 59 44 103t112 44t114 -42t46 -105t-46 -105.5 t-114 -42.5t-112 44.5t-44 103.5zM860 0v983h246v-983h-246z" />
<glyph unicode="&#xfb02;" horiz-adv-x="1214" d="M25 774v209h202v139q0 102 14.5 185.5t54.5 142.5t111.5 91t186.5 32q84 0 156 -14l-17 -209q-27 6 -51.5 10t-50.5 4q-51 0 -82 -16.5t-48.5 -44t-22.5 -64.5t-5 -78v-178h227v-209h-227v-774h-246v774h-202zM860 0v1548h246v-1548h-246z" />
</font>
</defs>
</svg>
